osu file format v14

[General]
AudioFilename: audio.ogg
AudioLeadIn: 0
PreviewTime: 284
Countdown: 0
SampleSet: Normal
StackLeniency: 0.7
Mode: 1
LetterboxInBreaks: 0
WidescreenStoryboard: 1

[Editor]
Bookmarks: 16294,32294,48294,80294,96294,114294,146294,162294,178294
DistanceSpacing: 0.75
BeatDivisor: 6
GridSize: 32
TimelineZoom: 2.6

[Metadata]
Title:Green Brick Wonderland
TitleUnicode:Green Brick Wonderland
Artist:Miyazawa Moyoyo
ArtistUnicode:宮沢もよよ
Creator:Eyenine
Version:Oni
Source:
Tags:quadrophenia ofeq electronica electronic instrumental
BeatmapID:3455026
BeatmapSetID:1687320

[Difficulty]
HPDrainRate:5
CircleSize:5
OverallDifficulty:6
ApproachRate:8
SliderMultiplier:1.4
SliderTickRate:1

[Events]
//Background and Video events
0,0,"nanaironeko.jpg",0,-90
//Break Periods
2,16484,31534
//Storyboard Layer 0 (Background)
//Storyboard Layer 1 (Fail)
//Storyboard Layer 2 (Pass)
//Storyboard Layer 3 (Foreground)
//Storyboard Layer 4 (Overlay)
//Storyboard Sound Samples

[TimingPoints]
284,500,4,1,0,40,1,0
15950,-50,4,1,0,40,0,0
16242,-100,4,1,0,15,0,0
16325,-133.333333333333,4,1,0,15,0,0
32200,-68.9655172413793,4,1,0,60,0,0
46992,-68.9655172413793,4,1,0,60,0,0
47031,-69.692535,4,1,0,60,0,0
47197,-72.72251,4,1,0,60,0,0
47281,-74.358406,4,1,0,60,0,0
47447,-77.81774,4,1,0,60,0,0
47531,-79.69385,4,1,0,60,0,0
47697,-83.68075,4,1,0,60,0,0
47781,-85.85416,4,1,0,60,0,0
47825,-86.9565217391304,4,1,0,60,0,0
48242,-74.0740740740741,4,1,0,60,0,0
48409,-80,4,1,0,60,0,0
80280,-79.998,4,1,0,60,0,0
80284,-80,4,1,0,70,0,0
80531,-80.50324,4,1,0,40,0,0
80781,-81.012856,4,1,0,40,0,0
81281,-82.051674,4,1,0,40,0,0
82031,-83.66085,4,1,0,40,0,0
82281,-84.21136,4,1,0,40,0,0
82781,-85.334404,4,1,0,40,0,0
83281,-86.4878,4,1,0,40,0,0
83781,-87.672806,4,1,0,40,0,0
84031,-88.27758,4,1,0,40,0,0
84281,-88.89073,4,1,0,40,0,0
84531,-89.51249,4,1,0,40,0,0
84781,-90.14298,4,1,0,40,0,0
85281,-91.431015,4,1,0,40,0,0
86031,-93.4336,4,1,0,40,0,0
86281,-94.120766,4,1,0,40,0,0
86781,-95.525856,4,1,0,40,0,0
87281,-96.97356,4,1,0,40,0,0
87781,-98.465805,4,1,0,40,0,0
88031,-99.22928,4,1,0,40,0,0
88242,-66.6666666666667,4,1,0,40,0,0
88285,-66.6666666666667,4,1,0,40,0,0
88700,-100,4,1,0,40,0,0
88781,-101.592445,4,1,0,40,0,0
89281,-103.23143,4,1,0,40,0,0
90031,-105.79152,4,1,0,40,0,0
90242,-66.6666666666667,4,1,0,40,0,0
90285,-66.6666666666667,4,1,0,40,0,0
91992,-100,4,1,0,40,0,0
92031,-113.28317,4,1,0,40,0,0
92281,-114.2949,4,1,0,40,0,0
92531,-115.32486,4,1,0,40,0,0
92781,-116.37356,4,1,0,40,0,0
93281,-118.52922,4,1,0,40,0,0
94031,-121.91675,4,1,0,40,0,0
94281,-123.08935,4,1,0,40,0,0
94781,-125.50357,4,1,0,40,0,0
95281,-128.01439,4,1,0,40,0,0
95781,-130.62775,4,1,0,40,0,0
96031,-131.97484,4,1,0,40,0,0
96281,-133.35,4,1,0,30,0,0
99242,-119.047619047619,4,1,0,30,0,0
99575,-123.456790123457,4,1,0,30,0,0
99909,-128.205128205128,4,1,0,30,0,0
100242,-133.33333,4,1,0,30,0,0
103242,-128.205128205128,4,1,0,30,0,0
103471,-123.456790123457,4,1,0,30,0,0
103742,-119.047619047619,4,1,0,30,0,0
103971,-114.942528735632,4,1,0,30,0,0
104242,-133.333333333333,4,1,0,30,0,0
107242,-119.047619047619,4,1,0,30,0,0
107575,-123.456790123457,4,1,0,30,0,0
107909,-128.205128205128,4,1,0,30,0,0
108242,-133.33333,4,1,0,30,0,0
112200,-50,4,1,0,30,0,0
112285,-50,4,1,0,70,0,0
114200,-66.6666666666667,4,1,0,70,0,0
114284,-66.666664,4,1,0,70,0,1
114447,-66.54228,4,1,0,70,0,1
114531,-66.47943,4,1,0,70,0,1
114781,-66.292725,4,1,0,70,0,1
115031,-66.10652,4,1,0,70,0,1
115197,-65.98319,4,1,0,70,0,1
115281,-65.92087,4,1,0,70,0,1
115447,-65.797874,4,1,0,70,0,1
115531,-65.735725,4,1,0,70,0,1
115781,-65.551094,4,1,0,70,0,1
116031,-65.367,4,1,0,70,0,1
116197,-65.245026,4,1,0,70,0,1
116281,-65.1834,4,1,0,70,0,1
116447,-65.06178,4,1,0,70,0,1
116531,-65.000336,4,1,0,70,0,1
116781,-64.81777,4,1,0,70,0,1
117031,-64.63573,4,1,0,70,0,1
117197,-64.51514,4,1,0,70,0,1
117281,-64.4542,4,1,0,70,0,1
117447,-64.33394,4,1,0,70,0,1
117531,-64.27317,4,1,0,70,0,1
117781,-64.09265,4,1,0,70,0,1
118031,-63.912647,4,1,0,70,0,1
118281,-63.733143,4,1,0,70,0,1
118531,-63.55415,4,1,0,70,0,1
118593,-63.509834,4,1,0,70,0,1
118656,-63.464836,4,1,0,70,0,1
118781,-63.37565,4,1,0,70,0,1
119031,-63.19766,4,1,0,70,0,1
119197,-63.079742,4,1,0,70,0,1
119281,-63.02016,4,1,0,70,0,1
119447,-62.90258,4,1,0,70,0,1
119531,-62.843163,4,1,0,70,0,1
119781,-62.66666,4,1,0,70,0,1
120031,-62.490658,4,1,0,70,0,1
120197,-62.37407,4,1,0,70,0,1
120281,-62.315155,4,1,0,70,0,1
120447,-62.19888,4,1,0,70,0,1
120531,-62.140133,4,1,0,70,0,1
120781,-61.96561,4,1,0,70,0,1
121031,-61.791573,4,1,0,70,0,1
121197,-61.67629,4,1,0,70,0,1
121281,-61.618027,4,1,0,70,0,1
121447,-61.503067,4,1,0,70,0,1
121531,-61.44497,4,1,0,70,0,1
121697,-61.33033,4,1,0,70,0,1
121781,-61.272404,4,1,0,70,0,1
121947,-61.158077,4,1,0,70,0,1
122031,-61.100304,4,1,0,70,0,1
122281,-60.92871,4,1,0,70,0,1
122531,-60.757576,4,1,0,70,0,1
122593,-60.715218,4,1,0,70,0,1
122656,-60.6722,4,1,0,70,0,1
122718,-60.629898,4,1,0,70,0,1
122781,-60.58694,4,1,0,70,0,1
123031,-60.41678,4,1,0,70,0,1
123197,-60.30405,4,1,0,70,0,1
123281,-60.2471,4,1,0,70,0,1
123447,-60.134686,4,1,0,70,0,1
123531,-60.07788,4,1,0,70,0,1
123697,-59.965797,4,1,0,70,0,1
123781,-59.90915,4,1,0,70,0,1
123947,-59.797375,4,1,0,70,0,1
124031,-59.740894,4,1,0,70,0,1
124281,-59.57311,4,1,0,70,0,1
124447,-59.461956,4,1,0,70,0,1
124531,-59.405792,4,1,0,70,0,1
124781,-59.238945,4,1,0,70,0,1
125031,-59.07257,4,1,0,70,0,1
125197,-58.962357,4,1,0,70,0,1
125281,-58.906662,4,1,0,70,0,1
125447,-58.79675,4,1,0,70,0,1
125531,-58.741215,4,1,0,70,0,1
125697,-58.63162,4,1,0,70,0,1
125781,-58.57624,4,1,0,70,0,1
126031,-58.411724,4,1,0,70,0,1
126093,-58.37099,4,1,0,70,0,1
126156,-58.32964,4,1,0,70,0,1
126281,-58.24767,4,1,0,70,0,1
126447,-58.13899,4,1,0,70,0,1
126531,-58.08408,4,1,0,70,0,1
126781,-57.92094,4,1,0,70,0,1
127031,-57.75827,4,1,0,70,0,1
127197,-57.6505,4,1,0,70,0,1
127281,-57.596046,4,1,0,70,0,1
127447,-57.48859,4,1,0,70,0,1
127531,-57.434288,4,1,0,70,0,1
127781,-57.27298,4,1,0,70,0,1
128030,-57.112762,4,1,0,70,0,1
128197,-57.00556,4,1,0,70,0,1
128280,-56.952362,4,1,0,70,0,1
128447,-56.845463,4,1,0,70,0,1
128530,-56.792408,4,1,0,70,0,1
128780,-56.632896,4,1,0,70,0,1
129030,-56.473846,4,1,0,70,0,1
129197,-56.36784,4,1,0,70,0,1
129280,-56.31523,4,1,0,70,0,1
129447,-56.20953,4,1,0,70,0,1
129530,-56.157066,4,1,0,70,0,1
129780,-55.999344,4,1,0,70,0,1
130030,-55.842068,4,1,0,70,0,1
130280,-55.68523,4,1,0,70,0,1
130531,-55.52821,4,1,0,70,0,1
130593,-55.489494,4,1,0,70,0,1
130656,-55.45018,4,1,0,70,0,1
130780,-55.372875,4,1,0,70,0,1
131031,-55.21674,4,1,0,70,0,1
131197,-55.113716,4,1,0,70,0,1
131281,-55.061665,4,1,0,70,0,1
131447,-54.958927,4,1,0,70,0,1
131531,-54.907017,4,1,0,70,0,1
131781,-54.752804,4,1,0,70,0,1
132031,-54.599026,4,1,0,70,0,1
132197,-54.49716,4,1,0,70,0,1
132281,-54.445686,4,1,0,70,0,1
132447,-54.344105,4,1,0,70,0,1
132531,-54.29277,4,1,0,70,0,1
132781,-54.14028,4,1,0,70,0,1
133031,-53.988228,4,1,0,70,0,1
133197,-53.887497,4,1,0,70,0,1
133281,-53.836597,4,1,0,70,0,1
133447,-53.736145,4,1,0,70,0,1
133531,-53.685394,4,1,0,70,0,1
133697,-53.585228,4,1,0,70,0,1
133781,-53.53461,4,1,0,70,0,1
133947,-53.43473,4,1,0,70,0,1
134031,-53.384262,4,1,0,70,0,1
134281,-53.234325,4,1,0,70,0,1
134531,-53.084812,4,1,0,70,0,1
134593,-53.0478,4,1,0,70,0,1
134656,-53.010216,4,1,0,70,0,1
134718,-52.97325,4,1,0,70,0,1
134781,-52.93572,4,1,0,70,0,1
135031,-52.787045,4,1,0,70,0,1
135197,-52.688557,4,1,0,70,0,1
135281,-52.638794,4,1,0,70,0,1
135447,-52.540577,4,1,0,70,0,1
135531,-52.490948,4,1,0,70,0,1
135697,-52.393017,4,1,0,70,0,1
135781,-52.343525,4,1,0,70,0,1
135947,-52.24587,4,1,0,70,0,1
136031,-52.196518,4,1,0,70,0,1
136281,-52.049923,4,1,0,70,0,1
136531,-51.903732,4,1,0,70,0,1
136614,-51.85529,4,1,0,70,0,1
136697,-51.806892,4,1,0,70,0,1
136781,-51.757957,4,1,0,70,0,1
137031,-51.61259,4,1,0,70,0,1
137197,-51.516293,4,1,0,70,0,1
137281,-51.467632,4,1,0,70,0,1
137447,-51.371613,4,1,0,70,0,1
137531,-51.323082,4,1,0,70,0,1
137697,-51.227325,4,1,0,70,0,1
137781,-51.178936,4,1,0,70,0,1
137947,-51.083454,4,1,0,70,0,1
138031,-51.0352,4,1,0,70,0,1
138281,-50.891865,4,1,0,70,0,1
138531,-50.74893,4,1,0,70,0,1
138781,-50.6064,4,1,0,70,0,1
139031,-50.46427,4,1,0,70,0,1
139197,-50.370113,4,1,0,70,0,1
139281,-50.322533,4,1,0,70,0,1
139447,-50.22864,4,1,0,70,0,1
139531,-50.1812,4,1,0,70,0,1
139781,-50.040264,4,1,0,70,0,1
140031,-49.89972,4,1,0,70,0,1
140281,-49.75957,4,1,0,70,0,1
140531,-49.619823,4,1,0,70,0,1
140593,-49.585224,4,1,0,70,0,1
140656,-49.550095,4,1,0,70,0,1
140781,-49.480465,4,1,0,70,0,1
141031,-49.34149,4,1,0,70,0,1
141197,-49.249428,4,1,0,70,0,1
141281,-49.20291,4,1,0,70,0,1
141447,-49.11111,4,1,0,70,0,1
141531,-49.06472,4,1,0,70,0,1
141697,-48.97318,4,1,0,70,0,1
141781,-48.92692,4,1,0,70,0,1
141947,-48.835632,4,1,0,70,0,1
142031,-48.789505,4,1,0,70,0,1
142281,-48.65248,4,1,0,70,0,1
142531,-48.515827,4,1,0,70,0,1
142593,-48.482006,4,1,0,70,0,1
142656,-48.447655,4,1,0,70,0,1
142781,-48.379574,4,1,0,70,0,1
143031,-48.243694,4,1,0,70,0,1
143197,-48.153687,4,1,0,70,0,1
143281,-48.108204,4,1,0,70,0,1
143447,-48.01844,4,1,0,70,0,1
143531,-47.973083,4,1,0,70,0,1
143697,-47.883575,4,1,0,70,0,1
143781,-47.838352,4,1,0,70,0,1
144031,-47.703995,4,1,0,70,0,1
144197,-47.614986,4,1,0,70,0,1
144281,-47.57001,4,1,0,70,0,1
144364,-47.52561,4,1,0,70,0,1
144447,-47.481255,4,1,0,70,0,1
144531,-47.4364,4,1,0,70,0,1
144697,-47.347904,4,1,0,70,0,1
144781,-47.30318,4,1,0,70,0,1
144947,-47.21492,4,1,0,70,0,1
145031,-47.170322,4,1,0,70,0,1
145197,-47.082314,4,1,0,70,0,1
145281,-47.037846,4,1,0,70,0,1
145531,-46.90574,4,1,0,70,0,1
145614,-46.861958,4,1,0,70,0,1
145697,-46.818214,4,1,0,70,0,1
145781,-46.774,4,1,0,70,0,1
145947,-46.686726,4,1,0,70,0,1
146031,-46.642624,4,1,0,70,0,1
146197,-46.555607,4,1,0,70,0,1
146284,-46.511627,4,1,0,70,0,0
146367,-100,4,1,0,40,0,0
162242,-62.5,4,1,0,70,0,0
178284,-52.63093,4,1,0,70,0,1
178531,-52.61036,4,1,0,70,0,1
178656,-52.60008,4,1,0,70,0,1
178718,-52.594982,4,1,0,70,0,1
178781,-52.589798,4,1,0,70,0,1
178906,-52.57952,4,1,0,70,0,1
179031,-52.56925,4,1,0,70,0,1
179281,-52.5487,4,1,0,70,0,1
179343,-52.54361,4,1,0,70,0,1
179406,-52.538433,4,1,0,70,0,1
179531,-52.528164,4,1,0,70,0,1
179656,-52.517895,4,1,0,70,0,1
179781,-52.507633,4,1,0,70,0,1
179906,-52.497375,4,1,0,70,0,1
180031,-52.487114,4,1,0,70,0,1
180281,-52.4666,4,1,0,70,0,1
180406,-52.456345,4,1,0,70,0,1
180531,-52.446095,4,1,0,70,0,1
180656,-52.435844,4,1,0,70,0,1
180718,-52.43076,4,1,0,70,0,1
180781,-52.4256,4,1,0,70,0,1
180906,-52.415348,4,1,0,70,0,1
181031,-52.40511,4,1,0,70,0,1
181281,-52.38463,4,1,0,70,0,1
181343,-52.37955,4,1,0,70,0,1
181406,-52.37439,4,1,0,70,0,1
181531,-52.364155,4,1,0,70,0,1
181593,-52.359074,4,1,0,70,0,1
181656,-52.35392,4,1,0,70,0,1
181781,-52.343685,4,1,0,70,0,1
181906,-52.333458,4,1,0,70,0,1
182031,-52.32323,4,1,0,70,0,1
182281,-52.30278,4,1,0,70,0,1
182406,-52.292557,4,1,0,70,0,1
182468,-52.28749,4,1,0,70,0,1
182531,-52.28234,4,1,0,70,0,1
182656,-52.27212,4,1,0,70,0,1
182781,-52.26191,4,1,0,70,0,1
182843,-52.256844,4,1,0,70,0,1
182906,-52.25169,4,1,0,70,0,1
182968,-52.246624,4,1,0,70,0,1
183031,-52.24148,4,1,0,70,0,1
183156,-52.23127,4,1,0,70,0,1
183281,-52.22106,4,1,0,70,0,1
183406,-52.210857,4,1,0,70,0,1
183531,-52.200653,4,1,0,70,0,1
183781,-52.180252,4,1,0,70,0,1
183906,-52.17005,4,1,0,70,0,1
184031,-52.15986,4,1,0,70,0,1
184156,-52.149662,4,1,0,70,0,1
184218,-52.14461,4,1,0,70,0,1
184281,-52.139477,4,1,0,70,0,1
184531,-52.1191,4,1,0,70,0,1
184656,-52.10891,4,1,0,70,0,1
184718,-52.103863,4,1,0,70,0,1
184781,-52.098724,4,1,0,70,0,1
184906,-52.088543,4,1,0,70,0,1
185031,-52.07837,4,1,0,70,0,1
185281,-52.05801,4,1,0,70,0,1
185406,-52.04784,4,1,0,70,0,1
185468,-52.042793,4,1,0,70,0,1
185531,-52.037666,4,1,0,70,0,1
185656,-52.0275,4,1,0,70,0,1
185781,-52.01733,4,1,0,70,0,1
185906,-52.007164,4,1,0,70,0,1
185968,-52.00212,4,1,0,70,0,1
186031,-51.997005,4,1,0,70,0,1
186281,-51.976677,4,1,0,70,0,1
186406,-51.966515,4,1,0,70,0,1
186531,-51.956364,4,1,0,70,0,1
186656,-51.94621,4,1,0,70,0,1
186718,-51.941177,4,1,0,70,0,1
186781,-51.936054,4,1,0,70,0,1
186906,-51.925907,4,1,0,70,0,1
187031,-51.915764,4,1,0,70,0,1
187281,-51.89547,4,1,0,70,0,1
187343,-51.890438,4,1,0,70,0,1
187406,-51.88533,4,1,0,70,0,1
187468,-51.8803,4,1,0,70,0,1
187531,-51.87519,4,1,0,70,0,1
187656,-51.86505,4,1,0,70,0,1
187781,-51.85491,4,1,0,70,0,1
187843,-51.849888,4,1,0,70,0,1
187906,-51.84478,4,1,0,70,0,1
188031,-51.83465,4,1,0,70,0,1
188281,-51.81439,4,1,0,70,0,1
188531,-51.794132,4,1,0,70,0,1
188656,-51.784016,4,1,0,70,0,1
188718,-51.778996,4,1,0,70,0,1
188781,-51.7739,4,1,0,70,0,1
188843,-51.76887,4,1,0,70,0,1
188906,-51.76378,4,1,0,70,0,1
189031,-51.753662,4,1,0,70,0,1
189281,-51.733433,4,1,0,70,0,1
189343,-51.728416,4,1,0,70,0,1
189406,-51.723324,4,1,0,70,0,1
189531,-51.713215,4,1,0,70,0,1
189593,-51.708202,4,1,0,70,0,1
189656,-51.70311,4,1,0,70,0,1
189718,-51.698097,4,1,0,70,0,1
189781,-51.693005,4,1,0,70,0,1
189906,-51.682903,4,1,0,70,0,1
190031,-51.6728,4,1,0,70,0,1
190156,-51.6627,4,1,0,70,0,1
190218,-51.657696,4,1,0,70,0,1
190281,-51.652607,4,1,0,70,0,1
190531,-51.63242,4,1,0,70,0,1
190656,-51.622322,4,1,0,70,0,1
190718,-51.61732,4,1,0,70,0,1
190781,-51.612244,4,1,0,70,0,1
190906,-51.602154,4,1,0,70,0,1
191031,-51.592068,4,1,0,70,0,1
191281,-51.5719,4,1,0,70,0,1
191343,-51.566906,4,1,0,70,0,1
191406,-51.561825,4,1,0,70,0,1
191531,-51.551746,4,1,0,70,0,1
191656,-51.54167,4,1,0,70,0,1
191718,-51.536682,4,1,0,70,0,1
191781,-51.5316,4,1,0,70,0,1
191906,-51.52153,4,1,0,70,0,1
192031,-51.511463,4,1,0,70,0,1
192281,-51.49133,4,1,0,70,0,1
192406,-51.48127,4,1,0,70,0,1
192531,-51.471207,4,1,0,70,0,1
192656,-51.461143,4,1,0,70,0,1
192718,-51.456158,4,1,0,70,0,1
192781,-51.451088,4,1,0,70,0,1
192906,-51.441036,4,1,0,70,0,1
193031,-51.43098,4,1,0,70,0,1
193281,-51.41088,4,1,0,70,0,1
193406,-51.400833,4,1,0,70,0,1
193468,-51.395847,4,1,0,70,0,1
193531,-51.390785,4,1,0,70,0,1
193656,-51.380745,4,1,0,70,0,1
193781,-51.3707,4,1,0,70,0,1
193843,-51.365723,4,1,0,70,0,1
193906,-51.36066,4,1,0,70,0,1
193968,-51.355686,4,1,0,70,0,1
194031,-51.350628,4,1,0,70,0,1
194156,-51.340588,4,1,0,70,0,1
194218,-51.335613,4,1,0,70,0,1
194281,-51.33055,4,1,0,70,0,1
194406,-51.320522,4,1,0,70,0,1
194531,-51.310497,4,1,0,70,0,1
194656,-51.30047,4,1,0,70,0,1
194718,-51.29549,4,1,0,70,0,1
194781,-51.29044,4,1,0,70,0,1
194906,-51.28042,4,1,0,70,0,1
195031,-51.270397,4,1,0,70,0,1
195281,-51.250355,4,1,0,70,0,1
195343,-51.24539,4,1,0,70,0,1
195406,-51.24034,4,1,0,70,0,1
195468,-51.235374,4,1,0,70,0,1
195531,-51.230328,4,1,0,70,0,1
195656,-51.22031,4,1,0,70,0,1
195781,-51.210308,4,1,0,70,0,1
195843,-51.205345,4,1,0,70,0,1
195906,-51.2003,4,1,0,70,0,1
196031,-51.190292,4,1,0,70,0,1
196281,-51.170284,4,1,0,70,0,1
196406,-51.160282,4,1,0,70,0,1
196468,-51.15533,4,1,0,70,0,1
196531,-51.150288,4,1,0,70,0,1
196656,-51.14029,4,1,0,70,0,1
196718,-51.13533,4,1,0,70,0,1
196781,-51.1303,4,1,0,70,0,1
196906,-51.120304,4,1,0,70,0,1
197031,-51.110313,4,1,0,70,0,1
197281,-51.090336,4,1,0,70,0,1
197406,-51.08035,4,1,0,70,0,1
197531,-51.070374,4,1,0,70,0,1
197593,-51.065414,4,1,0,70,0,1
197656,-51.060387,4,1,0,70,0,1
197781,-51.05041,4,1,0,70,0,1
197843,-51.04546,4,1,0,70,0,1
197906,-51.040432,4,1,0,70,0,1
197968,-51.03548,4,1,0,70,0,1
198031,-51.030457,4,1,0,70,0,1
198093,-51.025505,4,1,0,70,0,1
198156,-51.020485,4,1,0,70,0,1
198281,-51.010517,4,1,0,70,0,1
198406,-51.000546,4,1,0,70,0,1
198531,-50.990578,4,1,0,70,0,1
198656,-50.98061,4,1,0,70,0,1
198718,-50.975674,4,1,0,70,0,1
198781,-50.970646,4,1,0,70,0,1
198906,-50.960686,4,1,0,70,0,1
199031,-50.95073,4,1,0,70,0,1
199281,-50.930817,4,1,0,70,0,1
199343,-50.925877,4,1,0,70,0,1
199406,-50.92086,4,1,0,70,0,1
199531,-50.91091,4,1,0,70,0,1
199656,-50.900955,4,1,0,70,0,1
199781,-50.891014,4,1,0,70,0,1
199906,-50.881065,4,1,0,70,0,1
200031,-50.871124,4,1,0,70,0,1
200156,-50.861187,4,1,0,70,0,1
200281,-50.851242,4,1,0,70,0,1
200531,-50.831367,4,1,0,70,0,1
200656,-50.821434,4,1,0,70,0,1
200718,-50.8165,4,1,0,70,0,1
200781,-50.811497,4,1,0,70,0,1
200906,-50.80157,4,1,0,70,0,1
201031,-50.79164,4,1,0,70,0,1
201281,-50.771797,4,1,0,70,0,1
201406,-50.76187,4,1,0,70,0,1
201468,-50.75695,4,1,0,70,0,1
201531,-50.75195,4,1,0,70,0,1
201656,-50.742027,4,1,0,70,0,1
201781,-50.732117,4,1,0,70,0,1
201843,-50.727196,4,1,0,70,0,1
201906,-50.722202,4,1,0,70,0,1
202031,-50.712288,4,1,0,70,0,1
202281,-50.692467,4,1,0,70,0,1
202406,-50.68256,4,1,0,70,0,1
202531,-50.672653,4,1,0,70,0,1
202656,-50.66275,4,1,0,70,0,1
202718,-50.65784,4,1,0,70,0,1
202781,-50.652855,4,1,0,70,0,1
202906,-50.642956,4,1,0,70,0,1
202968,-50.638042,4,1,0,70,0,1
203031,-50.633053,4,1,0,70,0,1
203281,-50.613262,4,1,0,70,0,1
203343,-50.60836,4,1,0,70,0,1
203406,-50.60337,4,1,0,70,0,1
203531,-50.593483,4,1,0,70,0,1
203593,-50.58858,4,1,0,70,0,1
203656,-50.583595,4,1,0,70,0,1
203781,-50.573708,4,1,0,70,0,1
203906,-50.56383,4,1,0,70,0,1
204031,-50.553947,4,1,0,70,0,1
204281,-50.534184,4,1,0,70,0,1
204406,-50.524315,4,1,0,70,0,1
204531,-50.514442,4,1,0,70,0,1
204593,-50.509537,4,1,0,70,0,1
204656,-50.504566,4,1,0,70,0,1
204718,-50.499672,4,1,0,70,0,1
204781,-50.494694,4,1,0,70,0,1
204906,-50.484825,4,1,0,70,0,1
205031,-50.47496,4,1,0,70,0,1
205281,-50.455235,4,1,0,70,0,1
205343,-50.450344,4,1,0,70,0,1
205406,-50.445377,4,1,0,70,0,1
205531,-50.435516,4,1,0,70,0,1
205593,-50.430626,4,1,0,70,0,1
205656,-50.42566,4,1,0,70,0,1
205718,-50.420773,4,1,0,70,0,1
205781,-50.415802,4,1,0,70,0,1
205906,-50.40595,4,1,0,70,0,1
206031,-50.396095,4,1,0,70,0,1
206156,-50.38625,4,1,0,70,0,1
206218,-50.381363,4,1,0,70,0,1
206281,-50.376404,4,1,0,70,0,1
206406,-50.366558,4,1,0,70,0,1
206531,-50.356716,4,1,0,70,0,1
206656,-50.34687,4,1,0,70,0,1
206718,-50.34199,4,1,0,70,0,1
206781,-50.337036,4,1,0,70,0,1
206906,-50.327194,4,1,0,70,0,1
207031,-50.31736,4,1,0,70,0,1
207281,-50.297695,4,1,0,70,0,1
207406,-50.287865,4,1,0,70,0,1
207531,-50.278038,4,1,0,70,0,1
207656,-50.268215,4,1,0,70,0,1
207781,-50.25839,4,1,0,70,0,1
207843,-50.253517,4,1,0,70,0,1
207906,-50.24857,4,1,0,70,0,1
207968,-50.243694,4,1,0,70,0,1
208031,-50.238747,4,1,0,70,0,1
208281,-50.21911,4,1,0,70,0,1
208406,-50.209297,4,1,0,70,0,1
208531,-50.199486,4,1,0,70,0,1
208656,-50.189674,4,1,0,70,0,1
208781,-50.17986,4,1,0,70,0,1
208843,-50.175,4,1,0,70,0,1
208906,-50.17005,4,1,0,70,0,1
209031,-50.16025,4,1,0,70,0,1
209093,-50.15539,4,1,0,70,0,1
209156,-50.15045,4,1,0,70,0,1
209218,-50.145588,4,1,0,70,0,1
209281,-50.140648,4,1,0,70,0,1
209406,-50.13085,4,1,0,70,0,1
209468,-50.12599,4,1,0,70,0,1
209531,-50.121048,4,1,0,70,0,1
209656,-50.11126,4,1,0,70,0,1
209781,-50.101463,4,1,0,70,0,1
209906,-50.09167,4,1,0,70,0,1
210031,-50.081882,4,1,0,70,0,1
210281,-50.06231,4,1,0,70,0,1
210343,-50.057457,4,1,0,70,0,1
210406,-50.05252,4,1,0,70,0,1
210531,-50.042744,4,1,0,70,0,1
210656,-50.032967,4,1,0,70,0,1
210718,-50.028114,4,1,0,70,0,1
210781,-50.02319,4,1,0,70,0,1
210906,-50.013412,4,1,0,70,0,1
211031,-50.00363,4,1,0,70,0,1
211281,-49.984097,4,1,0,70,0,1
211406,-49.974323,4,1,0,70,0,1
211468,-49.969482,4,1,0,70,0,1
211531,-49.96456,4,1,0,70,0,1
211656,-49.954796,4,1,0,70,0,1
211781,-49.945034,4,1,0,70,0,1
211843,-49.940193,4,1,0,70,0,1
211906,-49.93527,4,1,0,70,0,1
211968,-49.93043,4,1,0,70,0,1
212031,-49.92551,4,1,0,70,0,1
212281,-49.905994,4,1,0,70,0,1
212406,-49.896248,4,1,0,70,0,1
212531,-49.88649,4,1,0,70,0,1
212656,-49.876743,4,1,0,70,0,1
212718,-49.871906,4,1,0,70,0,1
212781,-49.866997,4,1,0,70,0,1
212906,-49.85725,4,1,0,70,0,1
213031,-49.847504,4,1,0,70,0,1
213281,-49.828033,4,1,0,70,0,1
213343,-49.823204,4,1,0,70,0,1
213406,-49.81829,4,1,0,70,0,1
213531,-49.80855,4,1,0,70,0,1
213593,-49.803722,4,1,0,70,0,1
213656,-49.798817,4,1,0,70,0,1
213718,-49.793987,4,1,0,70,0,1
213781,-49.78909,4,1,0,70,0,1
213906,-49.779354,4,1,0,70,0,1
214031,-49.769627,4,1,0,70,0,1
214281,-49.750175,4,1,0,70,0,1
214406,-49.74045,4,1,0,70,0,1
214468,-49.73563,4,1,0,70,0,1
214531,-49.730732,4,1,0,70,0,1
214656,-49.721012,4,1,0,70,0,1
214781,-49.7113,4,1,0,70,0,1
214843,-49.706482,4,1,0,70,0,1
214906,-49.70158,4,1,0,70,0,1
214968,-49.69676,4,1,0,70,0,1
215031,-49.691864,4,1,0,70,0,1
215156,-49.68216,4,1,0,70,0,1
215281,-49.672443,4,1,0,70,0,1
215406,-49.66274,4,1,0,70,0,1
215531,-49.653027,4,1,0,70,0,1
215593,-49.64822,4,1,0,70,0,1
215656,-49.643326,4,1,0,70,0,1
215781,-49.633625,4,1,0,70,0,1
215906,-49.623924,4,1,0,70,0,1
215968,-49.619118,4,1,0,70,0,1
216031,-49.614227,4,1,0,70,0,1
216156,-49.604534,4,1,0,70,0,1
216281,-49.59484,4,1,0,70,0,1
216531,-49.575455,4,1,0,70,0,1
216593,-49.57065,4,1,0,70,0,1
216656,-49.56577,4,1,0,70,0,1
216781,-49.556076,4,1,0,70,0,1
216906,-49.546394,4,1,0,70,0,1
217031,-49.53671,4,1,0,70,0,1
217281,-49.517345,4,1,0,70,0,1
217406,-49.507675,4,1,0,70,0,1
217468,-49.502872,4,1,0,70,0,1
217531,-49.497997,4,1,0,70,0,1
217656,-49.488327,4,1,0,70,0,1
217781,-49.478653,4,1,0,70,0,1
217843,-49.473858,4,1,0,70,0,1
217906,-49.468983,4,1,0,70,0,1
217968,-49.464188,4,1,0,70,0,1
218031,-49.45932,4,1,0,70,0,1
218281,-49.439987,4,1,0,70,0,1
218406,-49.430325,4,1,0,70,0,1
218531,-49.420662,4,1,0,70,0,1
218656,-49.411003,4,1,0,70,0,1
218718,-49.406216,4,1,0,70,0,1
218781,-49.40135,4,1,0,70,0,1
218906,-49.391693,4,1,0,70,0,1
219031,-49.382046,4,1,0,70,0,1
219281,-49.36274,4,1,0,70,0,1
219343,-49.357956,4,1,0,70,0,1
219406,-49.353096,4,1,0,70,0,1
219468,-49.348312,4,1,0,70,0,1
219531,-49.34345,4,1,0,70,0,1
219593,-49.338665,4,1,0,70,0,1
219656,-49.333805,4,1,0,70,0,1
219781,-49.324165,4,1,0,70,0,1
219906,-49.31452,4,1,0,70,0,1
220031,-49.304886,4,1,0,70,0,1
220281,-49.285618,4,1,0,70,0,1
220343,-49.280846,4,1,0,70,0,1
220406,-49.275986,4,1,0,70,0,1
220468,-49.27121,4,1,0,70,0,1
220531,-49.266357,4,1,0,70,0,1
220656,-49.25673,4,1,0,70,0,1
220718,-49.25195,4,1,0,70,0,1
220781,-49.247097,4,1,0,70,0,1
220843,-49.242325,4,1,0,70,0,1
220906,-49.23748,4,1,0,70,0,1
221031,-49.22785,4,1,0,70,0,1
221281,-49.20862,4,1,0,70,0,1
221343,-49.203846,4,1,0,70,0,1
221406,-49.198997,4,1,0,70,0,1
221468,-49.19423,4,1,0,70,0,1
221531,-49.189384,4,1,0,70,0,1
221593,-49.184612,4,1,0,70,0,1
221656,-49.179768,4,1,0,70,0,1
221718,-49.175,4,1,0,70,0,1
221781,-49.17016,4,1,0,70,0,1
221906,-49.160545,4,1,0,70,0,1
222031,-49.150944,4,1,0,70,0,1
222156,-49.14133,4,1,0,70,0,1
222281,-49.131737,4,1,0,70,0,1
222343,-49.12697,4,1,0,70,0,1
222406,-49.122128,4,1,0,70,0,1
222531,-49.11253,4,1,0,70,0,1
222656,-49.10293,4,1,0,70,0,1
222781,-49.093338,4,1,0,70,0,1
222906,-49.083736,4,1,0,70,0,1
223031,-49.074154,4,1,0,70,0,1
223281,-49.054966,4,1,0,70,0,1
223343,-49.050217,4,1,0,70,0,1
223406,-49.04538,4,1,0,70,0,1
223468,-49.040627,4,1,0,70,0,1
223531,-49.035793,4,1,0,70,0,1
223656,-49.02621,4,1,0,70,0,1
223781,-49.01663,4,1,0,70,0,1
223906,-49.00705,4,1,0,70,0,1
223968,-49.0023,4,1,0,70,0,1
224031,-48.997475,4,1,0,70,0,1
224156,-48.987896,4,1,0,70,0,1
224281,-48.978333,4,1,0,70,0,1
224406,-48.968754,4,1,0,70,0,1
224468,-48.964005,4,1,0,70,0,1
224531,-48.959187,4,1,0,70,0,1
224656,-48.949615,4,1,0,70,0,1
224781,-48.940052,4,1,0,70,0,1
224906,-48.930485,4,1,0,70,0,1
224968,-48.925743,4,1,0,70,0,1
225031,-48.920918,4,1,0,70,0,1
225281,-48.901802,4,1,0,70,0,1
225343,-48.897064,4,1,0,70,0,1
225406,-48.892246,4,1,0,70,0,1
225468,-48.887505,4,1,0,70,0,1
225531,-48.88269,4,1,0,70,0,1
225593,-48.877953,4,1,0,70,0,1
225656,-48.87314,4,1,0,70,0,1
225781,-48.863586,4,1,0,70,0,1
225906,-48.85404,4,1,0,70,0,1
226031,-48.844486,4,1,0,70,0,1
226281,-48.8254,4,1,0,70,0,1
226343,-48.820667,4,1,0,70,0,1
226406,-48.81586,4,1,0,70,0,1
226531,-48.806316,4,1,0,70,0,1
226656,-48.796776,4,1,0,70,0,1
226718,-48.79205,4,1,0,70,0,1
226781,-48.787243,4,1,0,70,0,1
226906,-48.77771,4,1,0,70,0,1
227031,-48.768177,4,1,0,70,0,1
227281,-48.749115,4,1,0,70,0,1
227343,-48.74439,4,1,0,70,0,1
227406,-48.739586,4,1,0,70,0,1
227531,-48.73006,4,1,0,70,0,1
227593,-48.725338,4,1,0,70,0,1
227656,-48.72054,4,1,0,70,0,1
227781,-48.711018,4,1,0,70,0,1
227906,-48.701496,4,1,0,70,0,1
228031,-48.69198,4,1,0,70,0,1
228281,-48.672947,4,1,0,70,0,1
228406,-48.663437,4,1,0,70,0,1
228531,-48.65393,4,1,0,70,0,1
228656,-48.64442,4,1,0,70,0,1
228718,-48.6397,4,1,0,70,0,1
228781,-48.63491,4,1,0,70,0,1
228906,-48.625404,4,1,0,70,0,1
229031,-48.61591,4,1,0,70,0,1
229281,-48.596905,4,1,0,70,0,1
229343,-48.59219,4,1,0,70,0,1
229406,-48.587406,4,1,0,70,0,1
229531,-48.577915,4,1,0,70,0,1
229593,-48.5732,4,1,0,70,0,1
229656,-48.568413,4,1,0,70,0,1
229718,-48.563705,4,1,0,70,0,1
229781,-48.55892,4,1,0,70,0,1
229906,-48.549435,4,1,0,70,0,1
230031,-48.539948,4,1,0,70,0,1
230156,-48.530464,4,1,0,70,0,1
230281,-48.520977,4,1,0,70,0,1
230343,-48.516273,4,1,0,70,0,1
230406,-48.51149,4,1,0,70,0,1
230531,-48.50201,4,1,0,70,0,1
230593,-48.497307,4,1,0,70,0,1
230656,-48.492535,4,1,0,70,0,1
230781,-48.48306,4,1,0,70,0,1
230906,-48.47358,4,1,0,70,0,1
231031,-48.464108,4,1,0,70,0,1
231281,-48.44517,4,1,0,70,0,1
231343,-48.44047,4,1,0,70,0,1
231406,-48.435696,4,1,0,70,0,1
231468,-48.431004,4,1,0,70,0,1
231531,-48.42624,4,1,0,70,0,1
231593,-48.421543,4,1,0,70,0,1
231656,-48.416775,4,1,0,70,0,1
231718,-48.41208,4,1,0,70,0,1
231781,-48.407307,4,1,0,70,0,1
231906,-48.397846,4,1,0,70,0,1
232031,-48.38839,4,1,0,70,0,1
232156,-48.378933,4,1,0,70,0,1
232281,-48.369476,4,1,0,70,0,1
232343,-48.364784,4,1,0,70,0,1
232406,-48.360023,4,1,0,70,0,1
232531,-48.350567,4,1,0,70,0,1
232656,-48.34112,4,1,0,70,0,1
232718,-48.336437,4,1,0,70,0,1
232781,-48.331676,4,1,0,70,0,1
232906,-48.322227,4,1,0,70,0,1
233031,-48.312786,4,1,0,70,0,1
233156,-48.303345,4,1,0,70,0,1
233281,-48.293907,4,1,0,70,0,1
233531,-48.27503,4,1,0,70,0,1
233656,-48.2656,4,1,0,70,0,1
233718,-48.26092,4,1,0,70,0,1
233781,-48.25616,4,1,0,70,0,1
233906,-48.24673,4,1,0,70,0,1
234034,-48.237297,4,1,0,70,0,0
234159,-48.237297,4,1,0,70,0,0
234284,-48.21845,4,1,0,70,0,1
234531,-48.199604,4,1,0,70,0,1
234781,-48.180767,4,1,0,70,0,1
235031,-48.161934,4,1,0,70,0,1
235281,-48.143116,4,1,0,70,0,1
235343,-48.13845,4,1,0,70,0,1
235406,-48.133705,4,1,0,70,0,1
235468,-48.12904,4,1,0,70,0,1
235531,-48.1243,4,1,0,70,0,1
235593,-48.119633,4,1,0,70,0,1
235656,-48.114895,4,1,0,70,0,1
235718,-48.110226,4,1,0,70,0,1
235781,-48.105488,4,1,0,70,0,1
235906,-48.09609,4,1,0,70,0,1
235968,-48.091427,4,1,0,70,0,1
236031,-48.086693,4,1,0,70,0,1
236156,-48.07729,4,1,0,70,0,1
236281,-48.067894,4,1,0,70,0,1
236531,-48.049107,4,1,0,70,0,1
236593,-48.04445,4,1,0,70,0,1
236656,-48.03972,4,1,0,70,0,1
236781,-48.03033,4,1,0,70,0,1
236906,-48.020947,4,1,0,70,0,1
236968,-48.01629,4,1,0,70,0,1
237031,-48.011562,4,1,0,70,0,1
237156,-48.00217,4,1,0,70,0,1
237281,-47.9928,4,1,0,70,0,1
237343,-47.988144,4,1,0,70,0,1
237406,-47.983414,4,1,0,70,0,1
237468,-47.978764,4,1,0,70,0,1
237531,-47.974037,4,1,0,70,0,1
237656,-47.964664,4,1,0,70,0,1
237781,-47.95529,4,1,0,70,0,1
237843,-47.95064,4,1,0,70,0,1
237906,-47.945915,4,1,0,70,0,1
237968,-47.94127,4,1,0,70,0,1
238031,-47.936546,4,1,0,70,0,1
238156,-47.92718,4,1,0,70,0,1
238281,-47.917812,4,1,0,70,0,1
238531,-47.899086,4,1,0,70,0,1
238656,-47.88972,4,1,0,70,0,1
238718,-47.885082,4,1,0,70,0,1
238781,-47.880363,4,1,0,70,0,1
238906,-47.871014,4,1,0,70,0,1
239031,-47.861656,4,1,0,70,0,1
239156,-47.852295,4,1,0,70,0,1
239281,-47.842945,4,1,0,70,0,1
239343,-47.838314,4,1,0,70,0,1
239406,-47.833595,4,1,0,70,0,1
239468,-47.828964,4,1,0,70,0,1
239531,-47.824245,4,1,0,70,0,1
239656,-47.814907,4,1,0,70,0,1
239781,-47.80556,4,1,0,70,0,1
239906,-47.79622,4,1,0,70,0,1
239968,-47.791576,4,1,0,70,0,1
240031,-47.786873,4,1,0,70,0,1
240156,-47.77753,4,1,0,70,0,1
240281,-47.768196,4,1,0,70,0,1
240406,-47.75886,4,1,0,70,0,1
240468,-47.754234,4,1,0,70,0,1
240531,-47.749527,4,1,0,70,0,1
240656,-47.7402,4,1,0,70,0,1
240781,-47.730865,4,1,0,70,0,1
240906,-47.721535,4,1,0,70,0,1
240968,-47.71691,4,1,0,70,0,1
241031,-47.712215,4,1,0,70,0,1
241156,-47.70289,4,1,0,70,0,1
241281,-47.69357,4,1,0,70,0,1
241343,-47.68894,4,1,0,70,0,1
241406,-47.684242,4,1,0,70,0,1
241468,-47.679623,4,1,0,70,0,1
241531,-47.674923,4,1,0,70,0,1
241656,-47.665607,4,1,0,70,0,1
241781,-47.656292,4,1,0,70,0,1
241906,-47.64698,4,1,0,70,0,1
242031,-47.637672,4,1,0,70,0,1
242156,-47.628357,4,1,0,70,0,1
242284,-47.6190476190476,4,1,0,70,0,0

[HitObjects]
160,128,284,5,0,0:0:0:0:
160,128,1284,1,0,0:0:0:0:
160,128,2284,1,0,0:0:0:0:
352,128,3284,1,8,0:0:0:0:
160,128,3784,1,0,0:0:0:0:
160,128,4284,1,0,0:0:0:0:
160,128,5284,1,0,0:0:0:0:
160,128,6284,1,0,0:0:0:0:
352,128,7284,1,8,0:0:0:0:
352,128,7784,1,8,0:0:0:0:
160,128,8284,1,0,0:0:0:0:
160,128,9284,1,0,0:0:0:0:
160,128,10284,1,0,0:0:0:0:
352,128,11284,1,8,0:0:0:0:
160,128,11784,1,0,0:0:0:0:
160,128,12284,1,0,0:0:0:0:
160,128,13284,1,0,0:0:0:0:
160,128,14284,1,0,0:0:0:0:
352,128,15284,1,8,0:0:0:0:
352,128,15784,1,8,0:0:0:0:
256,192,16034,8,0,16284,0:0:0:0:
352,256,32284,5,12,0:0:0:0:
160,128,32534,1,0,0:0:0:0:
352,128,32784,1,8,0:0:0:0:
352,128,33284,1,8,0:0:0:0:
160,128,33534,1,0,0:0:0:0:
160,128,33700,1,0,0:0:0:0:
352,128,33784,1,8,0:0:0:0:
352,128,34034,1,8,0:0:0:0:
352,128,34200,1,8,0:0:0:0:
160,128,34284,1,0,0:0:0:0:
160,128,34534,1,0,0:0:0:0:
352,128,34784,1,8,0:0:0:0:
352,128,35284,1,8,0:0:0:0:
160,128,35534,1,0,0:0:0:0:
160,128,35700,1,0,0:0:0:0:
352,128,35784,1,8,0:0:0:0:
352,128,36034,1,8,0:0:0:0:
160,128,36200,1,0,0:0:0:0:
352,128,36284,1,8,0:0:0:0:
160,128,36534,1,0,0:0:0:0:
160,128,36784,1,0,0:0:0:0:
352,128,37034,1,8,0:0:0:0:
352,128,37200,1,8,0:0:0:0:
160,128,37284,1,0,0:0:0:0:
352,128,37534,1,8,0:0:0:0:
160,128,37700,1,0,0:0:0:0:
160,128,37784,1,0,0:0:0:0:
352,128,38034,1,8,0:0:0:0:
352,128,38200,1,8,0:0:0:0:
160,128,38284,1,0,0:0:0:0:
352,128,38534,1,8,0:0:0:0:
160,128,38784,1,0,0:0:0:0:
352,128,39034,1,8,0:0:0:0:
352,128,39284,1,8,0:0:0:0:
160,128,39534,1,0,0:0:0:0:
352,128,39700,1,8,0:0:0:0:
160,128,39784,1,0,0:0:0:0:
352,128,40034,1,8,0:0:0:0:
352,128,40200,1,8,0:0:0:0:
160,128,40284,1,0,0:0:0:0:
352,128,40534,1,8,0:0:0:0:
352,128,40700,1,8,0:0:0:0:
352,128,40784,1,8,0:0:0:0:
352,128,41034,1,8,0:0:0:0:
352,128,41200,1,8,0:0:0:0:
160,128,41284,1,0,0:0:0:0:
352,128,41534,1,8,0:0:0:0:
352,128,41700,1,8,0:0:0:0:
352,128,41784,1,8,0:0:0:0:
352,128,42034,1,8,0:0:0:0:
352,128,42200,1,8,0:0:0:0:
160,128,42284,1,0,0:0:0:0:
352,128,42534,1,8,0:0:0:0:
160,128,42700,1,0,0:0:0:0:
160,128,42784,1,0,0:0:0:0:
352,128,43034,1,8,0:0:0:0:
352,128,43284,1,8,0:0:0:0:
352,128,43784,1,8,0:0:0:0:
160,128,44034,1,0,0:0:0:0:
160,128,44200,1,0,0:0:0:0:
352,128,44284,1,8,0:0:0:0:
160,128,44534,1,0,0:0:0:0:
352,128,44784,1,8,0:0:0:0:
160,128,45034,1,0,0:0:0:0:
352,128,45284,1,8,0:0:0:0:
352,128,45534,1,8,0:0:0:0:
352,128,45784,1,8,0:0:0:0:
352,128,45950,1,8,0:0:0:0:
352,128,46117,1,8,0:0:0:0:
160,128,46284,1,0,0:0:0:0:
160,128,46450,1,0,0:0:0:0:
352,128,46534,1,8,0:0:0:0:
352,128,46700,1,8,0:0:0:0:
160,128,46784,1,0,0:0:0:0:
352,128,47034,1,8,0:0:0:0:
352,128,47200,1,8,0:0:0:0:
160,128,47284,1,0,0:0:0:0:
352,128,47534,1,8,0:0:0:0:
352,128,47784,1,8,0:0:0:0:
160,256,48284,1,4,0:0:0:0:
160,128,48534,1,0,0:0:0:0:
352,128,48784,1,8,0:0:0:0:
160,128,49284,1,0,0:0:0:0:
160,128,49534,1,0,0:0:0:0:
352,128,49700,1,8,0:0:0:0:
352,128,49784,1,8,0:0:0:0:
160,128,50034,1,0,0:0:0:0:
352,128,50200,1,8,0:0:0:0:
160,128,50284,1,0,0:0:0:0:
160,128,50534,1,0,0:0:0:0:
352,128,50784,1,8,0:0:0:0:
160,128,51284,1,0,0:0:0:0:
352,128,51534,1,8,0:0:0:0:
160,128,51700,1,0,0:0:0:0:
160,128,51784,1,0,0:0:0:0:
352,128,52034,1,8,0:0:0:0:
352,128,52200,1,8,0:0:0:0:
160,128,52284,1,0,0:0:0:0:
160,128,52534,1,0,0:0:0:0:
160,128,52784,1,0,0:0:0:0:
352,128,53034,1,8,0:0:0:0:
160,128,53200,1,0,0:0:0:0:
160,128,53284,1,0,0:0:0:0:
352,128,53534,1,8,0:0:0:0:
160,128,53700,1,0,0:0:0:0:
160,128,53784,1,0,0:0:0:0:
352,128,54034,1,8,0:0:0:0:
352,128,54200,1,8,0:0:0:0:
160,128,54284,1,0,0:0:0:0:
160,128,54450,1,0,0:0:0:0:
160,128,54534,1,0,0:0:0:0:
160,128,54700,1,0,0:0:0:0:
352,128,54784,1,8,0:0:0:0:
160,128,55284,1,0,0:0:0:0:
160,128,55534,1,0,0:0:0:0:
352,128,55700,1,8,0:0:0:0:
160,128,55784,1,0,0:0:0:0:
352,128,56034,1,8,0:0:0:0:
352,128,56200,1,8,0:0:0:0:
160,128,56284,1,0,0:0:0:0:
160,128,56534,1,0,0:0:0:0:
352,128,56784,1,8,0:0:0:0:
160,128,57284,1,0,0:0:0:0:
160,128,57534,1,0,0:0:0:0:
352,128,57700,1,8,0:0:0:0:
352,128,57784,1,8,0:0:0:0:
160,128,58034,1,0,0:0:0:0:
352,128,58200,1,8,0:0:0:0:
160,128,58284,1,0,0:0:0:0:
160,128,58534,1,0,0:0:0:0:
352,128,58784,1,8,0:0:0:0:
160,128,59284,1,0,0:0:0:0:
352,128,59534,1,8,0:0:0:0:
160,128,59700,1,0,0:0:0:0:
160,128,59784,1,0,0:0:0:0:
352,128,60034,1,8,0:0:0:0:
352,128,60200,1,8,0:0:0:0:
160,128,60284,1,0,0:0:0:0:
160,128,60534,1,0,0:0:0:0:
160,128,60784,1,0,0:0:0:0:
352,128,61034,1,8,0:0:0:0:
160,128,61200,1,0,0:0:0:0:
160,128,61284,1,0,0:0:0:0:
352,128,61534,1,8,0:0:0:0:
160,128,61700,1,0,0:0:0:0:
160,128,61784,1,0,0:0:0:0:
352,128,62034,1,8,0:0:0:0:
352,128,62200,1,8,0:0:0:0:
160,128,62284,1,0,0:0:0:0:
160,128,62450,1,0,0:0:0:0:
160,128,62534,1,0,0:0:0:0:
160,128,62700,1,0,0:0:0:0:
352,128,62784,1,8,0:0:0:0:
160,128,63284,1,0,0:0:0:0:
160,128,63534,1,0,0:0:0:0:
352,128,63700,1,8,0:0:0:0:
160,128,63784,1,0,0:0:0:0:
352,128,64034,1,8,0:0:0:0:
160,256,64284,1,4,0:0:0:0:
160,128,64533,1,0,0:0:0:0:
352,128,64783,1,8,0:0:0:0:
160,128,65283,1,0,0:0:0:0:
160,128,65533,1,0,0:0:0:0:
352,128,65699,1,8,0:0:0:0:
352,128,65783,1,8,0:0:0:0:
160,128,66033,1,0,0:0:0:0:
352,128,66199,1,8,0:0:0:0:
160,128,66283,1,0,0:0:0:0:
160,128,66533,1,0,0:0:0:0:
352,128,66783,1,8,0:0:0:0:
160,128,67283,1,0,0:0:0:0:
352,128,67534,1,8,0:0:0:0:
160,128,67617,1,0,0:0:0:0:
160,128,67700,1,0,0:0:0:0:
352,128,67784,1,8,0:0:0:0:
160,128,67950,1,0,0:0:0:0:
352,128,68033,1,8,0:0:0:0:
352,128,68199,1,8,0:0:0:0:
160,128,68283,1,0,0:0:0:0:
160,128,68533,1,0,0:0:0:0:
160,128,68783,1,0,0:0:0:0:
352,128,69033,1,8,0:0:0:0:
160,128,69199,1,0,0:0:0:0:
160,128,69283,1,0,0:0:0:0:
352,128,69533,1,8,0:0:0:0:
160,128,69699,1,0,0:0:0:0:
160,128,69783,1,0,0:0:0:0:
352,128,70033,1,8,0:0:0:0:
352,128,70199,1,8,0:0:0:0:
160,128,70283,1,0,0:0:0:0:
160,128,70450,1,0,0:0:0:0:
160,128,70533,1,0,0:0:0:0:
160,128,70700,1,0,0:0:0:0:
352,128,70783,1,8,0:0:0:0:
160,128,71283,1,0,0:0:0:0:
160,128,71533,1,0,0:0:0:0:
352,128,71617,1,8,0:0:0:0:
352,128,71699,1,8,0:0:0:0:
160,128,71783,1,0,0:0:0:0:
352,128,72033,1,8,0:0:0:0:
160,256,72283,1,4,0:0:0:0:
160,128,72534,1,0,0:0:0:0:
352,128,72784,1,8,0:0:0:0:
160,128,73284,1,0,0:0:0:0:
160,128,73534,1,0,0:0:0:0:
352,128,73700,1,8,0:0:0:0:
352,128,73784,1,8,0:0:0:0:
160,128,74034,1,0,0:0:0:0:
352,128,74200,1,8,0:0:0:0:
160,128,74284,1,0,0:0:0:0:
160,128,74534,1,0,0:0:0:0:
352,128,74784,1,8,0:0:0:0:
160,128,75284,1,0,0:0:0:0:
352,128,75534,1,8,0:0:0:0:
160,128,75617,1,0,0:0:0:0:
352,128,75700,1,8,0:0:0:0:
352,128,75784,1,8,0:0:0:0:
160,128,75950,1,0,0:0:0:0:
352,128,76034,1,8,0:0:0:0:
352,128,76200,1,8,0:0:0:0:
160,128,76284,1,0,0:0:0:0:
160,128,76534,1,0,0:0:0:0:
160,128,76784,1,0,0:0:0:0:
352,128,77034,1,8,0:0:0:0:
160,128,77200,1,0,0:0:0:0:
160,128,77284,1,0,0:0:0:0:
352,128,77534,1,8,0:0:0:0:
160,128,77700,1,0,0:0:0:0:
160,128,77784,1,0,0:0:0:0:
352,128,78034,1,8,0:0:0:0:
352,128,78200,1,8,0:0:0:0:
160,128,78284,1,0,0:0:0:0:
160,128,78450,1,0,0:0:0:0:
160,128,78534,1,0,0:0:0:0:
160,128,78700,1,0,0:0:0:0:
352,128,78784,1,8,0:0:0:0:
160,128,79284,1,0,0:0:0:0:
160,128,79534,1,0,0:0:0:0:
352,128,79617,1,8,0:0:0:0:
352,128,79700,1,8,0:0:0:0:
160,128,79784,1,0,0:0:0:0:
352,128,80034,1,8,0:0:0:0:
160,256,80284,1,4,0:0:0:0:
160,128,80534,1,0,0:0:0:0:
352,128,80784,1,8,0:0:0:0:
160,128,81284,1,0,0:0:0:0:
160,128,82034,1,0,0:0:0:0:
160,128,82284,1,0,0:0:0:0:
352,128,82784,1,8,0:0:0:0:
160,128,83284,1,0,0:0:0:0:
160,128,83784,1,0,0:0:0:0:
160,128,84034,1,0,0:0:0:0:
160,128,84284,1,0,0:0:0:0:
160,128,84534,1,0,0:0:0:0:
352,128,84784,1,8,0:0:0:0:
160,128,85284,1,0,0:0:0:0:
160,128,86034,1,0,0:0:0:0:
160,128,86284,1,0,0:0:0:0:
352,128,86784,1,8,0:0:0:0:
160,128,87284,1,0,0:0:0:0:
160,128,87784,1,0,0:0:0:0:
160,128,88034,1,0,0:0:0:0:
352,128,88285,1,8,0:0:0:0:
352,128,88409,1,8,0:0:0:0:
352,128,88471,1,8,0:0:0:0:
160,128,88534,1,0,0:0:0:0:
352,128,88784,1,8,0:0:0:0:
160,128,89284,1,0,0:0:0:0:
160,128,90034,1,0,0:0:0:0:
352,128,90285,1,8,0:0:0:0:
352,128,90409,1,8,0:0:0:0:
160,128,90534,1,0,0:0:0:0:
352,128,90659,1,8,0:0:0:0:
352,128,90721,1,8,0:0:0:0:
160,128,90784,1,0,0:0:0:0:
160,128,91284,1,0,0:0:0:0:
352,128,91346,1,8,0:0:0:0:
160,128,91409,1,0,0:0:0:0:
352,128,91471,1,8,0:0:0:0:
160,128,91534,1,0,0:0:0:0:
160,128,92034,1,0,0:0:0:0:
160,128,92284,1,0,0:0:0:0:
160,128,92534,1,0,0:0:0:0:
352,128,92784,1,8,0:0:0:0:
160,128,93284,1,0,0:0:0:0:
160,128,94034,1,0,0:0:0:0:
160,128,94284,1,0,0:0:0:0:
352,128,94784,1,8,0:0:0:0:
160,128,95284,1,0,0:0:0:0:
160,128,95784,1,0,0:0:0:0:
160,128,96034,1,0,0:0:0:0:
352,128,96284,1,8,0:0:0:0:
352,128,96534,1,8,0:0:0:0:
160,128,96784,1,0,0:0:0:0:
352,128,97034,1,8,0:0:0:0:
160,128,97284,1,0,0:0:0:0:
160,128,97534,1,0,0:0:0:0:
352,128,97784,1,8,0:0:0:0:
160,128,98034,1,0,0:0:0:0:
352,128,98284,1,8,0:0:0:0:
352,128,98534,1,8,0:0:0:0:
160,128,98784,1,0,0:0:0:0:
160,128,99034,1,0,0:0:0:0:
352,128,99284,1,8,0:0:0:0:
352,128,99617,1,8,0:0:0:0:
352,128,99950,1,8,0:0:0:0:
352,128,100284,1,8,0:0:0:0:
160,128,100534,1,0,0:0:0:0:
160,128,100784,1,0,0:0:0:0:
352,128,101034,1,8,0:0:0:0:
352,128,101284,1,8,0:0:0:0:
160,128,101534,1,0,0:0:0:0:
160,128,101784,1,0,0:0:0:0:
160,128,102034,1,0,0:0:0:0:
352,128,102284,1,8,0:0:0:0:
160,128,102534,1,0,0:0:0:0:
352,128,102784,1,8,0:0:0:0:
160,128,103034,1,0,0:0:0:0:
352,128,103284,1,8,0:0:0:0:
160,128,103534,1,0,0:0:0:0:
352,128,103784,1,8,0:0:0:0:
352,128,104034,1,8,0:0:0:0:
160,128,104284,1,0,0:0:0:0:
352,128,104534,1,8,0:0:0:0:
160,128,104784,1,0,0:0:0:0:
352,128,105034,1,8,0:0:0:0:
352,128,105284,1,8,0:0:0:0:
160,128,105534,1,0,0:0:0:0:
352,128,105784,1,8,0:0:0:0:
160,128,106034,1,0,0:0:0:0:
352,128,106284,1,8,0:0:0:0:
352,128,106534,1,8,0:0:0:0:
160,128,106784,1,0,0:0:0:0:
160,128,107034,1,0,0:0:0:0:
352,128,107284,1,8,0:0:0:0:
352,128,107617,1,8,0:0:0:0:
352,128,107950,1,8,0:0:0:0:
352,128,108284,1,8,0:0:0:0:
160,128,108534,1,0,0:0:0:0:
160,128,108784,1,0,0:0:0:0:
352,128,109034,1,8,0:0:0:0:
352,128,109284,1,8,0:0:0:0:
160,128,109534,1,0,0:0:0:0:
160,128,109784,1,0,0:0:0:0:
160,128,110034,1,0,0:0:0:0:
352,128,110284,1,8,0:0:0:0:
160,128,110534,1,0,0:0:0:0:
352,128,110784,1,8,0:0:0:0:
160,128,111034,1,0,0:0:0:0:
352,128,111284,1,8,0:0:0:0:
160,128,111534,1,0,0:0:0:0:
352,128,111784,1,8,0:0:0:0:
352,128,112034,1,8,0:0:0:0:
256,64,112285,2,12,L|256:224,7,140
352,256,114284,1,12,0:0:0:0:
160,128,114450,1,0,0:0:0:0:
352,128,114534,1,8,0:0:0:0:
160,128,114784,1,0,0:0:0:0:
352,128,115034,1,8,0:0:0:0:
160,128,115200,1,0,0:0:0:0:
352,128,115284,1,8,0:0:0:0:
160,128,115450,1,0,0:0:0:0:
352,128,115534,1,8,0:0:0:0:
160,128,115784,1,0,0:0:0:0:
352,128,116034,1,8,0:0:0:0:
160,128,116200,1,0,0:0:0:0:
352,128,116284,1,8,0:0:0:0:
160,128,116450,1,0,0:0:0:0:
352,128,116534,1,8,0:0:0:0:
160,128,116784,1,0,0:0:0:0:
352,128,117034,1,8,0:0:0:0:
160,128,117200,1,0,0:0:0:0:
352,128,117284,1,8,0:0:0:0:
160,128,117450,1,0,0:0:0:0:
352,128,117534,1,8,0:0:0:0:
160,128,117784,1,0,0:0:0:0:
352,128,118034,1,8,0:0:0:0:
352,256,118284,1,12,0:0:0:0:
352,128,118534,1,8,0:0:0:0:
352,128,118596,1,8,0:0:0:0:
352,128,118659,1,8,0:0:0:0:
160,128,118784,1,0,0:0:0:0:
352,128,119034,1,8,0:0:0:0:
160,128,119200,1,0,0:0:0:0:
352,128,119284,1,8,0:0:0:0:
160,128,119450,1,0,0:0:0:0:
352,128,119534,1,8,0:0:0:0:
160,128,119784,1,0,0:0:0:0:
352,128,120034,1,8,0:0:0:0:
352,128,120200,1,8,0:0:0:0:
352,128,120284,1,8,0:0:0:0:
160,128,120450,1,0,0:0:0:0:
352,128,120534,1,8,0:0:0:0:
160,128,120784,1,0,0:0:0:0:
352,128,121034,1,8,0:0:0:0:
160,128,121200,1,0,0:0:0:0:
352,128,121284,1,8,0:0:0:0:
160,128,121450,1,0,0:0:0:0:
352,128,121534,1,8,0:0:0:0:
352,128,121700,1,8,0:0:0:0:
160,128,121784,1,0,0:0:0:0:
352,128,121950,1,8,0:0:0:0:
160,128,122034,1,0,0:0:0:0:
352,256,122284,1,12,0:0:0:0:
352,128,122534,1,8,0:0:0:0:
352,128,122596,1,8,0:0:0:0:
352,128,122659,1,8,0:0:0:0:
352,128,122721,1,8,0:0:0:0:
160,128,122784,1,0,0:0:0:0:
352,128,123034,1,8,0:0:0:0:
160,128,123200,1,0,0:0:0:0:
352,128,123284,1,8,0:0:0:0:
160,128,123450,1,0,0:0:0:0:
352,128,123534,1,8,0:0:0:0:
352,128,123700,1,8,0:0:0:0:
160,128,123784,1,0,0:0:0:0:
352,128,123950,1,8,0:0:0:0:
160,128,124034,1,0,0:0:0:0:
352,128,124284,1,8,0:0:0:0:
160,128,124450,1,0,0:0:0:0:
352,128,124534,1,8,0:0:0:0:
160,128,124784,1,0,0:0:0:0:
352,128,125034,1,8,0:0:0:0:
160,128,125200,1,0,0:0:0:0:
352,128,125284,1,8,0:0:0:0:
160,128,125450,1,0,0:0:0:0:
352,128,125534,1,8,0:0:0:0:
160,128,125700,1,0,0:0:0:0:
352,128,125784,1,8,0:0:0:0:
352,128,126034,1,8,0:0:0:0:
352,128,126096,1,8,0:0:0:0:
352,128,126159,1,8,0:0:0:0:
352,256,126284,1,12,0:0:0:0:
160,128,126450,1,0,0:0:0:0:
352,128,126534,1,8,0:0:0:0:
160,128,126784,1,0,0:0:0:0:
352,128,127034,1,8,0:0:0:0:
160,128,127200,1,0,0:0:0:0:
352,128,127284,1,8,0:0:0:0:
160,128,127450,1,0,0:0:0:0:
352,128,127534,1,8,0:0:0:0:
160,128,127784,1,0,0:0:0:0:
352,128,128033,1,8,0:0:0:0:
160,128,128200,1,0,0:0:0:0:
352,128,128283,1,8,0:0:0:0:
160,128,128450,1,0,0:0:0:0:
352,128,128533,1,8,0:0:0:0:
160,128,128783,1,0,0:0:0:0:
352,128,129033,1,8,0:0:0:0:
160,128,129200,1,0,0:0:0:0:
352,128,129283,1,8,0:0:0:0:
160,128,129450,1,0,0:0:0:0:
352,128,129533,1,8,0:0:0:0:
160,128,129783,1,0,0:0:0:0:
352,128,130033,1,8,0:0:0:0:
352,256,130283,1,12,0:0:0:0:
352,128,130534,1,8,0:0:0:0:
352,128,130596,1,8,0:0:0:0:
352,128,130659,1,8,0:0:0:0:
160,128,130783,1,0,0:0:0:0:
352,128,131034,1,8,0:0:0:0:
160,128,131200,1,0,0:0:0:0:
352,128,131284,1,8,0:0:0:0:
160,128,131450,1,0,0:0:0:0:
352,128,131534,1,8,0:0:0:0:
160,128,131784,1,0,0:0:0:0:
352,128,132034,1,8,0:0:0:0:
352,128,132200,1,8,0:0:0:0:
352,128,132284,1,8,0:0:0:0:
160,128,132450,1,0,0:0:0:0:
352,128,132534,1,8,0:0:0:0:
160,128,132784,1,0,0:0:0:0:
352,128,133034,1,8,0:0:0:0:
160,128,133200,1,0,0:0:0:0:
352,128,133284,1,8,0:0:0:0:
160,128,133450,1,0,0:0:0:0:
352,128,133534,1,8,0:0:0:0:
352,128,133700,1,8,0:0:0:0:
160,128,133784,1,0,0:0:0:0:
352,128,133950,1,8,0:0:0:0:
160,128,134034,1,0,0:0:0:0:
352,256,134284,1,12,0:0:0:0:
352,128,134534,1,8,0:0:0:0:
352,128,134596,1,8,0:0:0:0:
352,128,134659,1,8,0:0:0:0:
352,128,134721,1,8,0:0:0:0:
160,128,134784,1,0,0:0:0:0:
352,128,135034,1,8,0:0:0:0:
160,128,135200,1,0,0:0:0:0:
352,128,135284,1,8,0:0:0:0:
160,128,135450,1,0,0:0:0:0:
352,128,135534,1,8,0:0:0:0:
160,128,135700,1,0,0:0:0:0:
160,128,135784,1,0,0:0:0:0:
352,128,135950,1,8,0:0:0:0:
160,128,136034,1,0,0:0:0:0:
352,128,136284,1,8,0:0:0:0:
352,128,136534,1,8,0:0:0:0:
352,128,136617,1,8,0:0:0:0:
352,128,136700,1,8,0:0:0:0:
160,128,136784,1,0,0:0:0:0:
352,128,137034,1,8,0:0:0:0:
352,128,137200,1,8,0:0:0:0:
160,128,137284,1,0,0:0:0:0:
160,128,137450,1,0,0:0:0:0:
160,128,137534,1,0,0:0:0:0:
160,128,137700,1,0,0:0:0:0:
160,128,137784,1,0,0:0:0:0:
160,128,137950,1,0,0:0:0:0:
352,128,138034,1,8,0:0:0:0:
352,256,138284,1,12,0:0:0:0:
160,128,138534,1,0,0:0:0:0:
352,256,138784,1,12,0:0:0:0:
352,128,139034,1,8,0:0:0:0:
160,128,139200,1,0,0:0:0:0:
352,128,139284,1,8,0:0:0:0:
160,128,139450,1,0,0:0:0:0:
352,128,139534,1,8,0:0:0:0:
352,256,139784,1,12,0:0:0:0:
160,128,140034,1,0,0:0:0:0:
352,256,140284,1,12,0:0:0:0:
352,128,140534,1,8,0:0:0:0:
352,128,140596,1,8,0:0:0:0:
352,128,140659,1,8,0:0:0:0:
160,128,140784,1,0,0:0:0:0:
352,128,141034,1,8,0:0:0:0:
160,128,141200,1,0,0:0:0:0:
352,128,141284,1,8,0:0:0:0:
352,128,141450,1,8,0:0:0:0:
160,128,141534,1,0,0:0:0:0:
352,128,141700,1,8,0:0:0:0:
352,128,141784,1,8,0:0:0:0:
160,128,141950,1,0,0:0:0:0:
352,128,142034,1,8,0:0:0:0:
352,256,142284,1,12,0:0:0:0:
352,128,142534,1,8,0:0:0:0:
352,128,142596,1,8,0:0:0:0:
352,128,142659,1,8,0:0:0:0:
160,128,142784,1,0,0:0:0:0:
352,128,143034,1,8,0:0:0:0:
160,128,143200,1,0,0:0:0:0:
352,128,143284,1,8,0:0:0:0:
160,128,143450,1,0,0:0:0:0:
352,128,143534,1,8,0:0:0:0:
160,128,143700,1,0,0:0:0:0:
160,128,143784,1,0,0:0:0:0:
352,128,144034,1,8,0:0:0:0:
160,128,144200,1,0,0:0:0:0:
352,128,144284,1,8,0:0:0:0:
160,128,144367,1,0,0:0:0:0:
352,128,144450,1,8,0:0:0:0:
352,128,144534,1,8,0:0:0:0:
352,128,144700,1,8,0:0:0:0:
160,128,144784,1,0,0:0:0:0:
352,128,144950,1,8,0:0:0:0:
352,128,145034,1,8,0:0:0:0:
160,128,145200,1,0,0:0:0:0:
352,128,145284,1,8,0:0:0:0:
352,128,145534,1,8,0:0:0:0:
160,128,145617,1,0,0:0:0:0:
160,128,145700,1,0,0:0:0:0:
352,128,145784,1,8,0:0:0:0:
160,128,145950,1,0,0:0:0:0:
352,128,146034,1,8,0:0:0:0:
352,128,146200,1,8,0:0:0:0:
160,128,146284,1,0,0:0:0:0:
160,128,147284,1,0,0:0:0:0:
160,128,148284,1,0,0:0:0:0:
352,128,149284,1,8,0:0:0:0:
160,128,149784,1,0,0:0:0:0:
160,128,150284,1,0,0:0:0:0:
160,128,151284,1,0,0:0:0:0:
160,128,152284,1,0,0:0:0:0:
352,128,153284,1,8,0:0:0:0:
352,128,153784,1,8,0:0:0:0:
160,128,154284,1,0,0:0:0:0:
160,128,155284,1,0,0:0:0:0:
160,128,156284,1,0,0:0:0:0:
352,128,157284,1,8,0:0:0:0:
160,128,157784,1,0,0:0:0:0:
160,128,158284,1,0,0:0:0:0:
160,128,159284,1,0,0:0:0:0:
160,128,160284,1,0,0:0:0:0:
352,128,161284,1,8,0:0:0:0:
352,128,161784,1,8,0:0:0:0:
160,256,162284,1,4,0:0:0:0:
352,128,162534,1,8,0:0:0:0:
352,128,162784,1,8,0:0:0:0:
352,128,162846,1,8,0:0:0:0:
160,128,162909,1,0,0:0:0:0:
352,128,163034,1,8,0:0:0:0:
160,128,163159,1,0,0:0:0:0:
352,128,163221,1,8,0:0:0:0:
160,128,163284,1,0,0:0:0:0:
160,128,163534,1,0,0:0:0:0:
352,128,163700,1,8,0:0:0:0:
160,128,163784,1,0,0:0:0:0:
352,128,164034,1,8,0:0:0:0:
160,128,164200,1,0,0:0:0:0:
352,128,164284,1,8,0:0:0:0:
160,128,164409,1,0,0:0:0:0:
352,128,164534,1,8,0:0:0:0:
352,128,164784,1,8,0:0:0:0:
352,128,165034,1,8,0:0:0:0:
160,128,165200,1,0,0:0:0:0:
352,128,165284,1,8,0:0:0:0:
160,128,165450,1,0,0:0:0:0:
352,128,165534,1,8,0:0:0:0:
160,128,165784,1,0,0:0:0:0:
352,128,166034,1,8,0:0:0:0:
352,128,166284,1,8,0:0:0:0:
352,128,166346,1,8,0:0:0:0:
160,128,166409,1,0,0:0:0:0:
352,128,166534,1,8,0:0:0:0:
160,128,166784,1,0,0:0:0:0:
352,128,167034,1,8,0:0:0:0:
160,128,167200,1,0,0:0:0:0:
352,128,167284,1,8,0:0:0:0:
160,128,167450,1,0,0:0:0:0:
352,128,167534,1,8,0:0:0:0:
160,128,167784,1,0,0:0:0:0:
352,128,168034,1,8,0:0:0:0:
352,128,168284,1,8,0:0:0:0:
352,128,168346,1,8,0:0:0:0:
160,128,168409,1,0,0:0:0:0:
352,128,168534,1,8,0:0:0:0:
160,128,168596,1,0,0:0:0:0:
352,128,168659,1,8,0:0:0:0:
352,128,168721,1,8,0:0:0:0:
160,128,168784,1,0,0:0:0:0:
352,128,169034,1,8,0:0:0:0:
160,128,169200,1,0,0:0:0:0:
352,128,169284,1,8,0:0:0:0:
160,128,169450,1,0,0:0:0:0:
352,128,169534,1,8,0:0:0:0:
352,128,169784,1,8,0:0:0:0:
352,128,169846,1,8,0:0:0:0:
352,128,169909,1,8,0:0:0:0:
160,128,170034,1,0,0:0:0:0:
160,128,170096,1,0,0:0:0:0:
160,128,170159,1,0,0:0:0:0:
352,256,170284,1,12,0:0:0:0:
352,128,170534,1,8,0:0:0:0:
160,128,170784,1,0,0:0:0:0:
160,128,171034,1,0,0:0:0:0:
160,128,171200,1,0,0:0:0:0:
352,128,171284,1,8,0:0:0:0:
160,128,171450,1,0,0:0:0:0:
352,128,171534,1,8,0:0:0:0:
160,128,171700,1,0,0:0:0:0:
352,128,171784,1,8,0:0:0:0:
160,128,171909,1,0,0:0:0:0:
352,128,172034,1,8,0:0:0:0:
160,128,172200,1,0,0:0:0:0:
352,128,172284,1,8,0:0:0:0:
352,128,172534,1,8,0:0:0:0:
160,128,172700,1,0,0:0:0:0:
160,128,172784,1,0,0:0:0:0:
352,128,173034,1,8,0:0:0:0:
160,128,173200,1,0,0:0:0:0:
352,128,173284,1,8,0:0:0:0:
160,128,173450,1,0,0:0:0:0:
352,128,173534,1,8,0:0:0:0:
160,128,173700,1,0,0:0:0:0:
160,128,173784,1,0,0:0:0:0:
352,128,174034,1,8,0:0:0:0:
352,128,174284,1,8,0:0:0:0:
352,128,174346,1,8,0:0:0:0:
160,128,174409,1,0,0:0:0:0:
352,128,174534,1,8,0:0:0:0:
160,128,174596,1,0,0:0:0:0:
352,128,174659,1,8,0:0:0:0:
352,128,174721,1,8,0:0:0:0:
160,128,174784,1,0,0:0:0:0:
352,128,175034,1,8,0:0:0:0:
160,128,175200,1,0,0:0:0:0:
352,128,175284,1,8,0:0:0:0:
160,128,175450,1,0,0:0:0:0:
352,128,175534,1,8,0:0:0:0:
160,128,175700,1,0,0:0:0:0:
160,128,175784,1,0,0:0:0:0:
352,128,176034,1,8,0:0:0:0:
352,128,176200,1,8,0:0:0:0:
160,128,176284,1,0,0:0:0:0:
160,128,176534,1,0,0:0:0:0:
160,128,176784,1,0,0:0:0:0:
160,128,177034,1,0,0:0:0:0:
352,128,177284,1,8,0:0:0:0:
160,128,177409,1,0,0:0:0:0:
160,128,177471,1,0,0:0:0:0:
352,128,177534,1,8,0:0:0:0:
160,128,177659,1,0,0:0:0:0:
352,128,177784,1,8,0:0:0:0:
352,128,177846,1,8,0:0:0:0:
160,128,177909,1,0,0:0:0:0:
160,128,177971,1,0,0:0:0:0:
352,128,178034,1,8,0:0:0:0:
352,128,178159,1,8,0:0:0:0:
160,256,178284,1,4,0:0:0:0:
352,128,178534,1,8,0:0:0:0:
160,128,178659,1,0,0:0:0:0:
160,128,178721,1,0,0:0:0:0:
160,128,178784,1,0,0:0:0:0:
352,128,178909,1,8,0:0:0:0:
160,128,179034,1,0,0:0:0:0:
160,128,179284,1,0,0:0:0:0:
160,128,179346,1,0,0:0:0:0:
160,128,179409,1,0,0:0:0:0:
352,128,179534,1,8,0:0:0:0:
352,128,179659,1,8,0:0:0:0:
160,128,179784,1,0,0:0:0:0:
160,128,179909,1,0,0:0:0:0:
352,128,180034,1,8,0:0:0:0:
160,128,180284,1,0,0:0:0:0:
160,128,180409,1,0,0:0:0:0:
352,128,180534,1,8,0:0:0:0:
160,128,180659,1,0,0:0:0:0:
160,128,180721,1,0,0:0:0:0:
160,128,180784,1,0,0:0:0:0:
352,128,180909,1,8,0:0:0:0:
160,128,181034,1,0,0:0:0:0:
160,128,181284,1,0,0:0:0:0:
160,128,181346,1,0,0:0:0:0:
160,128,181409,1,0,0:0:0:0:
352,128,181534,1,8,0:0:0:0:
352,128,181596,1,8,0:0:0:0:
352,128,181659,1,8,0:0:0:0:
160,128,181784,1,0,0:0:0:0:
160,128,181909,1,0,0:0:0:0:
352,128,182034,1,8,0:0:0:0:
160,128,182284,1,0,0:0:0:0:
352,128,182409,1,8,0:0:0:0:
160,128,182471,1,0,0:0:0:0:
352,128,182534,1,8,0:0:0:0:
160,128,182659,1,0,0:0:0:0:
352,128,182784,1,8,0:0:0:0:
352,128,182846,1,8,0:0:0:0:
160,128,182909,1,0,0:0:0:0:
160,128,182971,1,0,0:0:0:0:
352,128,183034,1,8,0:0:0:0:
352,128,183159,1,8,0:0:0:0:
160,128,183284,1,0,0:0:0:0:
160,128,183409,1,0,0:0:0:0:
352,128,183534,1,8,0:0:0:0:
160,128,183784,1,0,0:0:0:0:
160,128,183909,1,0,0:0:0:0:
352,128,184034,1,8,0:0:0:0:
352,128,184159,1,8,0:0:0:0:
352,128,184221,1,8,0:0:0:0:
160,128,184284,1,0,0:0:0:0:
352,128,184534,1,8,0:0:0:0:
160,128,184659,1,0,0:0:0:0:
160,128,184721,1,0,0:0:0:0:
160,128,184784,1,0,0:0:0:0:
160,128,184909,1,0,0:0:0:0:
352,128,185034,1,8,0:0:0:0:
160,128,185284,1,0,0:0:0:0:
160,128,185409,1,0,0:0:0:0:
160,128,185471,1,0,0:0:0:0:
352,128,185534,1,8,0:0:0:0:
160,128,185659,1,0,0:0:0:0:
352,128,185784,1,8,0:0:0:0:
160,128,185909,1,0,0:0:0:0:
352,128,185971,1,8,0:0:0:0:
160,128,186034,1,0,0:0:0:0:
160,128,186284,1,0,0:0:0:0:
160,128,186409,1,0,0:0:0:0:
352,128,186534,1,8,0:0:0:0:
160,128,186659,1,0,0:0:0:0:
160,128,186721,1,0,0:0:0:0:
160,128,186784,1,0,0:0:0:0:
352,128,186909,1,8,0:0:0:0:
160,128,187034,1,0,0:0:0:0:
160,128,187284,1,0,0:0:0:0:
160,128,187346,1,0,0:0:0:0:
160,128,187409,1,0,0:0:0:0:
160,128,187471,1,0,0:0:0:0:
352,128,187534,1,8,0:0:0:0:
352,128,187659,1,8,0:0:0:0:
160,128,187784,1,0,0:0:0:0:
160,128,187846,1,0,0:0:0:0:
160,128,187909,1,0,0:0:0:0:
352,128,188034,1,8,0:0:0:0:
160,128,188284,1,0,0:0:0:0:
352,128,188534,1,8,0:0:0:0:
352,128,188659,1,8,0:0:0:0:
352,128,188721,1,8,0:0:0:0:
160,128,188784,1,0,0:0:0:0:
160,128,188846,1,0,0:0:0:0:
352,128,188909,1,8,0:0:0:0:
160,128,189034,1,0,0:0:0:0:
160,128,189284,1,0,0:0:0:0:
160,128,189346,1,0,0:0:0:0:
160,128,189409,1,0,0:0:0:0:
352,128,189534,1,8,0:0:0:0:
352,128,189596,1,8,0:0:0:0:
352,128,189659,1,8,0:0:0:0:
352,128,189721,1,8,0:0:0:0:
160,128,189784,1,0,0:0:0:0:
352,128,189909,1,8,0:0:0:0:
352,128,190034,1,8,0:0:0:0:
160,128,190159,1,0,0:0:0:0:
352,128,190221,1,8,0:0:0:0:
160,128,190284,1,0,0:0:0:0:
352,128,190534,1,8,0:0:0:0:
160,128,190659,1,0,0:0:0:0:
160,128,190721,1,0,0:0:0:0:
160,128,190784,1,0,0:0:0:0:
160,128,190909,1,0,0:0:0:0:
352,128,191034,1,8,0:0:0:0:
160,128,191284,1,0,0:0:0:0:
160,128,191346,1,0,0:0:0:0:
160,128,191409,1,0,0:0:0:0:
352,128,191534,1,8,0:0:0:0:
160,128,191659,1,0,0:0:0:0:
352,128,191721,1,8,0:0:0:0:
160,128,191784,1,0,0:0:0:0:
160,128,191909,1,0,0:0:0:0:
352,128,192034,1,8,0:0:0:0:
160,128,192284,1,0,0:0:0:0:
160,128,192409,1,0,0:0:0:0:
352,128,192534,1,8,0:0:0:0:
160,128,192659,1,0,0:0:0:0:
160,128,192721,1,0,0:0:0:0:
160,128,192784,1,0,0:0:0:0:
160,128,192909,1,0,0:0:0:0:
352,128,193034,1,8,0:0:0:0:
160,128,193284,1,0,0:0:0:0:
160,128,193409,1,0,0:0:0:0:
160,128,193471,1,0,0:0:0:0:
352,128,193534,1,8,0:0:0:0:
160,128,193659,1,0,0:0:0:0:
352,128,193784,1,8,0:0:0:0:
352,128,193846,1,8,0:0:0:0:
160,128,193909,1,0,0:0:0:0:
160,128,193971,1,0,0:0:0:0:
352,128,194034,1,8,0:0:0:0:
352,128,194159,1,8,0:0:0:0:
352,128,194221,1,8,0:0:0:0:
160,128,194284,1,0,0:0:0:0:
160,128,194409,1,0,0:0:0:0:
352,128,194534,1,8,0:0:0:0:
160,128,194659,1,0,0:0:0:0:
160,128,194721,1,0,0:0:0:0:
160,128,194784,1,0,0:0:0:0:
352,128,194909,1,8,0:0:0:0:
160,128,195034,1,0,0:0:0:0:
160,128,195284,1,0,0:0:0:0:
160,128,195346,1,0,0:0:0:0:
160,128,195409,1,0,0:0:0:0:
160,128,195471,1,0,0:0:0:0:
352,128,195534,1,8,0:0:0:0:
352,128,195659,1,8,0:0:0:0:
160,128,195784,1,0,0:0:0:0:
352,128,195846,1,8,0:0:0:0:
160,128,195909,1,0,0:0:0:0:
352,128,196034,1,8,0:0:0:0:
160,128,196284,1,0,0:0:0:0:
160,128,196409,1,0,0:0:0:0:
160,128,196471,1,0,0:0:0:0:
352,128,196534,1,8,0:0:0:0:
160,128,196659,1,0,0:0:0:0:
160,128,196721,1,0,0:0:0:0:
160,128,196784,1,0,0:0:0:0:
352,128,196909,1,8,0:0:0:0:
160,128,197034,1,0,0:0:0:0:
160,128,197284,1,0,0:0:0:0:
160,128,197409,1,0,0:0:0:0:
352,128,197534,1,8,0:0:0:0:
352,128,197596,1,8,0:0:0:0:
160,128,197659,1,0,0:0:0:0:
352,128,197784,1,8,0:0:0:0:
352,128,197846,1,8,0:0:0:0:
160,128,197909,1,0,0:0:0:0:
160,128,197971,1,0,0:0:0:0:
352,128,198034,1,8,0:0:0:0:
352,128,198096,1,8,0:0:0:0:
352,128,198159,1,8,0:0:0:0:
160,128,198284,1,0,0:0:0:0:
160,128,198409,1,0,0:0:0:0:
352,128,198534,1,8,0:0:0:0:
160,128,198659,1,0,0:0:0:0:
160,128,198721,1,0,0:0:0:0:
160,128,198784,1,0,0:0:0:0:
160,128,198909,1,0,0:0:0:0:
352,128,199034,1,8,0:0:0:0:
160,128,199284,1,0,0:0:0:0:
160,128,199346,1,0,0:0:0:0:
160,128,199409,1,0,0:0:0:0:
352,128,199534,1,8,0:0:0:0:
352,128,199659,1,8,0:0:0:0:
160,128,199784,1,0,0:0:0:0:
160,128,199909,1,0,0:0:0:0:
352,128,200034,1,8,0:0:0:0:
160,128,200159,1,0,0:0:0:0:
160,128,200284,1,0,0:0:0:0:
352,128,200534,1,8,0:0:0:0:
160,128,200659,1,0,0:0:0:0:
352,128,200721,1,8,0:0:0:0:
160,128,200784,1,0,0:0:0:0:
160,128,200909,1,0,0:0:0:0:
352,128,201034,1,8,0:0:0:0:
160,128,201284,1,0,0:0:0:0:
160,128,201409,1,0,0:0:0:0:
160,128,201471,1,0,0:0:0:0:
352,128,201534,1,8,0:0:0:0:
352,128,201659,1,8,0:0:0:0:
160,128,201784,1,0,0:0:0:0:
160,128,201846,1,0,0:0:0:0:
160,128,201909,1,0,0:0:0:0:
352,128,202034,1,8,0:0:0:0:
160,128,202284,1,0,0:0:0:0:
160,128,202409,1,0,0:0:0:0:
352,128,202534,1,8,0:0:0:0:
160,128,202659,1,0,0:0:0:0:
160,128,202721,1,0,0:0:0:0:
160,128,202784,1,0,0:0:0:0:
352,128,202909,1,8,0:0:0:0:
352,128,202971,1,8,0:0:0:0:
160,128,203034,1,0,0:0:0:0:
160,128,203284,1,0,0:0:0:0:
160,128,203346,1,0,0:0:0:0:
160,128,203409,1,0,0:0:0:0:
352,128,203534,1,8,0:0:0:0:
352,128,203596,1,8,0:0:0:0:
352,128,203659,1,8,0:0:0:0:
160,128,203784,1,0,0:0:0:0:
160,128,203909,1,0,0:0:0:0:
352,128,204034,1,8,0:0:0:0:
160,128,204284,1,0,0:0:0:0:
160,128,204409,1,0,0:0:0:0:
352,128,204534,1,8,0:0:0:0:
352,128,204596,1,8,0:0:0:0:
352,128,204659,1,8,0:0:0:0:
352,128,204721,1,8,0:0:0:0:
160,128,204784,1,0,0:0:0:0:
352,128,204909,1,8,0:0:0:0:
160,128,205034,1,0,0:0:0:0:
160,128,205284,1,0,0:0:0:0:
160,128,205346,1,0,0:0:0:0:
352,128,205409,1,8,0:0:0:0:
352,128,205534,1,8,0:0:0:0:
352,128,205596,1,8,0:0:0:0:
160,128,205659,1,0,0:0:0:0:
352,128,205721,1,8,0:0:0:0:
160,128,205784,1,0,0:0:0:0:
160,128,205909,1,0,0:0:0:0:
352,128,206034,1,8,0:0:0:0:
352,128,206159,1,8,0:0:0:0:
352,128,206221,1,8,0:0:0:0:
160,128,206284,1,0,0:0:0:0:
160,128,206409,1,0,0:0:0:0:
352,128,206534,1,8,0:0:0:0:
160,128,206659,1,0,0:0:0:0:
352,128,206721,1,8,0:0:0:0:
160,128,206784,1,0,0:0:0:0:
160,128,206909,1,0,0:0:0:0:
352,128,207034,1,8,0:0:0:0:
160,128,207284,1,0,0:0:0:0:
160,128,207409,1,0,0:0:0:0:
352,128,207534,1,8,0:0:0:0:
160,128,207659,1,0,0:0:0:0:
352,128,207784,1,8,0:0:0:0:
352,128,207846,1,8,0:0:0:0:
160,128,207909,1,0,0:0:0:0:
160,128,207971,1,0,0:0:0:0:
352,128,208034,1,8,0:0:0:0:
160,128,208284,1,0,0:0:0:0:
160,128,208409,1,0,0:0:0:0:
352,128,208534,1,8,0:0:0:0:
160,128,208659,1,0,0:0:0:0:
352,128,208784,1,8,0:0:0:0:
352,128,208846,1,8,0:0:0:0:
160,128,208909,1,0,0:0:0:0:
352,128,209034,1,8,0:0:0:0:
352,128,209096,1,8,0:0:0:0:
160,128,209159,1,0,0:0:0:0:
160,128,209221,1,0,0:0:0:0:
352,128,209284,1,8,0:0:0:0:
160,128,209409,1,0,0:0:0:0:
160,128,209471,1,0,0:0:0:0:
352,128,209534,1,8,0:0:0:0:
352,128,209659,1,8,0:0:0:0:
160,128,209784,1,0,0:0:0:0:
160,128,209909,1,0,0:0:0:0:
352,128,210034,1,8,0:0:0:0:
160,128,210284,1,0,0:0:0:0:
160,128,210346,1,0,0:0:0:0:
160,128,210409,1,0,0:0:0:0:
352,128,210534,1,8,0:0:0:0:
160,128,210659,1,0,0:0:0:0:
160,128,210721,1,0,0:0:0:0:
160,128,210784,1,0,0:0:0:0:
352,128,210909,1,8,0:0:0:0:
160,128,211034,1,0,0:0:0:0:
160,128,211284,1,0,0:0:0:0:
160,128,211409,1,0,0:0:0:0:
160,128,211471,1,0,0:0:0:0:
352,128,211534,1,8,0:0:0:0:
352,128,211659,1,8,0:0:0:0:
160,128,211784,1,0,0:0:0:0:
160,128,211846,1,0,0:0:0:0:
160,128,211909,1,0,0:0:0:0:
160,128,211971,1,0,0:0:0:0:
352,128,212034,1,8,0:0:0:0:
160,128,212284,1,0,0:0:0:0:
160,128,212409,1,0,0:0:0:0:
352,128,212534,1,8,0:0:0:0:
160,128,212659,1,0,0:0:0:0:
160,128,212721,1,0,0:0:0:0:
160,128,212784,1,0,0:0:0:0:
352,128,212909,1,8,0:0:0:0:
160,128,213034,1,0,0:0:0:0:
160,128,213284,1,0,0:0:0:0:
160,128,213346,1,0,0:0:0:0:
160,128,213409,1,0,0:0:0:0:
352,128,213534,1,8,0:0:0:0:
352,128,213596,1,8,0:0:0:0:
352,128,213659,1,8,0:0:0:0:
352,128,213721,1,8,0:0:0:0:
160,128,213784,1,0,0:0:0:0:
160,128,213909,1,0,0:0:0:0:
352,128,214034,1,8,0:0:0:0:
160,128,214284,1,0,0:0:0:0:
352,128,214409,1,8,0:0:0:0:
160,128,214471,1,0,0:0:0:0:
352,128,214534,1,8,0:0:0:0:
160,128,214659,1,0,0:0:0:0:
352,128,214784,1,8,0:0:0:0:
352,128,214846,1,8,0:0:0:0:
160,128,214909,1,0,0:0:0:0:
160,128,214971,1,0,0:0:0:0:
352,128,215034,1,8,0:0:0:0:
352,128,215159,1,8,0:0:0:0:
160,128,215284,1,0,0:0:0:0:
160,128,215409,1,0,0:0:0:0:
352,128,215534,1,8,0:0:0:0:
352,128,215596,1,8,0:0:0:0:
352,128,215659,1,8,0:0:0:0:
160,128,215784,1,0,0:0:0:0:
352,128,215909,1,8,0:0:0:0:
352,128,215971,1,8,0:0:0:0:
160,128,216034,1,0,0:0:0:0:
352,128,216159,1,8,0:0:0:0:
160,128,216284,1,0,0:0:0:0:
352,128,216534,1,8,0:0:0:0:
160,128,216596,1,0,0:0:0:0:
352,128,216659,1,8,0:0:0:0:
160,128,216784,1,0,0:0:0:0:
160,128,216909,1,0,0:0:0:0:
352,128,217034,1,8,0:0:0:0:
160,128,217284,1,0,0:0:0:0:
160,128,217409,1,0,0:0:0:0:
160,128,217471,1,0,0:0:0:0:
352,128,217534,1,8,0:0:0:0:
160,128,217659,1,0,0:0:0:0:
160,128,217784,1,0,0:0:0:0:
160,128,217846,1,0,0:0:0:0:
352,128,217909,1,8,0:0:0:0:
160,128,217971,1,0,0:0:0:0:
352,128,218034,1,8,0:0:0:0:
160,128,218284,1,0,0:0:0:0:
160,128,218409,1,0,0:0:0:0:
352,128,218534,1,8,0:0:0:0:
160,128,218659,1,0,0:0:0:0:
160,128,218721,1,0,0:0:0:0:
160,128,218784,1,0,0:0:0:0:
352,128,218909,1,8,0:0:0:0:
160,128,219034,1,0,0:0:0:0:
352,128,219284,1,8,0:0:0:0:
352,128,219346,1,8,0:0:0:0:
160,128,219409,1,0,0:0:0:0:
160,128,219471,1,0,0:0:0:0:
352,128,219534,1,8,0:0:0:0:
352,128,219596,1,8,0:0:0:0:
352,128,219659,1,8,0:0:0:0:
160,128,219784,1,0,0:0:0:0:
160,128,219909,1,0,0:0:0:0:
352,128,220034,1,8,0:0:0:0:
160,128,220284,1,0,0:0:0:0:
160,128,220346,1,0,0:0:0:0:
160,128,220409,1,0,0:0:0:0:
160,128,220471,1,0,0:0:0:0:
352,128,220534,1,8,0:0:0:0:
160,128,220659,1,0,0:0:0:0:
160,128,220721,1,0,0:0:0:0:
352,128,220784,1,8,0:0:0:0:
352,128,220846,1,8,0:0:0:0:
352,128,220909,1,8,0:0:0:0:
160,128,221034,1,0,0:0:0:0:
160,128,221284,1,0,0:0:0:0:
160,128,221346,1,0,0:0:0:0:
160,128,221409,1,0,0:0:0:0:
352,128,221534,1,8,0:0:0:0:
352,128,221596,1,8,0:0:0:0:
352,128,221659,1,8,0:0:0:0:
352,128,221721,1,8,0:0:0:0:
160,128,221784,1,0,0:0:0:0:
352,128,221909,1,8,0:0:0:0:
352,128,222034,1,8,0:0:0:0:
352,128,222159,1,8,0:0:0:0:
160,128,222284,1,0,0:0:0:0:
352,128,222346,1,8,0:0:0:0:
160,128,222409,1,0,0:0:0:0:
352,128,222534,1,8,0:0:0:0:
160,128,222659,1,0,0:0:0:0:
352,128,222784,1,8,0:0:0:0:
160,128,222909,1,0,0:0:0:0:
352,128,223034,1,8,0:0:0:0:
160,128,223284,1,0,0:0:0:0:
160,128,223346,1,0,0:0:0:0:
352,128,223409,1,8,0:0:0:0:
352,128,223471,1,8,0:0:0:0:
160,128,223534,1,0,0:0:0:0:
160,128,223659,1,0,0:0:0:0:
352,128,223784,1,8,0:0:0:0:
160,128,223909,1,0,0:0:0:0:
352,128,223971,1,8,0:0:0:0:
160,128,224034,1,0,0:0:0:0:
352,128,224159,1,8,0:0:0:0:
160,128,224284,1,0,0:0:0:0:
160,128,224409,1,0,0:0:0:0:
160,128,224471,1,0,0:0:0:0:
352,128,224534,1,8,0:0:0:0:
160,128,224659,1,0,0:0:0:0:
352,128,224784,1,8,0:0:0:0:
160,128,224909,1,0,0:0:0:0:
352,128,224971,1,8,0:0:0:0:
160,128,225034,1,0,0:0:0:0:
352,128,225284,1,8,0:0:0:0:
352,128,225346,1,8,0:0:0:0:
160,128,225409,1,0,0:0:0:0:
160,128,225471,1,0,0:0:0:0:
352,128,225534,1,8,0:0:0:0:
352,128,225596,1,8,0:0:0:0:
352,128,225659,1,8,0:0:0:0:
160,128,225784,1,0,0:0:0:0:
160,128,225909,1,0,0:0:0:0:
352,128,226034,1,8,0:0:0:0:
160,128,226284,1,0,0:0:0:0:
160,128,226346,1,0,0:0:0:0:
160,128,226409,1,0,0:0:0:0:
352,128,226534,1,8,0:0:0:0:
160,128,226659,1,0,0:0:0:0:
160,128,226721,1,0,0:0:0:0:
160,128,226784,1,0,0:0:0:0:
352,128,226909,1,8,0:0:0:0:
160,128,227034,1,0,0:0:0:0:
160,128,227284,1,0,0:0:0:0:
352,128,227346,1,8,0:0:0:0:
160,128,227409,1,0,0:0:0:0:
352,128,227534,1,8,0:0:0:0:
352,128,227596,1,8,0:0:0:0:
160,128,227659,1,0,0:0:0:0:
160,128,227784,1,0,0:0:0:0:
160,128,227909,1,0,0:0:0:0:
352,128,228034,1,8,0:0:0:0:
160,128,228284,1,0,0:0:0:0:
160,128,228409,1,0,0:0:0:0:
352,128,228534,1,8,0:0:0:0:
160,128,228659,1,0,0:0:0:0:
160,128,228721,1,0,0:0:0:0:
160,128,228784,1,0,0:0:0:0:
352,128,228909,1,8,0:0:0:0:
160,128,229034,1,0,0:0:0:0:
160,128,229284,1,0,0:0:0:0:
160,128,229346,1,0,0:0:0:0:
352,128,229409,1,8,0:0:0:0:
160,128,229534,1,0,0:0:0:0:
160,128,229596,1,0,0:0:0:0:
352,128,229659,1,8,0:0:0:0:
352,128,229721,1,8,0:0:0:0:
352,128,229784,1,8,0:0:0:0:
160,128,229909,1,0,0:0:0:0:
352,128,230034,1,8,0:0:0:0:
352,128,230159,1,8,0:0:0:0:
160,128,230284,1,0,0:0:0:0:
352,128,230346,1,8,0:0:0:0:
160,128,230409,1,0,0:0:0:0:
352,128,230534,1,8,0:0:0:0:
352,128,230596,1,8,0:0:0:0:
160,128,230659,1,0,0:0:0:0:
352,128,230784,1,8,0:0:0:0:
160,128,230909,1,0,0:0:0:0:
352,128,231034,1,8,0:0:0:0:
160,128,231284,1,0,0:0:0:0:
160,128,231346,1,0,0:0:0:0:
160,128,231409,1,0,0:0:0:0:
352,128,231534,1,8,0:0:0:0:
352,128,231596,1,8,0:0:0:0:
352,128,231659,1,8,0:0:0:0:
352,128,231721,1,8,0:0:0:0:
160,128,231784,1,0,0:0:0:0:
352,128,231909,1,8,0:0:0:0:
352,128,232034,1,8,0:0:0:0:
352,128,232159,1,8,0:0:0:0:
160,128,232284,1,0,0:0:0:0:
160,128,232346,1,0,0:0:0:0:
160,128,232409,1,0,0:0:0:0:
352,128,232534,1,8,0:0:0:0:
160,128,232659,1,0,0:0:0:0:
352,128,232721,1,8,0:0:0:0:
160,128,232784,1,0,0:0:0:0:
160,128,232909,1,0,0:0:0:0:
352,128,233034,1,8,0:0:0:0:
352,128,233159,1,8,0:0:0:0:
160,128,233284,1,0,0:0:0:0:
352,128,233534,1,8,0:0:0:0:
160,128,233659,1,0,0:0:0:0:
352,128,233721,1,8,0:0:0:0:
160,128,233784,1,0,0:0:0:0:
160,128,233909,1,0,0:0:0:0:
352,128,234034,1,8,0:0:0:0:
160,256,234284,1,4,0:0:0:0:
160,256,234534,1,4,0:0:0:0:
160,256,234784,1,4,0:0:0:0:
160,256,235034,1,4,0:0:0:0:
352,128,235284,1,8,0:0:0:0:
160,128,235367,1,0,0:0:0:0:
160,128,235450,1,0,0:0:0:0:
352,128,235534,1,8,0:0:0:0:
160,128,235617,1,0,0:0:0:0:
160,128,235700,1,0,0:0:0:0:
352,128,235784,1,8,0:0:0:0:
160,128,235909,1,0,0:0:0:0:
160,128,235971,1,0,0:0:0:0:
352,128,236034,1,8,0:0:0:0:
352,128,236159,1,8,0:0:0:0:
160,128,236284,1,0,0:0:0:0:
352,128,236534,1,8,0:0:0:0:
352,128,236596,1,8,0:0:0:0:
160,128,236659,1,0,0:0:0:0:
352,128,236784,1,8,0:0:0:0:
160,128,236909,1,0,0:0:0:0:
160,128,236971,1,0,0:0:0:0:
352,128,237034,1,8,0:0:0:0:
160,128,237159,1,0,0:0:0:0:
352,128,237284,1,8,0:0:0:0:
160,128,237346,1,0,0:0:0:0:
352,128,237409,1,8,0:0:0:0:
160,128,237471,1,0,0:0:0:0:
352,128,237534,1,8,0:0:0:0:
160,128,237659,1,0,0:0:0:0:
352,128,237784,1,8,0:0:0:0:
352,128,237846,1,8,0:0:0:0:
160,128,237909,1,0,0:0:0:0:
160,128,237971,1,0,0:0:0:0:
352,128,238034,1,8,0:0:0:0:
352,128,238159,1,8,0:0:0:0:
160,128,238284,1,0,0:0:0:0:
352,128,238534,1,8,0:0:0:0:
160,128,238659,1,0,0:0:0:0:
160,128,238721,1,0,0:0:0:0:
352,128,238784,1,8,0:0:0:0:
160,128,238909,1,0,0:0:0:0:
352,128,239034,1,8,0:0:0:0:
160,128,239159,1,0,0:0:0:0:
352,128,239284,1,8,0:0:0:0:
352,128,239346,1,8,0:0:0:0:
160,128,239409,1,0,0:0:0:0:
160,128,239471,1,0,0:0:0:0:
352,128,239534,1,8,0:0:0:0:
160,128,239659,1,0,0:0:0:0:
352,128,239784,1,8,0:0:0:0:
352,128,239909,1,8,0:0:0:0:
160,128,240034,1,0,0:0:0:0:
160,128,240159,1,0,0:0:0:0:
352,128,240284,1,8,0:0:0:0:
160,128,240409,1,0,0:0:0:0:
160,128,240471,1,0,0:0:0:0:
352,128,240534,1,8,0:0:0:0:
160,128,240659,1,0,0:0:0:0:
352,128,240784,1,8,0:0:0:0:
160,128,240909,1,0,0:0:0:0:
160,128,240971,1,0,0:0:0:0:
352,128,241034,1,8,0:0:0:0:
160,128,241159,1,0,0:0:0:0:
352,128,241284,1,8,0:0:0:0:
352,128,241346,1,8,0:0:0:0:
160,128,241409,1,0,0:0:0:0:
160,128,241471,1,0,0:0:0:0:
352,128,241534,1,8,0:0:0:0:
160,128,241659,1,0,0:0:0:0:
352,256,241784,1,12,0:0:0:0:
352,256,241909,1,12,0:0:0:0:
352,256,242034,1,12,0:0:0:0:
352,256,242159,1,12,0:0:0:0:
