osu file format v14

[General]
AudioFilename: audio.mp3
AudioLeadIn: 0
PreviewTime: 69167
Countdown: 1
SampleSet: Normal
StackLeniency: 0.7
Mode: 0
LetterboxInBreaks: 0
WidescreenStoryboard: 0

[Editor]
DistanceSpacing: 1.1
BeatDivisor: 8
GridSize: 4
TimelineZoom: 1.8

[Metadata]
Title:Flashback
TitleUnicode:Flashback
Artist:Miyavi vs KenKen
ArtistUnicode:Miyavi vs KenKen
Creator:RyShiroku
Version:Story
Source:Kokkoku
Tags:Miyavi KenKen Flashback Kokkoku Japanese
BeatmapID:1588661
BeatmapSetID:754616

[Difficulty]
HPDrainRate:5.4
CircleSize:4
OverallDifficulty:5
ApproachRate:9.3
SliderMultiplier:3.59999990463257
SliderTickRate:1

[Events]
//Background and Video events
//Break Periods
//Storyboard Layer 0 (Background)
//Storyboard Layer 1 (Fail)
//Storyboard Layer 2 (Pass)
//Storyboard Layer 3 (Foreground)
//Storyboard Sound Samples

[TimingPoints]
596,428.571428571429,4,1,0,100,1,0
2096,-50,4,1,0,100,0,0
3399,-50,4,1,0,100,0,0
4024,-50,4,1,0,100,0,0
4024,-100,4,1,0,100,0,0
5203,-50,4,1,0,100,0,0
6596,-50,4,1,0,100,0,0
7453,-50,4,1,0,100,0,0
8337,-133.333333333333,4,1,0,100,0,0
8738,-50,4,1,0,100,0,0
10024,-100,4,1,0,100,0,0
20738,-50,4,1,0,100,0,0
23810,-100,4,1,0,100,0,0
29578,-133.333333333333,4,1,0,100,0,0

[HitObjects]
148,268,381,5,0,0:0:0:0:
52,168,596,1,0,0:0:0:0:
104,320,1774,5,0,0:0:0:0:
216,256,2096,2,0,L|228:292,1,35
416,60,3060,5,0,0:0:0:0:
280,144,3381,1,0,0:0:0:0:
280,144,3453,1,0,0:0:0:0:
416,320,3810,1,0,0:0:0:0:
296,292,4024,2,0,L|328:276,1,35
196,144,5203,6,0,L|232:124,1,35
288,284,5524,2,0,L|320:268,1,35
160,64,5738,5,0,0:0:0:0:
320,36,5953,1,0,0:0:0:0:
160,28,6167,1,0,0:0:0:0:
320,68,6381,1,0,0:0:0:0:
256,192,6596,2,0,P|280:272|288:272,1,70
296,176,6810,2,0,P|320:244|336:248,1,70
340,156,7024,2,0,P|372:224|384:232,1,70
164,132,7453,6,0,P|40:116|140:260,1,330
228,260,7881,1,0,0:0:0:0:
168,132,8096,1,0,0:0:0:0:
388,328,8310,2,0,L|492:228,1,114.999995231628
336,232,8524,1,0,0:0:0:0:
260,76,8738,2,0,L|328:48,1,69.9999952316283
376,48,9167,5,0,0:0:0:0:
192,144,9310,1,0,0:0:0:0:
348,212,9524,5,0,0:0:0:0:
348,212,9596,1,0,0:0:0:0:
440,108,9775,1,0,0:0:0:0:
36,116,10024,2,0,P|48:172|24:176,1,59.9999984105428
184,332,10238,2,0,P|224:288|204:288,1,119.999996821086
232,36,10596,5,0,0:0:0:0:
384,84,10810,1,0,0:0:0:0:
76,116,11024,1,0,0:0:0:0:
272,236,11238,1,0,0:0:0:0:
16,80,11453,1,0,0:0:0:0:
304,52,11667,1,0,0:0:0:0:
116,132,11881,5,0,0:0:0:0:
328,204,12096,1,0,0:0:0:0:
136,276,12310,1,0,0:0:0:0:
344,328,12524,1,0,0:0:0:0:
148,380,12738,1,0,0:0:0:0:
500,12,12953,5,0,0:0:0:0:
424,12,13167,1,0,0:0:0:0:
352,16,13381,1,0,0:0:0:0:
280,16,13881,1,0,0:0:0:0:
372,144,14310,6,0,B|312:152|312:152|348:92|348:132,1,119.999996821086
104,64,14738,1,0,0:0:0:0:
88,72,14810,1,0,0:0:0:0:
228,260,15167,2,0,B|172:236|200:232|256:308,1,119.999996821086
400,108,15524,2,0,B|404:172|404:160|480:128|376:140,1,119.999996821086
232,184,15810,2,0,L|192:232,1,59.9999984105428
80,96,16167,5,0,0:0:0:0:
8,372,16596,1,0,0:0:0:0:
68,372,16810,1,0,0:0:0:0:
128,372,17024,1,0,0:0:0:0:
192,372,17238,1,0,0:0:0:0:
252,372,17453,1,0,0:0:0:0:
80,160,17738,6,0,B|36:124|32:120|56:120,1,59.9999984105428
72,68,18167,2,0,B|152:104|132:100|68:120,1,119.999996821086
300,192,18596,2,0,B|348:152|336:164|292:144,1,59.9999984105428
208,160,19024,2,0,B|192:220|176:204|176:128,1,59.9999984105428
160,128,19238,2,0,B|220:92|224:100|240:120,1,59.9999984105428
108,376,19667,2,0,B|160:392|168:388|164:376,1,59.9999984105428
184,376,20096,2,0,B|120:392|132:400|140:408,1,59.9999984105428
456,380,20310,5,0,0:0:0:0:
512,368,20524,1,0,0:0:0:0:
280,220,20738,2,0,P|380:192|288:152,1,239.999993642171
280,220,21096,6,0,P|380:192|288:152,1,239.999993642171
136,68,21596,1,0,0:0:0:0:
128,208,22024,1,0,0:0:0:0:
216,268,22238,2,0,P|344:264|328:232,1,239.999993642171
380,80,22596,2,0,B|444:192|412:152|424:80,1,119.999996821086
120,100,23096,1,0,0:0:0:0:
248,164,23524,5,0,0:0:0:0:
280,192,23596,1,0,0:0:0:0:
200,52,23810,2,0,B|128:36|144:40|168:76,1,59.9999984105428
128,32,23953,2,0,B|76:80|108:80|136:72,1,59.9999984105428
184,120,24167,2,0,B|132:160|144:148|184:192,1,59.9999984105428
112,100,24381,2,0,L|44:128,1,59.9999984105428
272,300,24596,5,0,0:0:0:0:
352,184,25024,1,0,0:0:0:0:
336,384,25453,1,0,0:0:0:0:
124,284,25881,1,0,0:0:0:0:
124,284,26096,1,0,0:0:0:0:
124,284,26167,1,0,0:0:0:0:
348,80,26453,2,0,L|296:132,1,59.9999984105428
184,152,26953,5,0,0:0:0:0:
232,280,27167,1,0,0:0:0:0:
344,212,27381,2,0,B|300:160|348:144|296:100|184:232|444:200,1,239.999993642171
228,68,28024,6,0,L|172:108,4,59.9999984105428
236,72,28399,1,0,0:0:0:0:
236,72,28506,1,0,0:0:0:0:
236,76,28613,1,0,0:0:0:0:
236,76,28721,1,0,0:0:0:0:
308,104,28828,1,0,0:0:0:0:
368,144,28935,1,0,0:0:0:0:
408,204,29042,1,0,0:0:0:0:
400,288,29149,5,0,0:0:0:0:
440,240,29256,1,0,0:0:0:0:
456,164,29363,1,0,0:0:0:0:
432,88,29471,1,0,0:0:0:0:
360,32,29578,2,0,L|276:28,4,67.5000007867814
308,96,30113,1,0,0:0:0:0:
272,156,30221,1,0,0:0:0:0:
292,228,30328,1,0,0:0:0:0:
248,284,30435,1,0,0:0:0:0:
176,300,30542,5,0,0:0:0:0:
112,260,30649,1,0,0:0:0:0:
76,204,30756,1,0,0:0:0:0:
84,136,30863,1,0,0:0:0:0:
132,88,30971,1,0,0:0:0:0:
200,80,31078,1,0,0:0:0:0:
260,92,31185,6,0,L|320:124,6,67.5000007867814
192,72,31935,1,0,0:0:0:0:
116,96,32042,1,0,0:0:0:0:
68,152,32149,1,0,0:0:0:0:
36,216,32256,1,0,0:0:0:0:
24,292,32363,1,0,0:0:0:0:
28,364,32471,1,0,0:0:0:0:
68,308,32578,1,0,0:0:0:0:
120,264,32685,1,0,0:0:0:0:
184,228,32792,5,0,0:0:0:0:
244,204,32899,1,0,0:0:0:0:
312,200,33006,1,0,0:0:0:0:
376,232,33113,1,0,0:0:0:0:
104,84,33274,5,0,0:0:0:0:
100,236,33596,1,0,0:0:0:0:
164,180,33810,1,0,0:0:0:0:
296,52,34024,2,0,P|328:120|344:116,2,101.250001180172
296,52,34399,1,0,0:0:0:0:
376,64,34506,1,0,0:0:0:0:
416,120,34613,1,0,0:0:0:0:
416,200,34721,1,0,0:0:0:0:
364,256,34828,1,0,0:0:0:0:
284,252,34935,5,0,0:0:0:0:
240,176,35042,1,0,0:0:0:0:
268,104,35149,1,0,0:0:0:0:
340,80,35256,5,0,0:0:0:0:
408,120,35363,1,0,0:0:0:0:
420,196,35471,1,0,0:0:0:0:
368,248,35578,1,0,0:0:0:0:
300,288,35685,1,0,0:0:0:0:
228,320,35792,1,0,0:0:0:0:
152,320,35899,1,0,0:0:0:0:
216,284,36006,1,0,0:0:0:0:
272,236,36113,5,0,0:0:0:0:
316,176,36221,1,0,0:0:0:0:
352,108,36328,1,0,0:0:0:0:
352,24,36435,2,0,P|308:0|264:0,9,67.5000007867814
232,4,37506,1,0,0:0:0:0:
172,40,37613,1,0,0:0:0:0:
108,80,37721,1,0,0:0:0:0:
72,152,37828,1,0,0:0:0:0:
72,232,37935,1,0,0:0:0:0:
92,304,38042,5,0,0:0:0:0:
148,356,38149,1,0,0:0:0:0:
224,368,38256,1,0,0:0:0:0:
292,336,38363,1,0,0:0:0:0:
324,272,38471,1,0,0:0:0:0:
276,216,38578,1,0,0:0:0:0:
212,176,38685,1,0,0:0:0:0:
140,196,38792,1,0,0:0:0:0:
60,188,38899,1,0,0:0:0:0:
8,128,39006,1,0,0:0:0:0:
32,60,39113,1,0,0:0:0:0:
96,48,39221,1,0,0:0:0:0:
156,84,39328,1,0,0:0:0:0:
180,148,39435,1,0,0:0:0:0:
184,204,39542,2,0,P|132:240|112:236,5,67.5000007867814
