osu file format v14

[General]
AudioFilename: audio.mp3
AudioLeadIn: 0
PreviewTime: 49204
Countdown: 0
SampleSet: Soft
StackLeniency: 0.3
Mode: 0
LetterboxInBreaks: 0
EpilepsyWarning: 1
WidescreenStoryboard: 1

[Editor]
Bookmarks: 19204
DistanceSpacing: 1
BeatDivisor: 4
GridSize: 16
TimelineZoom: 1.2

[Metadata]
Title:p.h.
TitleUnicode:p.h.
Artist:miyashita yuu
ArtistUnicode:宮下 遊
Creator:Astrolis
Version:n.e.wton's hard
Source:
Tags:pop japanese flower cover ph seventhlinks seventh links astronic j-pop newton- jpop jp arronchu1207 intoxicated utaite easy
BeatmapID:2764102
BeatmapSetID:1248032

[Difficulty]
HPDrainRate:4.8
CircleSize:4
OverallDifficulty:6.8
ApproachRate:7.8
SliderMultiplier:1.8
SliderTickRate:1

[Events]
//Background and Video events
0,0,"sadsad.jpg",0,0
Video,0,"video.mp4"
//Break Periods
2,107594,113888
//Storyboard Layer 0 (Background)
//Storyboard Layer 1 (Fail)
//Storyboard Layer 2 (Pass)
//Storyboard Layer 3 (Foreground)
//Storyboard Layer 4 (Overlay)
//Storyboard Sound Samples

[TimingPoints]
1940,454.545454545455,4,3,0,40,1,0
3758,-100,4,2,1,80,0,0
49212,-90.9090909090909,4,2,1,100,0,1
63758,-100,4,2,1,80,0,0
92849,-83.3333333333333,4,2,1,100,0,1
107394,-142.857142857143,4,2,1,80,0,0
114667,-100,4,2,1,80,0,0
124212,-80,4,2,1,100,0,1
138303,-90.9090909090909,4,2,1,90,0,0

[Colours]
Combo1 : 196,121,200
Combo2 : 255,128,128
Combo3 : 0,88,176
Combo4 : 255,128,64
Combo5 : 255,192,0
Combo6 : 151,228,118

[HitObjects]
201,53,3758,6,0,B|205:23|205:23|184:2,2,60,0|2|2,3:0|2:0|2:0,0:0:0:0:
194,130,4212,2,0,B|166:143|166:143|159:172,2,60,0|0|0,3:0|0:0|0:0,0:0:0:0:
268,105,4667,2,0,B|292:122|292:122|321:115,1,60,8|10,2:0|0:0,0:0:0:0:
394,45,4970,1,10,0:0:0:0:
394,45,5121,1,8,0:0:0:0:
339,144,5576,6,0,P|342:201|336:298,1,135,4|2,2:0|2:0,0:0:0:0:
369,282,6030,2,0,P|367:334|368:374,1,90,8|2,2:0|2:0,0:0:0:0:
283,344,6485,1,2,3:2:0:0:
283,344,6599,1,0,0:0:0:0:
283,344,6712,2,0,B|245:316|245:316|203:335,1,90,2|8,2:0|2:0,0:0:0:0:
98,348,7167,2,0,L|101:303,1,45,2|0,2:0|0:0,0:0:0:0:
82,277,7394,6,0,P|148:268|206:235,1,135,0|2,3:0|2:0,0:0:0:0:
236,233,7849,2,0,P|250:186|248:146,1,90,8|2,2:0|2:0,0:0:0:0:
212,72,8303,2,0,B|241:38|241:38|276:68,1,90,0|2,3:0|2:0,0:0:0:0:
375,46,8758,2,0,P|361:79|359:98,1,45,8|0,2:0|0:0,0:0:0:0:
347,117,8985,2,0,P|360:150|372:165,1,45,2|0,2:0|0:0,0:0:0:0:
393,173,9212,6,0,P|395:222|389:321,1,135,0|2,3:0|2:0,0:0:0:0:
368,330,9667,2,0,B|347:335|347:335|342:357,2,45,8|0|2,2:0|0:0|2:0,0:0:0:0:
305,265,10121,2,0,B|290:245|290:245|210:240,1,90,0|2,3:0|2:0,0:0:0:0:
207,284,10462,1,2,2:0:0:0:
207,284,10576,1,10,2:2:0:0:
122,314,10803,1,2,2:0:0:0:
50,236,11030,6,0,B|41:211|27:251|46:273,2,60,2|2|0,3:2|2:2|0:0,0:0:0:0:
117,177,11485,2,0,B|101:197|142:189|152:163,2,60,10|0|0,2:0|0:0|0:0,0:0:0:0:
31,159,11940,2,0,B|51:155|38:119|23:120,2,45,0|8|2,3:0|2:0|2:0,0:0:0:0:
108,85,12394,1,8,2:0:0:0:
108,85,12621,1,10,2:2:0:0:
151,164,12849,6,0,P|213:136|280:130,1,135,4|2,2:0|2:0,0:0:0:0:
303,108,13303,2,0,P|344:124|389:126,1,90,8|2,2:0|2:0,0:0:0:0:
477,164,13758,2,0,B|470:97|470:97|481:77,2,90,2|2|10,3:2|2:0|2:0,0:0:0:0:
407,217,14440,1,2,2:0:0:0:
407,217,14553,1,0,0:0:0:0:
407,217,14667,6,0,B|418:236|418:236|405:348,1,135,0|2,3:0|2:0,0:0:0:0:
381,368,15121,2,0,P|345:341|301:341,1,90,8|2,2:0|2:0,0:0:0:0:
227,305,15576,2,0,P|191:331|147:331,1,90,0|2,3:0|2:0,0:0:0:0:
60,327,16030,2,0,B|58:306|58:306|73:287,1,45,8|0,2:0|0:0,0:0:0:0:
77,258,16258,2,0,B|90:241|90:241|114:238,1,45,2|0,2:0|0:0,0:0:0:0:
142,218,16485,6,0,P|146:150|144:83,1,135,0|2,3:0|2:0,0:0:0:0:
175,94,16940,2,0,B|213:66|213:66|255:85,1,90,8|2,2:0|2:0,0:0:0:0:
323,42,17394,2,0,B|361:70|361:70|403:51,1,90,0|2,3:0|2:0,0:0:0:0:
430,39,17735,1,2,2:0:0:0:
430,39,17849,1,8,2:0:0:0:
419,133,18076,1,2,2:0:0:0:
408,227,18303,5,10,2:0:0:0:
408,227,18758,5,10,2:0:0:0:
408,227,19212,5,10,2:0:0:0:
408,227,19894,1,0,0:0:0:0:
443,296,20121,6,0,B|399:239|326:262|326:262|344:280|347:304,1,180,4|8,2:0|2:0,0:0:0:0:
268,320,20803,1,2,2:0:0:0:
215,259,21030,2,0,B|176:237|176:237|143:269,2,90,0|2|8,3:0|2:0|2:0,0:0:0:0:
408,227,21940,6,0,P|410:204|407:182,1,45,0|0,3:0|0:0,0:0:0:0:
386,151,22167,2,0,B|342:163|342:163|302:142,1,90,2|8,2:0|2:0,0:0:0:0:
283,131,22508,1,0,2:0:0:0:
283,131,22621,1,2,2:0:0:0:
170,73,22849,1,0,3:0:0:0:
170,73,22962,2,0,B|181:93|181:93|174:160,1,90
148,182,23303,2,0,B|137:202|137:202|144:269,1,90,8|2,2:0|2:0,0:0:0:0:
194,338,23758,6,0,P|220:324|247:325,1,45,0|0,3:0|0:0,0:0:0:0:
260,306,23985,2,0,P|288:314|306:334,1,45,2|0,2:0|0:0,0:0:0:0:
329,330,24212,2,0,P|343:356|342:383,2,45,8|0|0,2:0|0:0|0:0,0:0:0:0:
350,296,24553,1,0,0:0:0:0:
300,232,24780,1,0,0:0:0:0:
300,232,24894,2,0,P|293:187|298:142,1,90,2|8,2:0|2:0,0:0:0:0:
314,116,25235,1,0,0:0:0:0:
465,58,25576,5,0,3:0:0:0:
465,58,25690,1,0,0:0:0:0:
465,58,25803,2,0,B|445:69|445:69|378:62,1,90,2|8,2:0|2:0,0:0:0:0:
314,116,26258,2,0,B|294:105|294:105|227:112,1,90,2|0,2:0|3:0,0:0:0:0:
196,116,26599,1,8,2:0:0:0:
196,116,26712,1,0,0:0:0:0:
120,152,26940,2,0,P|118:204|119:244,1,90,8|10,3:2|2:2,0:0:0:0:
65,305,27394,6,0,B|109:248|182:271|182:271|164:289|161:313,1,180,4|8,2:0|2:0,0:0:0:0:
243,326,28076,2,0,B|264:324|264:324|283:339,1,45,2|0,2:0|0:0,0:0:0:0:
306,319,28303,2,0,P|306:274|304:230,1,90,0|2,3:0|2:0,0:0:0:0:
278,210,28644,1,0,0:0:0:0:
278,210,28758,2,0,P|278:165|280:121,1,90,8|0,2:0|0:0,0:0:0:0:
313,26,29212,6,0,B|342:62|342:62|383:48,2,90,0|2|8,3:0|2:0|2:0,0:0:0:0:
234,54,29894,1,2,2:0:0:0:
234,54,30008,2,0,P|198:28|154:28,1,90
129,49,30349,2,0,P|135:93|136:138,2,90,2|8|2,2:0|2:0|2:0,0:0:0:0:
52,105,31030,6,0,B|41:125|41:125|48:192,1,90,0|2,3:0|2:0,0:0:0:0:
67,215,31371,1,0,0:0:0:0:
67,215,31485,2,0,P|70:237|66:259,1,45,8|0,2:0|0:0,0:0:0:0:
48,287,31712,2,0,P|44:309|48:331,1,45,2|0,2:0|0:0,0:0:0:0:
70,354,31940,1,0,3:0:0:0:
70,354,32053,2,0,P|110:335|155:336,1,90
187,352,32394,1,8,2:0:0:0:
257,307,32621,1,2,2:0:0:0:
335,357,32849,6,0,B|342:290|342:290|331:270,1,90,0|2,3:0|2:0,0:0:0:0:
279,205,33303,2,0,B|333:244|333:244|356:245,1,90,8|2,2:0|2:0,0:0:0:0:
398,238,33644,1,8,2:0:0:0:
438,232,33758,2,0,B|376:259|376:259|364:278,1,90,0|0,3:0|0:0,0:0:0:0:
366,159,34212,1,8,2:0:0:0:
366,159,34667,6,0,P|367:114|364:63,1,90,4|0,2:0|0:0,0:0:0:0:
291,33,35121,2,0,B|272:44|272:44|160:31,1,135,8|0,2:0|0:0,0:0:0:0:
141,56,35576,2,0,P|97:56|56:74,1,90,0|0,3:0|0:0,0:0:0:0:
22,153,36030,1,8,2:0:0:0:
22,153,36144,1,0,0:0:0:0:
22,153,36258,1,2,2:0:0:0:
100,182,36485,6,0,B|112:226|112:226|91:266,1,90,0|0,3:0|0:0,0:0:0:0:
192,205,36940,2,0,P|185:183|190:162,2,45,8|0|2,2:0|0:0|2:0,0:0:0:0:
89,200,37394,6,0,B|101:244|101:244|80:284,1,90,0|0,3:0|0:0,0:0:0:0:
181,223,37849,2,0,P|174:201|179:180,2,45,8|0|2,2:0|0:0|2:0,0:0:0:0:
181,334,38303,6,0,P|230:289|296:279,1,135,0|0,3:0|0:0,0:0:0:0:
338,263,38758,2,0,B|327:283|327:283|334:350,1,90,8|0,2:0|0:0,0:0:0:0:
414,303,39212,2,0,B|425:283|425:283|418:216,1,90,0|0,3:0|0:0,0:0:0:0:
362,151,39667,1,8,2:0:0:0:
362,151,39780,1,0,0:0:0:0:
362,151,39894,1,2,2:0:0:0:
281,194,40121,6,0,P|236:194|195:176,1,90,0|0,3:0|0:0,0:0:0:0:
162,101,40576,2,0,B|180:86|180:86|200:93,2,45,8|0|2,2:0|0:0|2:0,0:0:0:0:
168,191,41030,6,0,P|123:190|82:208,1,90,0|8,3:0|2:0,0:0:0:0:
7,178,41485,1,8,2:0:0:0:
7,178,41712,1,8,2:0:0:0:
31,289,41940,6,0,B|143:276|143:276|162:287,1,135,0|0,3:0|0:0,0:0:0:0:
193,285,42394,2,0,P|166:319|178:361,1,90,8|0,2:0|0:0,0:0:0:0:
260,374,42849,2,0,P|286:339|274:297,1,90,0|0,3:0|0:0,0:0:0:0:
327,233,43303,1,8,2:0:0:0:
327,233,43417,1,0,0:0:0:0:
327,233,43530,1,2,2:0:0:0:
389,282,43758,6,0,B|429:303|429:303|473:291,1,90,0|0,3:0|0:0,0:0:0:0:
491,211,44212,2,0,P|484:189|489:168,2,45,8|0|2,2:0|0:0|2:0,0:0:0:0:
400,296,44667,6,0,B|440:317|440:317|484:305,1,90,0|0,3:0|0:0,0:0:0:0:
502,225,45121,2,0,P|495:203|500:182,2,45,8|0|2,2:0|0:0|2:0,0:0:0:0:
401,188,45576,6,0,P|402:143|399:92,1,90,0|2,3:0|2:0,0:0:0:0:
319,60,46030,2,0,P|317:104|320:155,1,90,8|2,2:0|2:0,0:0:0:0:
239,172,46485,6,0,B|199:151|199:151|155:163,1,90,0|2,3:0|2:0,0:0:0:0:
128,151,46826,2,0,B|89:175|89:175|78:219,1,90
73,242,47167,1,2,2:0:0:0:
120,314,47394,5,0,3:0:0:0:
197,271,47621,1,2,2:0:0:0:
263,333,47849,2,0,P|266:310|278:291,1,45,8|0,2:0|0:0,0:0:0:0:
307,286,48076,2,0,P|324:272|346:267,1,45,2|0,2:0|0:0,0:0:0:0:
381,295,48303,1,8,2:0:0:0:
381,295,48530,1,10,2:0:0:0:
381,295,48758,1,8,2:0:0:0:
381,295,48985,1,10,2:0:0:0:
452,203,49212,6,0,P|453:153|451:104,1,99.0000030212403,4|2,3:2|2:0,0:0:0:0:
361,80,49667,2,0,P|359:130|361:179,1,99.0000030212403,8|2,2:0|2:0,0:0:0:0:
273,136,50121,2,0,B|245:98|245:98|146:123,1,148.50000453186,0|0,3:0|0:0,0:0:0:0:
118,139,50576,2,0,P|95:133|71:136,2,49.5000015106202,8|0|2,2:0|0:0|2:0,0:0:0:0:
179,207,51030,5,0,3:0:0:0:
179,207,51258,1,2,2:0:0:0:
114,261,51485,1,8,2:0:0:0:
171,324,51712,2,0,P|192:311|216:308,1,49.5000015106202,2|0,2:0|0:0,0:0:0:0:
251,338,51940,2,0,P|284:279|359:269,1,148.50000453186,0|0,3:0|0:0,0:0:0:0:
387,284,52394,2,0,B|359:243|359:243|370:195,1,99.0000030212403,8|2,2:0|2:0,0:0:0:0:
390,113,52849,5,0,3:0:0:0:
390,113,53076,1,2,2:0:0:0:
303,137,53303,2,0,B|255:148|255:148|214:120,1,99.0000030212403,8|2,2:0|2:0,0:0:0:0:
124,70,53758,2,0,P|130:143|124:217,1,148.50000453186,0|2,3:0|2:0,0:0:0:0:
95,233,54212,2,0,P|93:282|95:331,1,99.0000030212403,8|2,2:0|2:0,0:0:0:0:
226,281,54667,6,0,B|230:248|230:248|207:224,2,66.0000020141602,0|0|0,3:0|0:0|0:0,0:0:0:0:
310,275,55121,2,0,B|279:289|279:289|271:321,2,66.0000020141602,8|0|0,0:0|0:0|0:0,0:0:0:0:
284,213,55576,2,0,B|310:231|310:231|335:224,3,49.5000015106202,8|8|0|8,2:0|2:0|0:0|2:0,0:0:0:0:
345,179,56030,2,0,P|310:134|271:104,1,99.0000030212403,8|10,2:0|2:0,0:0:0:0:
174,80,56485,5,4,3:2:0:0:
174,80,56712,1,2,2:0:0:0:
86,126,56940,2,0,P|84:175|86:224,1,99.0000030212403,8|2,2:0|2:0,0:0:0:0:
9,303,57394,2,0,B|137:312|137:312|146:330,1,148.50000453186,0|0,3:0|0:0,0:0:0:0:
170,338,57849,2,0,B|190:349|190:349|265:340,1,99.0000030212403,8|2,2:0|2:0,0:0:0:0:
367,317,58303,5,0,3:0:0:0:
367,317,58417,1,0,0:0:0:0:
367,317,58530,1,2,2:0:0:0:
282,254,58758,2,0,B|295:231|295:231|286:202,1,49.5000015106202,8|0,2:0|0:0,0:0:0:0:
267,186,58985,2,0,B|254:163|254:163|263:134,1,49.5000015106202,2|0,2:0|0:0,0:0:0:0:
278,110,59212,2,0,P|211:143|137:150,1,148.50000453186,0|0,3:0|0:0,0:0:0:0:
104,135,59667,1,8,2:0:0:0:
70,48,59894,1,2,2:0:0:0:
156,22,60121,5,0,3:0:0:0:
156,22,60349,1,2,2:0:0:0:
185,104,60576,2,0,B|202:120|202:120|277:109,1,99.0000030212403,8|2,2:0|2:0,0:0:0:0:
346,51,61030,2,0,P|414:67|433:136,1,148.50000453186,0|0,3:0|0:0,0:0:0:0:
456,155,61485,2,0,B|428:196|428:196|439:243,2,99.0000030212403,8|2|2,2:0|2:0|3:2,0:0:0:0:
256,192,62053,12,0,62849,3:0:0:0:
306,232,63303,5,8,2:0:0:0:
306,232,63758,2,0,P|261:224|213:259,1,90,4|0,3:2|0:0,0:0:0:0:
156,296,64212,1,8,2:0:0:0:
156,296,64326,1,0,0:0:0:0:
156,296,64440,1,2,2:0:0:0:
85,238,64667,2,0,B|78:171|78:171|89:151,1,90,0|2,3:0|2:0,0:0:0:0:
166,121,65121,1,8,2:0:0:0:
183,26,65349,6,0,B|231:91|296:57|296:57,1,90,2|0,2:0|3:0,0:0:0:0:
291,56,65690,1,0,0:0:0:0:
291,56,65803,1,2,2:0:0:0:
359,110,66030,2,0,B|374:88|417:94|417:94,2,45,8|0|2,2:0|0:0|2:0,0:0:0:0:
301,171,66485,2,0,B|319:219|318:282|318:282,1,90,0|2,3:0|2:0,0:0:0:0:
314,296,66826,1,0,0:0:0:0:
314,296,66940,2,0,B|249:275|249:275|222:299,1,90,8|2,2:0|2:0,0:0:0:0:
149,328,67394,5,0,3:0:0:0:
149,328,67508,2,0,B|84:346|90:282|90:282,1,90
102,248,67849,2,0,B|166:266|160:202|160:202,1,90,8|2,2:0|2:0,0:0:0:0:
99,136,68303,2,0,B|175:113|175:113|184:117,1,90,0|2,3:0|2:0,0:0:0:0:
216,133,68644,1,0,0:0:0:0:
216,133,68758,1,8,2:0:0:0:
281,80,68985,2,0,B|313:86|313:86|323:79,1,45,2|0,2:0|0:0,0:0:0:0:
354,65,69212,6,0,B|337:116|358:188|358:188,1,90,0|2,3:0|2:0,0:0:0:0:
367,187,69553,1,0,0:0:0:0:
434,238,69780,1,2,2:0:0:0:
366,293,70008,2,0,B|330:255|252:270|252:270,2,90,8|8|0,2:0|2:0|0:0,0:0:0:0:
362,324,70576,2,0,B|287:343|287:343|271:368,1,90,8|10,2:0|2:0,0:0:0:0:
199,311,71030,6,0,B|140:297|113:241|161:220|183:230,1,135,4|0,2:0|0:0,0:0:0:0:
196,201,71485,2,0,B|256:196|219:156,2,60,8|2|0,2:0|2:0|0:0,0:0:0:0:
127,157,71940,2,0,B|119:110|138:96|138:96,2,45,0|0|2,3:0|0:0|2:0,0:0:0:0:
54,79,72394,2,0,B|79:34|79:34|138:33,1,90,8|2,2:0|2:0,0:0:0:0:
196,63,72849,6,0,B|242:35|298:35|298:35,1,90,0|2,3:0|2:0,0:0:0:0:
341,95,73303,2,0,B|368:116|394:125|394:125,1,45,8|0,2:0|0:0,0:0:0:0:
398,147,73530,2,0,B|386:179|385:206|385:206,1,45,2|0,2:0|0:0,0:0:0:0:
364,215,73758,2,0,B|329:213|303:221|303:221,2,45,0|0|2,3:0|0:0|2:0,0:0:0:0:
414,290,74212,2,0,B|333:315|333:315|331:319,1,90,8|0,2:0|0:0,0:0:0:0:
304,337,74553,1,0,0:0:0:0:
304,337,74667,6,0,B|223:312|223:312|221:307,1,90,0|2,3:0|2:0,0:0:0:0:
129,298,75121,2,0,B|178:256|133:191|133:191,1,90,8|2,2:0|2:0,0:0:0:0:
114,203,75462,1,0,0:0:0:0:
114,203,75576,2,0,B|55:262|4:196|4:196,2,90,0|2|8,3:0|2:0|2:0,0:0:0:0:
194,38,76485,6,0,B|218:47|218:47|231:59,1,45,0|0,3:0|0:0,0:0:0:0:
257,84,76712,2,0,B|281:75|281:75|294:62,1,45,2|8,2:0|2:0,0:0:0:0:
326,74,76940,2,0,B|274:118|307:177|307:177,1,90,8|2,2:0|2:0,0:0:0:0:
331,187,77280,1,8,2:0:0:0:
331,187,77394,2,0,B|344:174|344:174|368:165,2,45,0|8|0,3:0|2:0|0:0,0:0:0:0:
252,224,77849,1,8,2:0:0:0:
252,224,78303,6,0,B|279:239|271:345|271:345,1,135,4|0,2:0|0:0,0:0:0:0:
239,346,78758,2,0,B|200:365|200:365|155:338,1,90,8|0,2:0|0:0,0:0:0:0:
141,260,79212,2,0,B|101:236|101:236|62:255,1,90,0|0,3:0|0:0,0:0:0:0:
18,177,79667,1,8,2:0:0:0:
18,177,79780,1,0,0:0:0:0:
18,177,79894,1,2,2:0:0:0:
94,132,80121,6,0,B|126:145|126:145|210:129,1,90,0|0,3:0|0:0,0:0:0:0:
143,57,80576,2,0,L|148:12,2,45,8|0|2,2:0|0:0|2:0,0:0:0:0:
101,143,81030,6,0,B|125:169|211:134,1,90,0|0,3:0|0:0,0:0:0:0:
154,50,81485,2,0,L|159:5,2,45,8|0|2,2:0|0:0|2:0,0:0:0:0:
237,72,81940,6,0,B|269:31|269:31|338:75,1,135,0|0,3:0|0:0,0:0:0:0:
376,97,82394,2,0,B|326:112|354:177|354:177,1,90,8|0,2:0|0:0,0:0:0:0:
269,214,82849,2,0,B|319:229|291:294|291:294,1,90,0|0,3:0|0:0,0:0:0:0:
233,352,83303,1,8,2:0:0:0:
233,352,83417,1,0,0:0:0:0:
233,352,83530,1,2,2:0:0:0:
156,303,83758,6,0,B|110:334|110:334|70:295,1,90,0|0,3:0|0:0,0:0:0:0:
49,238,84212,2,0,B|26:251|7:251|7:251,2,45,8|0|2,2:0|0:0|2:0,0:0:0:0:
104,174,84667,6,0,B|160:218|190:166,1,90,0|8,3:0|2:0,0:0:0:0:
209,105,85121,1,8,2:0:0:0:
209,105,85349,1,8,2:0:0:0:
260,184,85576,6,0,B|281:142|375:161|375:161,1,135,0|0,3:0|0:0,0:0:0:0:
415,152,86030,2,0,B|402:232|402:232|411:253,1,90,8|0,2:0|0:0,0:0:0:0:
486,258,86485,2,0,B|499:338|499:338|490:359,1,90,0|0,3:0|0:0,0:0:0:0:
414,327,86940,1,8,2:0:0:0:
414,327,87053,1,0,0:0:0:0:
414,327,87167,1,2,2:0:0:0:
328,344,87394,6,0,B|296:357|296:357|212:341,1,90,0|0,3:0|0:0,0:0:0:0:
279,269,87849,2,0,L|273:224,2,45,8|0|2,2:0|0:0|2:0,0:0:0:0:
321,355,88303,6,0,B|297:381|211:346,1,90,0|0,3:0|0:0,0:0:0:0:
268,262,88758,2,0,L|262:217,2,45,8|0|2,2:0|0:0|2:0,0:0:0:0:
173,227,89213,5,0,3:0:0:0:
173,227,89326,2,0,B|199:167|183:93|181:93|134:132,1,135,2|8,2:0|2:0,0:0:0:0:
96,60,89894,1,2,2:0:0:0:
165,7,90121,2,0,B|196:29|196:29|232:21,1,45,0|0,3:0|0:0,0:0:0:0:
233,41,90349,2,0,B|294:8|328:32|328:32,1,90,2|8,2:0|2:0,0:0:0:0:
392,87,90803,1,2,2:0:0:0:
392,87,90917,1,0,0:0:0:0:
392,87,91030,6,0,B|388:154|388:154|392:189,1,90,0|2,3:0|2:0,0:0:0:0:
407,204,91371,1,0,0:0:0:0:
431,304,91599,2,0,B|381:255|326:309|326:309,1,90
321,319,91940,1,8,2:0:0:0:
321,319,92167,1,8,2:0:0:0:
321,319,92394,1,8,2:0:0:0:
321,319,92621,1,8,2:0:0:0:
230,293,92849,6,0,B|239:256|189:259|129:289|129:289,1,107.999996704102,4|2,3:2|2:0,0:0:0:0:
92,213,93303,2,0,B|105:207|45:237|-4:240|4:203,1,107.999996704102,8|2,2:0|2:0,0:0:0:0:
55,136,93758,2,0,L|175:15,1,161.999995056153,0|0,3:0|0:0,0:0:0:0:
185,47,94212,2,0,B|239:84|239:84|299:62,1,107.999996704102,8|2,2:0|2:0,0:0:0:0:
352,25,94667,5,0,3:0:0:0:
352,25,94894,1,2,2:0:0:0:
395,96,95121,1,8,2:0:0:0:
485,103,95349,2,0,L|457:159,1,53.9999983520508,2|0,2:0|0:0,0:0:0:0:
427,172,95576,2,0,B|489:243|489:243|419:296,1,161.999995056153,0|0,3:0|0:0,0:0:0:0:
408,301,96030,1,8,2:0:0:0:
344,249,96258,1,2,2:0:0:0:
277,298,96485,6,0,B|207:317|207:317|186:364,1,107.999996704102,0|2,3:0|2:0,0:0:0:0:
123,297,96940,2,0,B|53:278|53:278|32:231,1,107.999996704102,8|2,2:0|2:0,0:0:0:0:
113,209,97394,2,0,B|136:126|105:63|105:64|84:100,1,161.999995056153,0|2,3:0|2:0,0:0:0:0:
100,125,97849,2,0,L|212:172,1,107.999996704102,8|2,2:0|2:0,0:0:0:0:
257,227,98303,6,0,B|234:253|251:301|261:271,2,71.9999978027344,0|0|0,3:0|0:0|0:0,0:0:0:0:
315,173,98758,2,0,B|337:146|321:98|310:128,2,71.9999978027344,8|0|0,0:0|0:0|0:0,0:0:0:0:
383,218,99212,2,0,B|360:244|382:280|397:248,3,53.9999983520508,8|8|0|8,2:0|2:0|0:0|2:0,0:0:0:0:
445,266,99667,1,8,2:0:0:0:
445,266,99894,1,10,2:0:0:0:
512,109,100121,6,0,L|427:37,1,107.999996704102,4|2,3:2|2:0,0:0:0:0:
337,24,100576,2,0,B|239:58|239:58|214:47,1,107.999996704102,8|2,2:0|2:0,0:0:0:0:
126,44,101030,2,0,B|182:70|154:167|154:167,1,161.999995056153,0|0,3:0|0:0,0:0:0:0:
136,228,101485,1,8,2:0:0:0:
136,228,101712,1,2,2:0:0:0:
62,274,101940,5,0,3:0:0:0:
62,274,102054,1,0,0:0:0:0:
62,274,102167,1,2,2:0:0:0:
129,324,102394,2,0,L|186:296,1,53.9999983520508,8|0,2:0|0:0,0:0:0:0:
201,324,102621,2,0,L|258:352,1,53.9999983520508,2|0,2:0|0:0,0:0:0:0:
276,330,102849,2,0,B|317:261|274:170|274:170,1,161.999995056153,0|0,3:0|0:0,0:0:0:0:
257,147,103303,2,0,B|312:121|312:121|349:149,1,107.999996704102,8|2,2:0|2:0,0:0:0:0:
417,211,103758,5,0,3:0:0:0:
417,211,103985,1,2,2:0:0:0:
444,123,104212,2,0,B|425:59|366:48|366:48,1,107.999996704102,8|2,2:0|2:0,0:0:0:0:
293,14,104667,2,0,L|183:52,1,107.999996704102,0|2,3:0|2:0,0:0:0:0:
161,33,105008,1,0,0:0:0:0:
161,33,105121,1,8,2:0:0:0:
97,92,105349,1,2,2:0:0:0:
139,160,105576,1,2,3:2:0:0:
256,192,105690,12,4,107394,3:2:0:0:
120,116,114667,6,0,B|177:172|279:44|279:44,1,180,4|8,3:2|2:0,0:0:0:0:
352,102,115349,1,2,2:0:0:0:
352,102,115462,1,0,0:0:0:0:
352,102,115576,2,0,L|297:222,2,90,0|2|8,3:0|2:0|2:0,0:0:0:0:
418,166,116258,2,0,B|424:213|432:223|432:223,1,45,2|0,2:0|0:0,0:0:0:0:
442,238,116485,6,0,B|382:257|382:257|360:273,1,90,0|2,3:0|2:0,0:0:0:0:
293,319,116940,1,8,2:0:0:0:
235,263,117167,1,2,2:0:0:0:
235,263,117280,1,0,0:0:0:0:
235,263,117394,2,0,B|175:244|175:244|153:227,1,90,0|2,3:0|2:0,0:0:0:0:
71,222,117849,2,0,B|78:148|69:93|69:93|67:91,1,90,8|2,2:0|2:0,0:0:0:0:
115,59,118303,6,0,B|211:1|175:137|245:88,1,135,0|0,3:0|0:0,0:0:0:0:
251,93,118758,1,8,2:0:0:0:
320,38,118985,1,2,2:0:0:0:
365,116,119212,2,0,B|378:177|367:224|367:224,1,90,0|2,3:0|2:0,0:0:0:0:
450,228,119667,2,0,B|437:289|448:336|448:336,1,90,8|2,2:0|2:0,0:0:0:0:
363,360,120121,5,8,2:0:0:0:
363,360,120576,1,8,2:0:0:0:
363,360,121030,1,8,2:0:0:0:
363,360,121485,1,8,2:0:0:0:
297,302,121940,5,8,2:0:0:0:
297,302,122167,1,8,2:0:0:0:
218,335,122394,5,8,2:0:0:0:
218,335,122621,1,8,2:0:0:0:
142,287,122849,2,0,L|169:234,1,45,8|0,2:0|3:0,0:0:0:0:
138,215,123076,2,0,L|165:162,1,45,8|0,2:0|3:0,0:0:0:0:
171,147,123303,2,0,B|169:133|169:133|150:115,8,22.5,8|0|0|0|8|0|0|0|2,2:0|3:0|3:0|3:0|3:2|3:0|3:0|3:0|2:0,0:0:0:0:
250,42,124212,6,0,B|284:11|320:163|421:104,1,168.75,4|0,2:0|0:0,0:0:0:0:
430,105,124667,2,0,B|388:135|388:135|424:233,1,112.5,0|2,3:0|2:0,0:0:0:0:
417,222,125008,1,0,0:0:0:0:
417,222,125121,2,0,L|307:184,1,112.5,8|2,2:0|2:0,0:0:0:0:
250,247,125576,5,0,3:0:0:0:
250,247,125803,1,2,2:0:0:0:
282,322,126030,1,8,2:0:0:0:
198,332,126258,2,0,B|183:274|132:320|132:320,1,56.25,2|0,2:0|0:0,0:0:0:0:
127,318,126485,2,0,B|68:343|12:305|50:177,1,168.75,0|0,3:0|0:0,0:0:0:0:
70,215,126940,2,0,L|110:106,1,112.5,8|2,2:0|2:0,0:0:0:0:
189,148,127394,5,0,3:0:0:0:
189,148,127621,1,2,2:0:0:0:
247,87,127849,1,8,2:0:0:0:
247,87,128076,1,2,2:0:0:0:
317,134,128303,2,0,B|358:164|358:164|408:162|408:162|441:226,1,168.75,0|2,3:0|2:0,0:0:0:0:
456,252,128758,2,0,B|361:269|381:329|381:329,1,112.5,8|2,0:0|2:0,0:0:0:0:
299,343,129212,6,0,B|264:333|264:333|249:369,2,75,0|0|0,3:0|0:0|0:0,0:0:0:0:
300,257,129667,2,0,B|309:222|309:222|273:207,2,75,8|0|0,2:0|0:0|0:0,0:0:0:0:
200,259,130121,2,0,B|185:295|185:295|152:300,3,56.25,8|8|0|8,2:0|2:0|0:0|2:0,0:0:0:0:
116,313,130576,1,8,2:0:0:0:
116,313,130803,1,10,2:0:0:0:
106,210,131030,6,0,L|22:127,1,112.5,4|2,2:0|2:0,0:0:0:0:
77,65,131485,2,0,L|196:91,1,112.5,8|2,2:0|2:0,0:0:0:0:
263,48,131940,2,0,B|399:-18|421:97|421:97,1,168.75,0|0,3:0|0:0,0:0:0:0:
421,104,132394,2,0,B|335:103|335:103|314:139,1,112.5,8|2,2:0|2:0,0:0:0:0:
386,184,132849,5,0,3:0:0:0:
386,184,132963,1,0,0:0:0:0:
386,184,133076,1,2,2:0:0:0:
452,231,133303,2,0,B|509:257|509:257|491:319,1,112.5,8|2,2:0|2:0,0:0:0:0:
420,353,133758,2,0,B|336:340|428:315|229:268,1,168.75,0|0,3:0|0:0,0:0:0:0:
248,304,134212,2,0,B|187:357|133:320|133:320,1,112.5,8|2,2:0|2:0,0:0:0:0:
83,266,134667,5,0,3:0:0:0:
83,266,134894,1,2,2:0:0:0:
146,204,135121,1,8,2:0:0:0:
146,204,135348,1,2,2:0:0:0:
66,183,135576,2,0,L|241:154,1,168.75,0|0,3:0|0:0,0:0:0:0:
264,137,136030,2,0,B|256:88|256:88|321:46,2,112.5,8|2|8,2:0|2:0|2:0,0:0:0:0:
409,285,136940,5,2,3:2:0:0:
409,285,137394,5,8,2:0:0:0:
339,330,137621,1,10,2:0:0:0:
268,283,137849,5,8,2:0:0:0:
268,283,138076,1,10,2:0:0:0:
188,336,138303,6,0,B|100:342|95:293|95:293,1,99.0000030212403,4|2,2:0|2:0,0:0:0:0:
68,295,138644,2,0,B|113:232|193:231|189:162,1,148.50000453186,2|2,2:0|2:0,0:0:0:0:
108,148,139212,1,0,3:0:0:0:
108,148,139440,1,2,2:0:0:0:
168,79,139667,2,0,L|259:117,1,99.0000030212403,8|2,2:0|2:0,0:0:0:0:
334,70,140121,6,0,B|395:38|416:102|416:102,1,99.0000030212403,0|2,3:0|2:0,0:0:0:0:
427,129,140462,2,0,B|386:177|386:177|405:234|405:234|382:295,1,148.50000453186,2|2,0:0|2:0,0:0:0:0:
337,323,141030,2,0,L|428:378,2,99.0000030212403,0|2|8,3:0|2:0|2:0,0:0:0:0:
258,290,141712,2,0,B|223:293|223:293|195:338,1,49.5000015106202,2|2,2:0|2:0,0:0:0:0:
179,324,141940,6,0,B|144:321|144:321|116:276,1,49.5000015106202,0|0,3:0|0:0,0:0:0:0:
117,280,142167,1,2,2:0:0:0:
33,264,142394,2,0,L|73:148,1,99.0000030212403,8|2,2:0|2:0,0:0:0:0:
95,94,142849,1,0,3:0:0:0:
152,161,143076,1,2,2:0:0:0:
152,161,143190,2,0,B|292:160|175:96|266:93,1,148.50000453186,2|2,0:0|2:0,0:0:0:0:
292,83,143644,1,0,0:0:0:0:
292,83,143758,6,0,B|279:32|279:32|331:11,2,66.0000020141602,0|0|0,3:0|0:0|0:0,0:0:0:0:
370,108,144212,2,0,B|421:95|421:95|442:147,2,66.0000020141602,8|0|0,2:0|0:0|0:0,0:0:0:0:
319,172,144667,2,0,B|337:205|337:205|318:222,3,49.5000015106202,8|8|2|8,2:0|2:0|2:0|2:0,0:0:0:0:
291,245,145121,1,8,2:0:0:0:
291,245,145349,1,10,2:0:0:0:
230,143,145576,6,0,B|164:168|128:123|128:123,1,99.0000030212403,4|2,2:0|2:0,0:0:0:0:
106,148,145917,2,0,B|164:135|193:227|123:291|120:292,1,148.50000453186,2|2,2:0|2:0,0:0:0:0:
94,322,146485,1,0,3:0:0:0:
94,322,146712,1,2,2:0:0:0:
171,359,146940,2,0,L|274:288,1,99.0000030212403,8|2,2:0|2:0,0:0:0:0:
325,259,147394,6,0,B|392:254|384:343|384:343,1,99.0000030212403,0|2,3:0|2:0,0:0:0:0:
414,316,147735,2,0,B|430:240|430:240|404:190|404:190|410:158,1,148.50000453186,0|2,0:0|2:0,0:0:0:0:
428,97,148303,1,0,3:0:0:0:
428,97,148530,1,2,2:0:0:0:
339,121,148758,2,0,B|253:143|253:143|238:166,1,99.0000030212403,8|2,2:0|2:0,0:0:0:0:
194,217,149212,6,0,B|209:249|173:250|173:250,2,49.5000015106202,0|0|2,3:0|0:0|2:0,0:0:0:0:
114,189,149667,2,0,L|28:108,1,99.0000030212403,8|2,2:0|2:0,0:0:0:0:
47,91,150008,1,0,0:0:0:0:
47,91,150121,1,0,3:0:0:0:
101,24,150349,1,2,2:0:0:0:
179,56,150576,2,0,B|194:69|194:69|268:44,2,99.0000030212403,8|2|0,2:0|2:0|3:0,0:0:0:0:
256,192,151144,12,0,152849,0:0:0:0:
