osu file format v14

[General]
AudioFilename: audio.mp3
AudioLeadIn: 0
PreviewTime: 51426
Countdown: 0
SampleSet: Normal
StackLeniency: 0.7
Mode: 1
LetterboxInBreaks: 0
WidescreenStoryboard: 0

[Editor]
DistanceSpacing: 0.9
BeatDivisor: 8
GridSize: 32
TimelineZoom: 3.699998

[Metadata]
Title:Endgame
TitleUnicode:エンドゲエム
Artist:Miyashita Yuu
ArtistUnicode:宮下遊
Creator:_Rise
Version:Oni
Source:
Tags:japanese pop j-pop jpop 錆付くまで sabitsuku made かいりきベア kairiki bear
BeatmapID:3693401
BeatmapSetID:1402249

[Difficulty]
HPDrainRate:5.5
CircleSize:5
OverallDifficulty:6
ApproachRate:5
SliderMultiplier:1.4
SliderTickRate:1

[Events]
//Background and Video events
0,0,"bg.jpg",0,0
//Break Periods
2,138056,144336
//Storyboard Layer 0 (Background)
//Storyboard Layer 1 (Fail)
//Storyboard Layer 2 (Pass)
//Storyboard Layer 3 (Foreground)
//Storyboard Layer 4 (Overlay)
//Storyboard Sound Samples

[TimingPoints]
576,240,4,1,0,80,1,0
576,-100,4,1,0,90,0,0
21726,-100,4,1,0,85,0,0
40926,-100,4,1,0,80,0,0
43746,-100,4,1,0,90,0,0
51426,-100,4,1,0,95,0,0
51456,-100,4,1,0,95,0,1
66816,-100,4,1,0,95,0,0
66846,-100,4,1,0,90,0,0
70626,-100,4,1,0,95,0,0
70656,-100,4,1,0,95,0,1
73536,-100,4,1,0,95,0,0
73566,-100,4,1,0,90,0,0
98466,-100,4,1,0,30,0,0
99426,-100,4,1,0,95,0,0
99456,-100,4,1,0,95,0,1
114816,-100,4,1,0,95,0,0
114846,-100,4,1,0,90,0,0
118626,-100,4,1,0,95,0,0
118656,-100,4,1,0,95,0,1
121536,-100,4,1,0,95,0,0
121566,-100,4,1,0,75,0,0
129546,-100,4,1,0,85,0,0
133986,-100,4,1,0,95,0,0
134016,-100,4,1,0,95,0,1
137856,-100,4,1,0,95,0,0
137886,-100,4,1,0,70,0,0
151146,-100,4,1,0,80,0,0
151266,-100,4,1,0,90,0,0
152226,-100,4,1,0,70,0,0
153186,-100,4,1,0,95,0,0
153216,-100,4,1,0,95,0,1
168576,-100,4,1,0,95,0,0
168606,-100,4,1,0,90,0,0
172386,-100,4,1,0,95,0,0
172416,-100,4,1,0,95,0,1
179136,-100,4,1,0,95,0,0
179166,-100,4,1,0,90,0,0

[HitObjects]
256,192,576,5,4,0:0:0:0:
256,192,896,1,0,0:0:0:0:
256,192,1056,1,12,0:0:0:0:
256,192,1536,1,4,0:0:0:0:
256,192,1856,1,0,0:0:0:0:
256,192,2016,1,12,0:0:0:0:
256,192,2176,1,8,0:0:0:0:
256,192,2336,1,8,0:0:0:0:
256,192,2496,1,4,0:0:0:0:
256,192,2816,1,0,0:0:0:0:
256,192,2976,1,12,0:0:0:0:
256,192,3456,1,4,0:0:0:0:
256,192,3776,1,0,0:0:0:0:
256,192,3936,1,12,0:0:0:0:
256,192,4096,1,8,0:0:0:0:
256,192,4256,1,8,0:0:0:0:
256,192,4416,1,4,0:0:0:0:
256,192,4896,1,4,0:0:0:0:
256,192,5376,1,12,0:0:0:0:
256,192,5496,1,12,0:0:0:0:
256,192,5736,1,12,0:0:0:0:
256,192,5976,1,0,0:0:0:0:
256,192,6036,1,0,0:0:0:0:
256,192,6096,1,8,0:0:0:0:
256,192,6336,1,4,0:0:0:0:
256,192,6576,1,8,0:0:0:0:
256,192,6696,1,0,0:0:0:0:
256,192,6936,1,0,0:0:0:0:
256,192,7056,1,8,0:0:0:0:
256,192,7296,1,0,0:0:0:0:
256,192,7416,1,0,0:0:0:0:
256,192,7536,1,8,0:0:0:0:
256,192,7656,1,0,0:0:0:0:
256,192,7896,1,0,0:0:0:0:
256,192,8016,1,8,0:0:0:0:
256,192,8256,1,8,0:0:0:0:
256,192,8376,1,8,0:0:0:0:
256,192,8496,1,0,0:0:0:0:
256,192,8616,1,8,0:0:0:0:
256,192,8856,1,8,0:0:0:0:
256,192,8976,1,0,0:0:0:0:
256,192,9216,1,0,0:0:0:0:
256,192,9456,1,0,0:0:0:0:
256,192,9576,1,0,0:0:0:0:
256,192,9636,1,0,0:0:0:0:
256,192,9696,1,8,0:0:0:0:
256,192,9816,1,0,0:0:0:0:
256,192,9936,1,8,0:0:0:0:
256,192,10176,1,0,0:0:0:0:
256,192,10416,1,8,0:0:0:0:
256,192,10536,1,0,0:0:0:0:
256,192,10776,1,0,0:0:0:0:
256,192,10896,1,8,0:0:0:0:
256,192,11136,1,0,0:0:0:0:
256,192,11256,1,0,0:0:0:0:
256,192,11376,1,8,0:0:0:0:
256,192,11496,1,0,0:0:0:0:
256,192,11736,1,0,0:0:0:0:
256,192,11856,1,8,0:0:0:0:
256,192,12096,1,8,0:0:0:0:
256,192,12216,1,8,0:0:0:0:
256,192,12336,1,0,0:0:0:0:
256,192,12456,1,8,0:0:0:0:
256,192,12696,1,8,0:0:0:0:
256,192,12816,1,0,0:0:0:0:
256,192,13056,1,0,0:0:0:0:
256,192,13296,1,0,0:0:0:0:
256,192,13416,1,0,0:0:0:0:
256,192,13476,1,0,0:0:0:0:
256,192,13536,1,8,0:0:0:0:
256,192,13656,1,0,0:0:0:0:
256,192,13776,1,8,0:0:0:0:
256,192,13896,1,8,0:0:0:0:
256,192,14016,1,4,0:0:0:0:
256,192,14256,1,8,0:0:0:0:
256,192,14376,1,0,0:0:0:0:
256,192,14616,1,0,0:0:0:0:
256,192,14736,1,8,0:0:0:0:
256,192,14976,1,0,0:0:0:0:
256,192,15096,1,0,0:0:0:0:
256,192,15216,1,8,0:0:0:0:
256,192,15336,1,0,0:0:0:0:
256,192,15576,1,0,0:0:0:0:
256,192,15696,1,8,0:0:0:0:
256,192,15936,1,8,0:0:0:0:
256,192,16056,1,8,0:0:0:0:
256,192,16176,1,0,0:0:0:0:
256,192,16296,1,8,0:0:0:0:
256,192,16536,1,8,0:0:0:0:
256,192,16656,1,0,0:0:0:0:
256,192,16896,1,0,0:0:0:0:
256,192,17136,1,0,0:0:0:0:
256,192,17256,1,0,0:0:0:0:
256,192,17316,1,0,0:0:0:0:
256,192,17376,1,8,0:0:0:0:
256,192,17496,1,0,0:0:0:0:
256,192,17616,1,8,0:0:0:0:
256,192,17856,1,0,0:0:0:0:
256,192,18096,1,8,0:0:0:0:
256,192,18216,1,0,0:0:0:0:
256,192,18456,1,0,0:0:0:0:
256,192,18576,1,8,0:0:0:0:
256,192,18816,1,0,0:0:0:0:
256,192,18936,1,0,0:0:0:0:
256,192,19056,1,8,0:0:0:0:
256,192,19176,1,0,0:0:0:0:
256,192,19416,1,0,0:0:0:0:
256,192,19536,1,8,0:0:0:0:
256,192,19776,1,8,0:0:0:0:
256,192,19896,1,8,0:0:0:0:
256,192,20016,1,0,0:0:0:0:
256,192,20136,1,8,0:0:0:0:
256,192,20376,1,8,0:0:0:0:
256,192,20496,1,0,0:0:0:0:
256,192,20736,1,0,0:0:0:0:
256,192,20976,1,0,0:0:0:0:
256,192,21096,1,0,0:0:0:0:
256,192,21156,1,0,0:0:0:0:
256,192,21216,1,8,0:0:0:0:
256,192,21336,1,0,0:0:0:0:
256,192,21456,1,8,0:0:0:0:
256,192,21576,1,8,0:0:0:0:
256,192,21696,1,4,0:0:0:0:
256,192,21936,1,8,0:0:0:0:
256,192,22176,1,0,0:0:0:0:
256,192,22296,1,0,0:0:0:0:
256,192,22416,1,8,0:0:0:0:
256,192,22656,1,0,0:0:0:0:
256,192,22776,1,0,0:0:0:0:
256,192,22896,1,8,0:0:0:0:
256,192,23016,1,0,0:0:0:0:
256,192,23136,1,0,0:0:0:0:
256,192,23376,1,8,0:0:0:0:
256,192,23616,1,0,0:0:0:0:
256,192,23736,1,0,0:0:0:0:
256,192,23856,1,8,0:0:0:0:
256,192,23976,1,0,0:0:0:0:
256,192,24096,1,0,0:0:0:0:
256,192,24336,1,0,0:0:0:0:
256,192,24576,1,8,0:0:0:0:
256,192,24816,1,0,0:0:0:0:
256,192,24936,1,0,0:0:0:0:
256,192,24996,1,0,0:0:0:0:
256,192,25056,1,8,0:0:0:0:
256,192,25296,1,12,0:0:0:0:
256,192,25536,1,4,0:0:0:0:
256,192,25776,1,8,0:0:0:0:
256,192,26016,1,0,0:0:0:0:
256,192,26136,1,0,0:0:0:0:
256,192,26256,1,8,0:0:0:0:
256,192,26496,1,0,0:0:0:0:
256,192,26616,1,0,0:0:0:0:
256,192,26736,1,8,0:0:0:0:
256,192,26856,1,0,0:0:0:0:
256,192,26976,1,0,0:0:0:0:
256,192,27216,1,8,0:0:0:0:
256,192,27456,1,0,0:0:0:0:
256,192,27576,1,0,0:0:0:0:
256,192,27696,1,8,0:0:0:0:
256,192,27816,1,0,0:0:0:0:
256,192,27936,1,0,0:0:0:0:
256,192,28176,1,0,0:0:0:0:
256,192,28416,1,8,0:0:0:0:
256,192,28656,1,8,0:0:0:0:
256,192,28776,1,0,0:0:0:0:
256,192,28836,1,0,0:0:0:0:
256,192,28896,1,0,0:0:0:0:
256,192,29016,1,0,0:0:0:0:
256,192,29136,1,8,0:0:0:0:
256,192,29376,1,4,0:0:0:0:
256,192,29616,1,8,0:0:0:0:
256,192,29856,1,0,0:0:0:0:
256,192,29976,1,0,0:0:0:0:
256,192,30096,1,8,0:0:0:0:
256,192,30336,1,0,0:0:0:0:
256,192,30456,1,0,0:0:0:0:
256,192,30576,1,8,0:0:0:0:
256,192,30696,1,0,0:0:0:0:
256,192,30936,1,0,0:0:0:0:
256,192,31056,1,8,0:0:0:0:
256,192,31296,1,0,0:0:0:0:
256,192,31416,1,0,0:0:0:0:
256,192,31536,1,8,0:0:0:0:
256,192,31656,1,0,0:0:0:0:
256,192,31776,1,8,0:0:0:0:
256,192,31836,1,8,0:0:0:0:
256,192,31896,1,0,0:0:0:0:
256,192,32016,1,8,0:0:0:0:
256,192,32256,1,12,0:0:0:0:
256,192,32376,1,12,0:0:0:0:
256,192,32616,1,12,0:0:0:0:
256,192,32976,1,8,0:0:0:0:
256,192,33096,1,8,0:0:0:0:
256,192,33216,1,4,0:0:0:0:
256,192,33456,1,8,0:0:0:0:
256,192,33696,1,0,0:0:0:0:
256,192,33816,1,0,0:0:0:0:
256,192,33936,1,8,0:0:0:0:
256,192,34176,1,0,0:0:0:0:
256,192,34296,1,0,0:0:0:0:
256,192,34416,1,8,0:0:0:0:
256,192,34536,1,0,0:0:0:0:
256,192,34656,1,0,0:0:0:0:
256,192,34896,1,0,0:0:0:0:
256,192,35136,1,0,0:0:0:0:
256,192,35256,1,0,0:0:0:0:
256,192,35376,1,8,0:0:0:0:
256,192,35496,1,0,0:0:0:0:
256,192,35616,1,0,0:0:0:0:
256,192,35856,1,8,0:0:0:0:
256,192,36096,1,12,0:0:0:0:
256,192,36216,1,12,0:0:0:0:
256,192,36456,1,12,0:0:0:0:
256,192,36816,1,8,0:0:0:0:
256,192,36936,1,8,0:0:0:0:
256,192,37056,1,4,0:0:0:0:
256,192,37296,1,8,0:0:0:0:
256,192,37416,1,8,0:0:0:0:
256,192,37536,1,0,0:0:0:0:
256,192,37596,1,0,0:0:0:0:
256,192,37656,1,0,0:0:0:0:
256,192,37776,1,8,0:0:0:0:
256,192,38016,1,12,0:0:0:0:
256,192,38136,1,12,0:0:0:0:
256,192,38376,1,12,0:0:0:0:
256,192,38736,1,0,0:0:0:0:
256,192,38976,1,8,0:0:0:0:
256,192,39096,1,8,0:0:0:0:
256,192,39156,1,8,0:0:0:0:
256,192,39216,1,0,0:0:0:0:
256,192,39336,1,8,0:0:0:0:
256,192,39456,1,0,0:0:0:0:
256,192,39576,1,0,0:0:0:0:
256,192,39696,1,8,0:0:0:0:
256,192,39936,1,12,0:0:0:0:
256,192,40056,1,12,0:0:0:0:
256,192,40296,1,12,0:0:0:0:
256,192,40536,1,0,0:0:0:0:
256,192,40596,1,0,0:0:0:0:
256,192,40656,1,8,0:0:0:0:
256,192,40776,1,8,0:0:0:0:
256,192,40896,1,12,0:0:0:0:
256,192,41136,1,0,0:0:0:0:
256,192,41256,1,8,0:0:0:0:
256,192,41496,1,8,0:0:0:0:
256,192,41556,1,8,0:0:0:0:
256,192,41616,1,8,0:0:0:0:
256,192,41856,1,8,0:0:0:0:
256,192,42016,12,0,42816,0:0:0:0:
256,192,43776,5,4,0:0:0:0:
256,192,44016,1,0,0:0:0:0:
256,192,44256,1,8,0:0:0:0:
256,192,44496,1,0,0:0:0:0:
256,192,44616,1,8,0:0:0:0:
256,192,44856,1,8,0:0:0:0:
256,192,44976,1,0,0:0:0:0:
256,192,45216,1,8,0:0:0:0:
256,192,45456,1,8,0:0:0:0:
256,192,45696,1,0,0:0:0:0:
256,192,45936,1,0,0:0:0:0:
256,192,46056,1,0,0:0:0:0:
256,192,46176,1,8,0:0:0:0:
256,192,46416,1,0,0:0:0:0:
256,192,46536,1,8,0:0:0:0:
256,192,46656,1,0,0:0:0:0:
256,192,46776,1,0,0:0:0:0:
256,192,47016,1,0,0:0:0:0:
256,192,47076,1,0,0:0:0:0:
256,192,47136,1,8,0:0:0:0:
256,192,47256,1,0,0:0:0:0:
256,192,47376,1,8,0:0:0:0:
256,192,47616,1,4,0:0:0:0:
256,192,47856,1,0,0:0:0:0:
256,192,47976,1,0,0:0:0:0:
256,192,48096,1,8,0:0:0:0:
256,192,48216,1,8,0:0:0:0:
256,192,48336,1,0,0:0:0:0:
256,192,48576,1,8,0:0:0:0:
256,192,48696,1,8,0:0:0:0:
256,192,48816,1,0,0:0:0:0:
256,192,48936,1,0,0:0:0:0:
256,192,48996,1,0,0:0:0:0:
256,192,49056,1,8,0:0:0:0:
256,192,49176,1,0,0:0:0:0:
256,192,49296,1,8,0:0:0:0:
256,192,49536,1,4,0:0:0:0:
256,192,50016,1,4,0:0:0:0:
256,192,50496,1,12,0:0:0:0:
256,192,50616,1,12,0:0:0:0:
256,192,50856,1,12,0:0:0:0:
256,192,51096,1,0,0:0:0:0:
256,192,51156,1,0,0:0:0:0:
256,192,51216,1,8,0:0:0:0:
256,192,51456,5,4,0:0:0:0:
256,192,51696,1,8,0:0:0:0:
256,192,51816,1,8,0:0:0:0:
256,192,51936,1,0,0:0:0:0:
256,192,51996,1,0,0:0:0:0:
256,192,52056,1,0,0:0:0:0:
256,192,52176,1,8,0:0:0:0:
256,192,52296,1,0,0:0:0:0:
256,192,52536,1,0,0:0:0:0:
256,192,52656,1,8,0:0:0:0:
256,192,52776,1,0,0:0:0:0:
256,192,52836,1,0,0:0:0:0:
256,192,52896,1,8,0:0:0:0:
256,192,53016,1,0,0:0:0:0:
256,192,53136,1,8,0:0:0:0:
256,192,53376,1,0,0:0:0:0:
256,192,53496,1,0,0:0:0:0:
256,192,53616,1,8,0:0:0:0:
256,192,53736,1,8,0:0:0:0:
256,192,53796,1,8,0:0:0:0:
256,192,53856,1,0,0:0:0:0:
256,192,53976,1,0,0:0:0:0:
256,192,54096,1,8,0:0:0:0:
256,192,54216,1,8,0:0:0:0:
256,192,54336,1,0,0:0:0:0:
256,192,54576,1,8,0:0:0:0:
256,192,54696,1,0,0:0:0:0:
256,192,54816,1,8,0:0:0:0:
256,192,55056,1,0,0:0:0:0:
256,192,55296,1,0,0:0:0:0:
256,192,55536,1,8,0:0:0:0:
256,192,55656,1,8,0:0:0:0:
256,192,55776,1,0,0:0:0:0:
256,192,55896,1,0,0:0:0:0:
256,192,56016,1,8,0:0:0:0:
256,192,56256,1,0,0:0:0:0:
256,192,56376,1,8,0:0:0:0:
256,192,56496,1,0,0:0:0:0:
256,192,56616,1,0,0:0:0:0:
256,192,56676,1,0,0:0:0:0:
256,192,56736,1,8,0:0:0:0:
256,192,56976,1,8,0:0:0:0:
256,192,57096,1,4,0:0:0:0:
256,192,57336,1,0,0:0:0:0:
256,192,57456,1,8,0:0:0:0:
256,192,57576,1,8,0:0:0:0:
256,192,57636,1,8,0:0:0:0:
256,192,57696,1,0,0:0:0:0:
256,192,57936,1,0,0:0:0:0:
256,192,58056,1,12,0:0:0:0:
256,192,58296,1,8,0:0:0:0:
256,192,58356,1,8,0:0:0:0:
256,192,58416,1,8,0:0:0:0:
256,192,58536,1,0,0:0:0:0:
256,192,58656,1,8,0:0:0:0:
256,192,58776,1,0,0:0:0:0:
256,192,58896,1,8,0:0:0:0:
256,192,59136,1,4,0:0:0:0:
256,192,59376,1,8,0:0:0:0:
256,192,59496,1,8,0:0:0:0:
256,192,59616,1,0,0:0:0:0:
256,192,59676,1,0,0:0:0:0:
256,192,59736,1,0,0:0:0:0:
256,192,59856,1,8,0:0:0:0:
256,192,59976,1,0,0:0:0:0:
256,192,60216,1,0,0:0:0:0:
256,192,60336,1,8,0:0:0:0:
256,192,60456,1,8,0:0:0:0:
256,192,60516,1,8,0:0:0:0:
256,192,60576,1,0,0:0:0:0:
256,192,60696,1,0,0:0:0:0:
256,192,60816,1,8,0:0:0:0:
256,192,61056,1,0,0:0:0:0:
256,192,61176,1,0,0:0:0:0:
256,192,61296,1,8,0:0:0:0:
256,192,61416,1,0,0:0:0:0:
256,192,61476,1,0,0:0:0:0:
256,192,61536,1,8,0:0:0:0:
256,192,61656,1,0,0:0:0:0:
256,192,61776,1,8,0:0:0:0:
256,192,61896,1,8,0:0:0:0:
256,192,62016,1,0,0:0:0:0:
256,192,62256,1,8,0:0:0:0:
256,192,62376,1,0,0:0:0:0:
256,192,62496,1,8,0:0:0:0:
256,192,62736,1,0,0:0:0:0:
256,192,62976,1,0,0:0:0:0:
256,192,63216,1,8,0:0:0:0:
256,192,63336,1,8,0:0:0:0:
256,192,63456,1,0,0:0:0:0:
256,192,63696,1,8,0:0:0:0:
256,192,63816,1,0,0:0:0:0:
256,192,63936,1,8,0:0:0:0:
256,192,64056,1,8,0:0:0:0:
256,192,64176,1,0,0:0:0:0:
256,192,64296,1,0,0:0:0:0:
256,192,64356,1,0,0:0:0:0:
256,192,64416,1,8,0:0:0:0:
256,192,64656,1,8,0:0:0:0:
256,192,64776,1,4,0:0:0:0:
256,192,65016,1,0,0:0:0:0:
256,192,65136,1,8,0:0:0:0:
256,192,65256,1,8,0:0:0:0:
256,192,65316,1,8,0:0:0:0:
256,192,65376,1,0,0:0:0:0:
256,192,65616,1,0,0:0:0:0:
256,192,65736,1,12,0:0:0:0:
256,192,65976,1,8,0:0:0:0:
256,192,66036,1,8,0:0:0:0:
256,192,66096,1,8,0:0:0:0:
256,192,66216,1,0,0:0:0:0:
256,192,66336,1,8,0:0:0:0:
256,192,66456,1,0,0:0:0:0:
256,192,66576,1,8,0:0:0:0:
256,192,66816,1,4,0:0:0:0:
256,192,67056,1,0,0:0:0:0:
256,192,67296,1,8,0:0:0:0:
256,192,67536,1,0,0:0:0:0:
256,192,67656,1,8,0:0:0:0:
256,192,67896,1,8,0:0:0:0:
256,192,68016,1,0,0:0:0:0:
256,192,68256,1,8,0:0:0:0:
256,192,68496,1,8,0:0:0:0:
256,192,68736,1,0,0:0:0:0:
256,192,68976,1,0,0:0:0:0:
256,192,69216,1,8,0:0:0:0:
256,192,69456,1,8,0:0:0:0:
256,192,69576,1,8,0:0:0:0:
256,192,69696,1,0,0:0:0:0:
256,192,69816,1,8,0:0:0:0:
256,192,69876,1,8,0:0:0:0:
256,192,69936,1,0,0:0:0:0:
256,192,70056,1,8,0:0:0:0:
256,192,70176,1,0,0:0:0:0:
256,192,70296,1,0,0:0:0:0:
256,192,70416,1,8,0:0:0:0:
256,192,70656,1,12,0:0:0:0:
256,192,70896,1,12,0:0:0:0:
256,192,71136,1,12,0:0:0:0:
256,192,71376,1,0,0:0:0:0:
256,192,71496,1,0,0:0:0:0:
256,192,71616,1,12,0:0:0:0:
256,192,71856,1,0,0:0:0:0:
256,192,71976,1,12,0:0:0:0:
256,192,72216,1,0,0:0:0:0:
256,192,72336,1,12,0:0:0:0:
256,192,72576,1,12,0:0:0:0:
256,192,72816,1,8,0:0:0:0:
256,192,72936,1,0,0:0:0:0:
256,192,72996,1,0,0:0:0:0:
256,192,73056,1,8,0:0:0:0:
256,192,73176,1,0,0:0:0:0:
256,192,73296,1,8,0:0:0:0:
256,192,73536,1,8,0:0:0:0:
256,192,74496,1,4,0:0:0:0:
256,192,74816,1,0,0:0:0:0:
256,192,74976,1,8,0:0:0:0:
256,192,75456,1,0,0:0:0:0:
256,192,75776,1,0,0:0:0:0:
256,192,75936,1,8,0:0:0:0:
256,192,76096,1,8,0:0:0:0:
256,192,76256,1,8,0:0:0:0:
256,192,76416,1,0,0:0:0:0:
256,192,76736,1,0,0:0:0:0:
256,192,76896,1,8,0:0:0:0:
256,192,77376,1,0,0:0:0:0:
256,192,77696,1,0,0:0:0:0:
256,192,77776,1,0,0:0:0:0:
256,192,77856,1,8,0:0:0:0:
256,192,78016,1,8,0:0:0:0:
256,192,78176,1,8,0:0:0:0:
256,192,78336,1,4,0:0:0:0:
256,192,78656,1,0,0:0:0:0:
256,192,78816,1,8,0:0:0:0:
256,192,79296,1,0,0:0:0:0:
256,192,79616,1,0,0:0:0:0:
256,192,79776,1,8,0:0:0:0:
256,192,79936,1,8,0:0:0:0:
256,192,80096,1,8,0:0:0:0:
256,192,80256,1,0,0:0:0:0:
256,192,80576,1,0,0:0:0:0:
256,192,80736,1,8,0:0:0:0:
256,192,81216,1,0,0:0:0:0:
256,192,81536,1,0,0:0:0:0:
256,192,81616,1,0,0:0:0:0:
256,192,81696,1,8,0:0:0:0:
256,192,81856,1,8,0:0:0:0:
256,192,82016,1,8,0:0:0:0:
256,192,82176,1,4,0:0:0:0:
256,192,82496,1,0,0:0:0:0:
256,192,82656,1,8,0:0:0:0:
256,192,82976,1,8,0:0:0:0:
256,192,83136,1,0,0:0:0:0:
256,192,83296,1,0,0:0:0:0:
256,192,83456,1,8,0:0:0:0:
256,192,83616,1,0,0:0:0:0:
256,192,83776,1,8,0:0:0:0:
256,192,83936,1,8,0:0:0:0:
256,192,84096,1,0,0:0:0:0:
256,192,84256,1,0,0:0:0:0:
256,192,84416,1,8,0:0:0:0:
256,192,84496,1,8,0:0:0:0:
256,192,84576,1,0,0:0:0:0:
256,192,84736,1,8,0:0:0:0:
256,192,84896,1,8,0:0:0:0:
256,192,85056,1,0,0:0:0:0:
256,192,85376,1,0,0:0:0:0:
256,192,85456,1,0,0:0:0:0:
256,192,85536,1,8,0:0:0:0:
256,192,85696,1,8,0:0:0:0:
256,192,85856,1,8,0:0:0:0:
256,192,86016,1,4,0:0:0:0:
256,192,86336,1,0,0:0:0:0:
256,192,86496,1,8,0:0:0:0:
256,192,86816,1,0,0:0:0:0:
256,192,86976,1,8,0:0:0:0:
256,192,87136,1,8,0:0:0:0:
256,192,87296,1,0,0:0:0:0:
256,192,87456,1,8,0:0:0:0:
256,192,87616,1,8,0:0:0:0:
256,192,87776,1,8,0:0:0:0:
256,192,87936,1,0,0:0:0:0:
256,192,88096,1,8,0:0:0:0:
256,192,88256,1,0,0:0:0:0:
256,192,88336,1,0,0:0:0:0:
256,192,88416,1,8,0:0:0:0:
256,192,88576,1,8,0:0:0:0:
256,192,88736,1,8,0:0:0:0:
256,192,88896,1,0,0:0:0:0:
256,192,89216,1,0,0:0:0:0:
256,192,89296,1,0,0:0:0:0:
256,192,89376,1,8,0:0:0:0:
256,192,89536,1,8,0:0:0:0:
256,192,89696,1,8,0:0:0:0:
256,192,89856,1,4,0:0:0:0:
256,192,90176,1,0,0:0:0:0:
256,192,90336,1,8,0:0:0:0:
256,192,90496,1,8,0:0:0:0:
256,192,90656,1,8,0:0:0:0:
256,192,90816,1,0,0:0:0:0:
256,192,91136,1,0,0:0:0:0:
256,192,91296,1,8,0:0:0:0:
256,192,91616,1,8,0:0:0:0:
256,192,91776,1,0,0:0:0:0:
256,192,91936,1,0,0:0:0:0:
256,192,92096,1,8,0:0:0:0:
256,192,92176,1,8,0:0:0:0:
256,192,92256,1,0,0:0:0:0:
256,192,92416,1,8,0:0:0:0:
256,192,92576,1,8,0:0:0:0:
256,192,92736,1,0,0:0:0:0:
256,192,92896,1,0,0:0:0:0:
256,192,93056,1,0,0:0:0:0:
256,192,93136,1,0,0:0:0:0:
256,192,93216,1,8,0:0:0:0:
256,192,93536,1,8,0:0:0:0:
256,192,93696,1,4,0:0:0:0:
256,192,94016,1,8,0:0:0:0:
256,192,94176,1,0,0:0:0:0:
256,192,94336,1,0,0:0:0:0:
256,192,94496,1,0,0:0:0:0:
256,192,94656,1,8,0:0:0:0:
256,192,94976,1,8,0:0:0:0:
256,192,95136,1,0,0:0:0:0:
256,192,95456,1,8,0:0:0:0:
256,192,95616,1,0,0:0:0:0:
256,192,95776,1,8,0:0:0:0:
256,192,95936,1,0,0:0:0:0:
256,192,96016,1,0,0:0:0:0:
256,192,96096,1,8,0:0:0:0:
256,192,96256,1,8,0:0:0:0:
256,192,96416,1,8,0:0:0:0:
256,192,96576,1,0,0:0:0:0:
256,192,96736,1,0,0:0:0:0:
256,192,96896,1,0,0:0:0:0:
256,192,96976,1,0,0:0:0:0:
256,192,97056,1,8,0:0:0:0:
256,192,97376,1,0,0:0:0:0:
256,192,97536,1,12,0:0:0:0:
256,192,98016,1,12,0:0:0:0:
256,192,98496,12,0,98976,0:0:0:0:
256,192,99456,5,4,0:0:0:0:
256,192,99696,1,8,0:0:0:0:
256,192,99816,1,8,0:0:0:0:
256,192,99936,1,0,0:0:0:0:
256,192,99996,1,0,0:0:0:0:
256,192,100056,1,0,0:0:0:0:
256,192,100176,1,8,0:0:0:0:
256,192,100296,1,0,0:0:0:0:
256,192,100536,1,0,0:0:0:0:
256,192,100656,1,8,0:0:0:0:
256,192,100776,1,0,0:0:0:0:
256,192,100836,1,0,0:0:0:0:
256,192,100896,1,8,0:0:0:0:
256,192,101016,1,0,0:0:0:0:
256,192,101136,1,8,0:0:0:0:
256,192,101376,1,0,0:0:0:0:
256,192,101496,1,0,0:0:0:0:
256,192,101616,1,8,0:0:0:0:
256,192,101736,1,8,0:0:0:0:
256,192,101796,1,8,0:0:0:0:
256,192,101856,1,0,0:0:0:0:
256,192,101976,1,0,0:0:0:0:
256,192,102096,1,8,0:0:0:0:
256,192,102216,1,8,0:0:0:0:
256,192,102336,1,0,0:0:0:0:
256,192,102576,1,8,0:0:0:0:
256,192,102696,1,0,0:0:0:0:
256,192,102816,1,8,0:0:0:0:
256,192,103056,1,0,0:0:0:0:
256,192,103296,1,0,0:0:0:0:
256,192,103536,1,8,0:0:0:0:
256,192,103656,1,8,0:0:0:0:
256,192,103776,1,0,0:0:0:0:
256,192,103896,1,0,0:0:0:0:
256,192,104016,1,8,0:0:0:0:
256,192,104256,1,0,0:0:0:0:
256,192,104376,1,8,0:0:0:0:
256,192,104496,1,0,0:0:0:0:
256,192,104616,1,0,0:0:0:0:
256,192,104676,1,0,0:0:0:0:
256,192,104736,1,8,0:0:0:0:
256,192,104976,1,8,0:0:0:0:
256,192,105096,1,4,0:0:0:0:
256,192,105336,1,0,0:0:0:0:
256,192,105456,1,8,0:0:0:0:
256,192,105576,1,8,0:0:0:0:
256,192,105636,1,8,0:0:0:0:
256,192,105696,1,0,0:0:0:0:
256,192,105936,1,0,0:0:0:0:
256,192,106056,1,12,0:0:0:0:
256,192,106296,1,8,0:0:0:0:
256,192,106356,1,8,0:0:0:0:
256,192,106416,1,8,0:0:0:0:
256,192,106536,1,0,0:0:0:0:
256,192,106656,1,8,0:0:0:0:
256,192,106776,1,0,0:0:0:0:
256,192,106896,1,8,0:0:0:0:
256,192,107136,1,4,0:0:0:0:
256,192,107376,1,0,0:0:0:0:
256,192,107496,1,8,0:0:0:0:
256,192,107616,1,0,0:0:0:0:
256,192,107676,1,0,0:0:0:0:
256,192,107736,1,0,0:0:0:0:
256,192,107856,1,0,0:0:0:0:
256,192,108096,1,8,0:0:0:0:
256,192,108216,1,0,0:0:0:0:
256,192,108336,1,8,0:0:0:0:
256,192,108456,1,0,0:0:0:0:
256,192,108576,1,8,0:0:0:0:
256,192,108636,1,8,0:0:0:0:
256,192,108696,1,8,0:0:0:0:
256,192,108816,1,8,0:0:0:0:
256,192,109056,1,8,0:0:0:0:
256,192,109176,1,0,0:0:0:0:
256,192,109296,1,8,0:0:0:0:
256,192,109356,1,8,0:0:0:0:
256,192,109416,1,0,0:0:0:0:
256,192,109536,1,8,0:0:0:0:
256,192,109656,1,0,0:0:0:0:
256,192,109776,1,8,0:0:0:0:
256,192,109836,1,8,0:0:0:0:
256,192,109896,1,0,0:0:0:0:
256,192,110016,1,8,0:0:0:0:
256,192,110136,1,0,0:0:0:0:
256,192,110256,1,8,0:0:0:0:
256,192,110376,1,0,0:0:0:0:
256,192,110496,1,8,0:0:0:0:
256,192,110736,1,0,0:0:0:0:
256,192,110976,1,0,0:0:0:0:
256,192,111216,1,8,0:0:0:0:
256,192,111336,1,8,0:0:0:0:
256,192,111456,1,0,0:0:0:0:
256,192,111696,1,8,0:0:0:0:
256,192,111816,1,0,0:0:0:0:
256,192,111936,1,8,0:0:0:0:
256,192,112056,1,8,0:0:0:0:
256,192,112176,1,0,0:0:0:0:
256,192,112296,1,0,0:0:0:0:
256,192,112356,1,0,0:0:0:0:
256,192,112416,1,8,0:0:0:0:
256,192,112656,1,8,0:0:0:0:
256,192,112776,1,4,0:0:0:0:
256,192,113016,1,0,0:0:0:0:
256,192,113136,1,8,0:0:0:0:
256,192,113256,1,8,0:0:0:0:
256,192,113316,1,8,0:0:0:0:
256,192,113376,1,0,0:0:0:0:
256,192,113616,1,0,0:0:0:0:
256,192,113736,1,12,0:0:0:0:
256,192,113976,1,8,0:0:0:0:
256,192,114036,1,8,0:0:0:0:
256,192,114096,1,8,0:0:0:0:
256,192,114216,1,0,0:0:0:0:
256,192,114336,1,8,0:0:0:0:
256,192,114456,1,0,0:0:0:0:
256,192,114576,1,8,0:0:0:0:
256,192,114816,1,4,0:0:0:0:
256,192,115056,1,0,0:0:0:0:
256,192,115296,1,8,0:0:0:0:
256,192,115536,1,0,0:0:0:0:
256,192,115656,1,8,0:0:0:0:
256,192,115896,1,8,0:0:0:0:
256,192,116016,1,0,0:0:0:0:
256,192,116256,1,8,0:0:0:0:
256,192,116496,1,8,0:0:0:0:
256,192,116736,1,0,0:0:0:0:
256,192,116976,1,0,0:0:0:0:
256,192,117216,1,8,0:0:0:0:
256,192,117456,1,8,0:0:0:0:
256,192,117576,1,8,0:0:0:0:
256,192,117696,1,0,0:0:0:0:
256,192,117816,1,8,0:0:0:0:
256,192,117876,1,8,0:0:0:0:
256,192,117936,1,0,0:0:0:0:
256,192,118056,1,8,0:0:0:0:
256,192,118176,1,0,0:0:0:0:
256,192,118296,1,0,0:0:0:0:
256,192,118416,1,8,0:0:0:0:
256,192,118656,1,12,0:0:0:0:
256,192,118896,1,12,0:0:0:0:
256,192,119136,1,12,0:0:0:0:
256,192,119376,1,0,0:0:0:0:
256,192,119496,1,0,0:0:0:0:
256,192,119616,1,12,0:0:0:0:
256,192,119856,1,0,0:0:0:0:
256,192,119976,1,12,0:0:0:0:
256,192,120216,1,0,0:0:0:0:
256,192,120336,1,12,0:0:0:0:
256,192,120576,1,12,0:0:0:0:
256,192,120816,1,8,0:0:0:0:
256,192,120936,1,0,0:0:0:0:
256,192,120996,1,0,0:0:0:0:
256,192,121056,1,8,0:0:0:0:
256,192,121176,1,0,0:0:0:0:
256,192,121296,1,8,0:0:0:0:
256,192,121536,1,8,0:0:0:0:
256,192,122496,1,4,0:0:0:0:
256,192,122736,1,8,0:0:0:0:
256,192,122976,1,0,0:0:0:0:
256,192,123216,1,8,0:0:0:0:
256,192,123336,1,0,0:0:0:0:
256,192,123696,1,8,0:0:0:0:
256,192,123936,1,0,0:0:0:0:
256,192,124176,1,8,0:0:0:0:
256,192,124416,1,0,0:0:0:0:
256,192,124656,1,0,0:0:0:0:
256,192,124896,1,8,0:0:0:0:
256,192,125136,1,8,0:0:0:0:
256,192,125376,1,0,0:0:0:0:
256,192,125616,1,8,0:0:0:0:
256,192,125856,1,0,0:0:0:0:
256,192,126096,1,8,0:0:0:0:
256,192,126216,1,8,0:0:0:0:
256,192,126336,1,0,0:0:0:0:
256,192,126576,1,8,0:0:0:0:
256,192,126816,1,0,0:0:0:0:
256,192,127056,1,8,0:0:0:0:
256,192,127176,1,0,0:0:0:0:
256,192,127296,1,0,0:0:0:0:
256,192,127536,1,0,0:0:0:0:
256,192,127656,1,8,0:0:0:0:
256,192,128016,1,8,0:0:0:0:
256,192,128256,1,0,0:0:0:0:
256,192,128496,1,0,0:0:0:0:
256,192,128736,1,8,0:0:0:0:
256,192,128976,1,8,0:0:0:0:
256,192,129216,1,0,0:0:0:0:
256,192,129576,1,8,0:0:0:0:
256,192,129696,1,8,0:0:0:0:
256,192,129816,1,8,0:0:0:0:
256,192,129936,1,0,0:0:0:0:
256,192,130176,1,4,0:0:0:0:
256,192,130416,1,8,0:0:0:0:
256,192,130656,1,0,0:0:0:0:
256,192,130896,1,8,0:0:0:0:
256,192,131016,1,0,0:0:0:0:
256,192,131256,1,0,0:0:0:0:
256,192,131376,1,8,0:0:0:0:
256,192,131616,1,0,0:0:0:0:
256,192,131856,1,8,0:0:0:0:
256,192,132096,1,0,0:0:0:0:
256,192,132336,1,8,0:0:0:0:
256,192,132576,1,0,0:0:0:0:
256,192,132696,1,0,0:0:0:0:
256,192,132816,1,8,0:0:0:0:
256,192,133056,1,0,0:0:0:0:
256,192,133296,1,8,0:0:0:0:
256,192,133536,1,0,0:0:0:0:
256,192,133776,1,0,0:0:0:0:
256,192,133896,1,0,0:0:0:0:
256,192,134016,1,12,0:0:0:0:
256,192,134256,1,12,0:0:0:0:
256,192,134496,1,12,0:0:0:0:
256,192,134736,1,0,0:0:0:0:
256,192,134856,1,0,0:0:0:0:
256,192,134976,1,12,0:0:0:0:
256,192,135216,1,0,0:0:0:0:
256,192,135336,1,12,0:0:0:0:
256,192,135576,1,0,0:0:0:0:
256,192,135696,1,12,0:0:0:0:
256,192,135936,1,12,0:0:0:0:
256,192,136176,1,8,0:0:0:0:
256,192,136296,1,0,0:0:0:0:
256,192,136416,1,8,0:0:0:0:
256,192,136536,1,8,0:0:0:0:
256,192,136656,1,0,0:0:0:0:
256,192,136776,1,0,0:0:0:0:
256,192,136896,1,12,0:0:0:0:
256,192,137136,1,0,0:0:0:0:
256,192,137256,1,12,0:0:0:0:
256,192,137496,1,0,0:0:0:0:
256,192,137616,1,12,0:0:0:0:
256,192,137856,1,4,0:0:0:0:
256,192,145536,5,0,0:0:0:0:
256,192,145776,1,8,0:0:0:0:
256,192,146016,1,0,0:0:0:0:
256,192,146256,1,8,0:0:0:0:
256,192,146376,1,0,0:0:0:0:
256,192,146736,1,8,0:0:0:0:
256,192,146976,1,0,0:0:0:0:
256,192,147216,1,8,0:0:0:0:
256,192,147456,1,0,0:0:0:0:
256,192,147696,1,0,0:0:0:0:
256,192,147936,1,8,0:0:0:0:
256,192,148176,1,8,0:0:0:0:
256,192,148416,1,0,0:0:0:0:
256,192,149136,1,0,0:0:0:0:
256,192,149376,1,0,0:0:0:0:
256,192,150096,1,8,0:0:0:0:
256,192,150336,1,8,0:0:0:0:
256,192,151056,1,8,0:0:0:0:
256,192,151176,1,4,0:0:0:0:
256,192,151416,1,0,0:0:0:0:
256,192,151536,1,8,0:0:0:0:
256,192,151656,1,8,0:0:0:0:
256,192,151716,1,8,0:0:0:0:
256,192,151776,1,0,0:0:0:0:
256,192,152016,1,0,0:0:0:0:
256,192,152136,1,12,0:0:0:0:
256,192,153216,1,4,0:0:0:0:
256,192,153456,1,8,0:0:0:0:
256,192,153576,1,8,0:0:0:0:
256,192,153696,1,0,0:0:0:0:
256,192,153756,1,0,0:0:0:0:
256,192,153816,1,0,0:0:0:0:
256,192,153936,1,0,0:0:0:0:
256,192,154056,1,8,0:0:0:0:
256,192,154296,1,0,0:0:0:0:
256,192,154416,1,8,0:0:0:0:
256,192,154536,1,0,0:0:0:0:
256,192,154596,1,8,0:0:0:0:
256,192,154656,1,8,0:0:0:0:
256,192,154776,1,0,0:0:0:0:
256,192,154896,1,8,0:0:0:0:
256,192,155136,1,0,0:0:0:0:
256,192,155256,1,0,0:0:0:0:
256,192,155376,1,8,0:0:0:0:
256,192,155496,1,8,0:0:0:0:
256,192,155556,1,8,0:0:0:0:
256,192,155616,1,8,0:0:0:0:
256,192,155736,1,0,0:0:0:0:
256,192,155856,1,8,0:0:0:0:
256,192,155976,1,8,0:0:0:0:
256,192,156096,1,0,0:0:0:0:
256,192,156336,1,8,0:0:0:0:
256,192,156456,1,0,0:0:0:0:
256,192,156576,1,8,0:0:0:0:
256,192,156816,1,0,0:0:0:0:
256,192,157056,1,0,0:0:0:0:
256,192,157296,1,8,0:0:0:0:
256,192,157416,1,8,0:0:0:0:
256,192,157536,1,0,0:0:0:0:
256,192,157656,1,0,0:0:0:0:
256,192,157776,1,8,0:0:0:0:
256,192,157896,1,0,0:0:0:0:
256,192,157956,1,0,0:0:0:0:
256,192,158016,1,0,0:0:0:0:
256,192,158136,1,8,0:0:0:0:
256,192,158256,1,0,0:0:0:0:
256,192,158376,1,0,0:0:0:0:
256,192,158436,1,0,0:0:0:0:
256,192,158496,1,8,0:0:0:0:
256,192,158736,1,8,0:0:0:0:
256,192,158856,1,4,0:0:0:0:
256,192,159096,1,0,0:0:0:0:
256,192,159216,1,8,0:0:0:0:
256,192,159336,1,8,0:0:0:0:
256,192,159396,1,8,0:0:0:0:
256,192,159456,1,0,0:0:0:0:
256,192,159696,1,0,0:0:0:0:
256,192,159816,1,12,0:0:0:0:
256,192,160056,1,8,0:0:0:0:
256,192,160116,1,8,0:0:0:0:
256,192,160176,1,8,0:0:0:0:
256,192,160296,1,0,0:0:0:0:
256,192,160416,1,8,0:0:0:0:
256,192,160536,1,0,0:0:0:0:
256,192,160656,1,8,0:0:0:0:
256,192,160896,1,4,0:0:0:0:
256,192,161136,1,8,0:0:0:0:
256,192,161256,1,8,0:0:0:0:
256,192,161376,1,0,0:0:0:0:
256,192,161616,1,8,0:0:0:0:
256,192,161736,1,0,0:0:0:0:
256,192,161796,1,0,0:0:0:0:
256,192,161856,1,0,0:0:0:0:
256,192,161976,1,0,0:0:0:0:
256,192,162096,1,8,0:0:0:0:
256,192,162216,1,0,0:0:0:0:
256,192,162336,1,8,0:0:0:0:
256,192,162576,1,0,0:0:0:0:
256,192,162816,1,8,0:0:0:0:
256,192,162936,1,0,0:0:0:0:
256,192,163056,1,8,0:0:0:0:
256,192,163176,1,0,0:0:0:0:
256,192,163236,1,8,0:0:0:0:
256,192,163296,1,8,0:0:0:0:
256,192,163416,1,8,0:0:0:0:
256,192,163536,1,0,0:0:0:0:
256,192,163656,1,0,0:0:0:0:
256,192,163776,1,8,0:0:0:0:
256,192,163836,1,8,0:0:0:0:
256,192,163896,1,8,0:0:0:0:
256,192,163956,1,8,0:0:0:0:
256,192,164016,1,8,0:0:0:0:
256,192,164136,1,8,0:0:0:0:
256,192,164256,1,0,0:0:0:0:
256,192,164496,1,8,0:0:0:0:
256,192,164736,1,0,0:0:0:0:
256,192,164976,1,8,0:0:0:0:
256,192,165096,1,8,0:0:0:0:
256,192,165156,1,8,0:0:0:0:
256,192,165216,1,0,0:0:0:0:
256,192,165336,1,0,0:0:0:0:
256,192,165456,1,8,0:0:0:0:
256,192,165576,1,0,0:0:0:0:
256,192,165696,1,8,0:0:0:0:
256,192,165816,1,8,0:0:0:0:
256,192,165936,1,0,0:0:0:0:
256,192,166056,1,0,0:0:0:0:
256,192,166116,1,0,0:0:0:0:
256,192,166176,1,8,0:0:0:0:
256,192,166416,1,8,0:0:0:0:
256,192,166536,1,4,0:0:0:0:
256,192,166776,1,0,0:0:0:0:
256,192,166896,1,8,0:0:0:0:
256,192,167016,1,8,0:0:0:0:
256,192,167076,1,8,0:0:0:0:
256,192,167136,1,0,0:0:0:0:
256,192,167376,1,0,0:0:0:0:
256,192,167496,1,12,0:0:0:0:
256,192,167736,1,8,0:0:0:0:
256,192,167796,1,8,0:0:0:0:
256,192,167856,1,8,0:0:0:0:
256,192,167976,1,0,0:0:0:0:
256,192,168096,1,8,0:0:0:0:
256,192,168216,1,0,0:0:0:0:
256,192,168336,1,8,0:0:0:0:
256,192,168576,1,4,0:0:0:0:
256,192,168816,1,0,0:0:0:0:
256,192,169056,1,8,0:0:0:0:
256,192,169296,1,0,0:0:0:0:
256,192,169416,1,8,0:0:0:0:
256,192,169656,1,8,0:0:0:0:
256,192,169776,1,0,0:0:0:0:
256,192,170016,1,8,0:0:0:0:
256,192,170256,1,8,0:0:0:0:
256,192,170496,1,0,0:0:0:0:
256,192,170736,1,0,0:0:0:0:
256,192,170976,1,8,0:0:0:0:
256,192,171216,1,8,0:0:0:0:
256,192,171336,1,8,0:0:0:0:
256,192,171456,1,0,0:0:0:0:
256,192,171576,1,8,0:0:0:0:
256,192,171636,1,8,0:0:0:0:
256,192,171696,1,0,0:0:0:0:
256,192,171816,1,8,0:0:0:0:
256,192,171936,1,0,0:0:0:0:
256,192,172056,1,0,0:0:0:0:
256,192,172176,1,8,0:0:0:0:
256,192,172416,1,12,0:0:0:0:
256,192,172656,1,12,0:0:0:0:
256,192,172896,1,12,0:0:0:0:
256,192,173136,1,0,0:0:0:0:
256,192,173256,1,0,0:0:0:0:
256,192,173376,1,12,0:0:0:0:
256,192,173616,1,0,0:0:0:0:
256,192,173736,1,12,0:0:0:0:
256,192,173976,1,0,0:0:0:0:
256,192,174096,1,12,0:0:0:0:
256,192,174336,1,12,0:0:0:0:
256,192,174576,1,8,0:0:0:0:
256,192,174696,1,0,0:0:0:0:
256,192,174756,1,0,0:0:0:0:
256,192,174816,1,8,0:0:0:0:
256,192,174936,1,0,0:0:0:0:
256,192,175056,1,8,0:0:0:0:
256,192,175296,1,8,0:0:0:0:
256,192,175536,1,0,0:0:0:0:
256,192,175656,1,8,0:0:0:0:
256,192,175776,1,0,0:0:0:0:
256,192,175896,1,0,0:0:0:0:
256,192,176016,1,8,0:0:0:0:
256,192,176256,1,12,0:0:0:0:
256,192,176496,1,12,0:0:0:0:
256,192,176736,1,12,0:0:0:0:
256,192,176976,1,0,0:0:0:0:
256,192,177096,1,0,0:0:0:0:
256,192,177216,1,12,0:0:0:0:
256,192,177456,1,0,0:0:0:0:
256,192,177576,1,12,0:0:0:0:
256,192,177816,1,0,0:0:0:0:
256,192,177936,1,12,0:0:0:0:
256,192,178176,1,12,0:0:0:0:
256,192,178416,1,8,0:0:0:0:
256,192,178536,1,0,0:0:0:0:
256,192,178596,1,0,0:0:0:0:
256,192,178656,1,8,0:0:0:0:
256,192,178776,1,0,0:0:0:0:
256,192,178896,1,8,0:0:0:0:
256,192,179136,1,8,0:0:0:0:
256,192,180096,1,4,0:0:0:0:
256,192,180336,1,8,0:0:0:0:
256,192,180456,1,0,0:0:0:0:
256,192,180696,1,0,0:0:0:0:
256,192,180816,1,8,0:0:0:0:
256,192,181056,1,0,0:0:0:0:
256,192,181176,1,0,0:0:0:0:
256,192,181296,1,8,0:0:0:0:
256,192,181416,1,0,0:0:0:0:
256,192,181656,1,0,0:0:0:0:
256,192,181776,1,8,0:0:0:0:
256,192,182016,1,8,0:0:0:0:
256,192,182136,1,8,0:0:0:0:
256,192,182256,1,0,0:0:0:0:
256,192,182376,1,8,0:0:0:0:
256,192,182616,1,8,0:0:0:0:
256,192,182736,1,0,0:0:0:0:
256,192,182976,1,0,0:0:0:0:
256,192,183216,1,0,0:0:0:0:
256,192,183336,1,0,0:0:0:0:
256,192,183396,1,0,0:0:0:0:
256,192,183456,1,8,0:0:0:0:
256,192,183576,1,0,0:0:0:0:
256,192,183696,1,8,0:0:0:0:
256,192,183936,1,0,0:0:0:0:
256,192,184176,1,8,0:0:0:0:
256,192,184296,1,0,0:0:0:0:
256,192,184536,1,0,0:0:0:0:
256,192,184656,1,8,0:0:0:0:
256,192,184896,1,0,0:0:0:0:
256,192,185016,1,0,0:0:0:0:
256,192,185136,1,8,0:0:0:0:
256,192,185256,1,0,0:0:0:0:
256,192,185496,1,0,0:0:0:0:
256,192,185616,1,8,0:0:0:0:
256,192,185856,1,8,0:0:0:0:
256,192,185976,1,8,0:0:0:0:
256,192,186096,1,0,0:0:0:0:
256,192,186216,1,8,0:0:0:0:
256,192,186456,1,8,0:0:0:0:
256,192,186576,1,0,0:0:0:0:
256,192,186816,1,0,0:0:0:0:
256,192,187056,1,0,0:0:0:0:
256,192,187176,1,0,0:0:0:0:
256,192,187236,1,0,0:0:0:0:
256,192,187296,1,8,0:0:0:0:
256,192,187416,1,0,0:0:0:0:
256,192,187536,1,8,0:0:0:0:
256,192,187656,1,8,0:0:0:0:
256,192,187776,1,4,0:0:0:0:
256,192,188016,1,8,0:0:0:0:
256,192,188136,1,0,0:0:0:0:
256,192,188376,1,0,0:0:0:0:
256,192,188496,1,8,0:0:0:0:
256,192,188736,1,0,0:0:0:0:
256,192,188856,1,0,0:0:0:0:
256,192,188976,1,8,0:0:0:0:
256,192,189096,1,0,0:0:0:0:
256,192,189336,1,0,0:0:0:0:
256,192,189456,1,8,0:0:0:0:
256,192,189696,1,8,0:0:0:0:
256,192,189816,1,8,0:0:0:0:
256,192,189936,1,0,0:0:0:0:
256,192,190056,1,8,0:0:0:0:
256,192,190296,1,8,0:0:0:0:
256,192,190416,1,0,0:0:0:0:
256,192,190656,1,0,0:0:0:0:
256,192,190896,1,0,0:0:0:0:
256,192,191016,1,0,0:0:0:0:
256,192,191076,1,0,0:0:0:0:
256,192,191136,1,8,0:0:0:0:
256,192,191256,1,0,0:0:0:0:
256,192,191376,1,8,0:0:0:0:
256,192,191616,1,0,0:0:0:0:
256,192,191856,1,8,0:0:0:0:
256,192,191976,1,0,0:0:0:0:
256,192,192216,1,0,0:0:0:0:
256,192,192336,1,8,0:0:0:0:
256,192,192576,1,0,0:0:0:0:
256,192,192696,1,0,0:0:0:0:
256,192,192816,1,8,0:0:0:0:
256,192,192936,1,0,0:0:0:0:
256,192,193176,1,0,0:0:0:0:
256,192,193296,1,8,0:0:0:0:
256,192,193536,1,8,0:0:0:0:
256,192,193656,1,8,0:0:0:0:
256,192,193776,1,0,0:0:0:0:
256,192,193896,1,8,0:0:0:0:
256,192,194136,1,8,0:0:0:0:
256,192,194256,1,0,0:0:0:0:
256,192,194496,1,0,0:0:0:0:
256,192,194736,1,0,0:0:0:0:
256,192,194856,1,0,0:0:0:0:
256,192,194916,1,0,0:0:0:0:
256,192,194976,1,8,0:0:0:0:
256,192,195096,1,0,0:0:0:0:
256,192,195216,1,8,0:0:0:0:
256,192,195336,1,8,0:0:0:0:
256,192,195456,1,4,0:0:0:0:
256,192,195816,1,8,0:0:0:0:
256,192,196056,1,8,0:0:0:0:
256,192,196176,1,8,0:0:0:0:
256,192,196416,1,0,0:0:0:0:
256,192,196896,1,12,0:0:0:0:
