osu file format v14

[General]
AudioFilename: audio.mp3
AudioLeadIn: 0
PreviewTime: 51426
Countdown: 0
SampleSet: Normal
StackLeniency: 0.7
Mode: 1
LetterboxInBreaks: 0
WidescreenStoryboard: 0

[Editor]
DistanceSpacing: 0.9
BeatDivisor: 8
GridSize: 32
TimelineZoom: 1.6

[Metadata]
Title:Endgame
TitleUnicode:エンドゲエム
Artist:Miyashita Yuu
ArtistUnicode:宮下遊
Creator:_Rise
Version:Kantan
Source:
Tags:japanese pop j-pop jpop 錆付くまで sabitsuku made かいりきベア kairiki bear
BeatmapID:3693399
BeatmapSetID:1402249

[Difficulty]
HPDrainRate:7
CircleSize:5
OverallDifficulty:3
ApproachRate:5
SliderMultiplier:1
SliderTickRate:1

[Events]
//Background and Video events
0,0,"bg.jpg",0,0
//Break Periods
2,138056,144336
//Storyboard Layer 0 (Background)
//Storyboard Layer 1 (Fail)
//Storyboard Layer 2 (Pass)
//Storyboard Layer 3 (Foreground)
//Storyboard Layer 4 (Overlay)
//Storyboard Sound Samples

[TimingPoints]
576,240,4,1,0,80,1,0
576,-100,4,1,0,90,0,0
21726,-100,4,1,0,85,0,0
40926,-100,4,1,0,80,0,0
43746,-100,4,1,0,90,0,0
51426,-100,4,1,0,95,0,0
51456,-100,4,1,0,95,0,1
66816,-100,4,1,0,95,0,0
66846,-100,4,1,0,90,0,0
70626,-100,4,1,0,95,0,0
70656,-100,4,1,0,95,0,1
73536,-100,4,1,0,95,0,0
73566,-100,4,1,0,90,0,0
98466,-100,4,1,0,90,0,0
99426,-100,4,1,0,95,0,0
99456,-100,4,1,0,95,0,1
114816,-100,4,1,0,95,0,0
114846,-100,4,1,0,90,0,0
118626,-100,4,1,0,95,0,0
118656,-100,4,1,0,95,0,1
121536,-100,4,1,0,95,0,0
121566,-100,4,1,0,75,0,0
129546,-100,4,1,0,85,0,0
133986,-100,4,1,0,95,0,0
134016,-100,4,1,0,95,0,1
137856,-100,4,1,0,95,0,0
137886,-100,4,1,0,70,0,0
151146,-100,4,1,0,80,0,0
151266,-100,4,1,0,90,0,0
152226,-100,4,1,0,70,0,0
153186,-100,4,1,0,95,0,0
153216,-100,4,1,0,95,0,1
168576,-100,4,1,0,95,0,0
168606,-100,4,1,0,90,0,0
172386,-100,4,1,0,95,0,0
172416,-100,4,1,0,95,0,1
179136,-100,4,1,0,95,0,0
179166,-100,4,1,0,90,0,0

[HitObjects]
256,192,576,5,4,0:0:0:0:
256,192,1536,1,4,0:0:0:0:
256,192,2496,1,4,0:0:0:0:
256,192,3456,1,4,0:0:0:0:
256,192,4416,1,4,0:0:0:0:
256,192,4896,1,4,0:0:0:0:
256,192,5376,1,12,0:0:0:0:
256,192,6336,1,4,0:0:0:0:
256,192,7296,1,8,0:0:0:0:
256,192,8256,1,0,0:0:0:0:
256,192,9216,1,8,0:0:0:0:
256,192,9456,1,8,0:0:0:0:
256,192,9696,1,8,0:0:0:0:
256,192,10176,1,0,0:0:0:0:
256,192,11136,1,8,0:0:0:0:
256,192,12096,1,0,0:0:0:0:
256,192,13056,1,8,0:0:0:0:
256,192,13296,1,8,0:0:0:0:
256,192,13536,1,8,0:0:0:0:
256,192,14016,1,4,0:0:0:0:
256,192,14976,1,8,0:0:0:0:
256,192,15936,1,0,0:0:0:0:
256,192,16896,1,8,0:0:0:0:
256,192,17136,1,8,0:0:0:0:
256,192,17376,1,8,0:0:0:0:
256,192,17856,1,0,0:0:0:0:
256,192,18816,1,8,0:0:0:0:
256,192,19776,1,0,0:0:0:0:
256,192,20736,1,8,0:0:0:0:
256,192,20976,1,8,0:0:0:0:
256,192,21216,1,8,0:0:0:0:
256,192,21696,1,4,0:0:0:0:
256,192,22656,1,0,0:0:0:0:
256,192,23616,1,0,0:0:0:0:
256,192,24576,1,8,0:0:0:0:
256,192,25056,1,8,0:0:0:0:
256,192,25536,1,4,0:0:0:0:
256,192,26496,1,0,0:0:0:0:
256,192,27456,1,0,0:0:0:0:
256,192,28416,1,8,0:0:0:0:
256,192,28896,1,8,0:0:0:0:
256,192,29376,1,4,0:0:0:0:
256,192,30336,1,0,0:0:0:0:
256,192,30816,1,0,0:0:0:0:
256,192,31296,1,0,0:0:0:0:
256,192,31536,1,0,0:0:0:0:
256,192,31776,1,0,0:0:0:0:
256,192,32256,1,12,0:0:0:0:
256,192,33216,1,4,0:0:0:0:
256,192,34176,1,0,0:0:0:0:
256,192,35136,1,0,0:0:0:0:
256,192,36096,1,12,0:0:0:0:
256,192,37056,1,0,0:0:0:0:
256,192,37536,1,0,0:0:0:0:
256,192,38016,1,12,0:0:0:0:
256,192,38976,1,0,0:0:0:0:
256,192,39216,1,0,0:0:0:0:
256,192,39456,1,0,0:0:0:0:
256,192,39936,1,12,0:0:0:0:
256,192,40896,1,12,0:0:0:0:
256,192,41136,12,0,42816,0:0:0:0:
256,192,43776,5,4,0:0:0:0:
256,192,44256,1,8,0:0:0:0:
256,192,45216,1,8,0:0:0:0:
256,192,45696,1,0,0:0:0:0:
256,192,46176,1,8,0:0:0:0:
256,192,47136,1,8,0:0:0:0:
256,192,47616,1,0,0:0:0:0:
256,192,48096,1,0,0:0:0:0:
256,192,48576,1,8,0:0:0:0:
256,192,49056,1,8,0:0:0:0:
256,192,49536,1,4,0:0:0:0:
256,192,50016,1,4,0:0:0:0:
256,192,50496,1,12,0:0:0:0:
256,192,51456,5,4,0:0:0:0:
256,192,52416,1,0,0:0:0:0:
256,192,52896,1,8,0:0:0:0:
256,192,53376,1,0,0:0:0:0:
256,192,53616,1,0,0:0:0:0:
256,192,53856,1,8,0:0:0:0:
256,192,54096,1,8,0:0:0:0:
256,192,54336,1,0,0:0:0:0:
256,192,55056,1,0,0:0:0:0:
256,192,55296,1,0,0:0:0:0:
256,192,56016,1,8,0:0:0:0:
256,192,56256,1,8,0:0:0:0:
256,192,57096,1,4,0:0:0:0:
256,192,57696,1,0,0:0:0:0:
256,192,58056,1,12,0:0:0:0:
256,192,58656,1,8,0:0:0:0:
256,192,59136,1,4,0:0:0:0:
256,192,60096,1,0,0:0:0:0:
256,192,60576,1,8,0:0:0:0:
256,192,61056,1,0,0:0:0:0:
256,192,61296,1,0,0:0:0:0:
256,192,61536,1,8,0:0:0:0:
256,192,61776,1,8,0:0:0:0:
256,192,62016,1,0,0:0:0:0:
256,192,62736,1,0,0:0:0:0:
256,192,62976,1,0,0:0:0:0:
256,192,63696,1,8,0:0:0:0:
256,192,63936,1,8,0:0:0:0:
256,192,64776,1,4,0:0:0:0:
256,192,65376,1,0,0:0:0:0:
256,192,65736,1,12,0:0:0:0:
256,192,66336,1,8,0:0:0:0:
256,192,66816,1,4,0:0:0:0:
256,192,67296,1,8,0:0:0:0:
256,192,68256,1,8,0:0:0:0:
256,192,68736,1,0,0:0:0:0:
256,192,69216,1,8,0:0:0:0:
256,192,69696,1,0,0:0:0:0:
256,192,70656,1,12,0:0:0:0:
256,192,70896,1,12,0:0:0:0:
256,192,71136,1,12,0:0:0:0:
256,192,71616,1,0,0:0:0:0:
256,192,71976,1,0,0:0:0:0:
256,192,72336,1,0,0:0:0:0:
256,192,72576,1,0,0:0:0:0:
256,192,73536,1,8,0:0:0:0:
256,192,74496,1,4,0:0:0:0:
256,192,75456,1,4,0:0:0:0:
256,192,76416,1,4,0:0:0:0:
256,192,77376,1,4,0:0:0:0:
256,192,78336,1,12,0:0:0:0:
256,192,79296,1,12,0:0:0:0:
256,192,80256,1,12,0:0:0:0:
256,192,81216,1,12,0:0:0:0:
256,192,82176,1,4,0:0:0:0:
256,192,82656,1,8,0:0:0:0:
256,192,83136,1,4,0:0:0:0:
256,192,83616,1,8,0:0:0:0:
256,192,84096,1,4,0:0:0:0:
256,192,84576,1,8,0:0:0:0:
256,192,85056,1,4,0:0:0:0:
256,192,86016,1,12,0:0:0:0:
256,192,86496,1,0,0:0:0:0:
256,192,86976,1,12,0:0:0:0:
256,192,87456,1,0,0:0:0:0:
256,192,87936,1,12,0:0:0:0:
256,192,88416,1,0,0:0:0:0:
256,192,88896,1,12,0:0:0:0:
256,192,89856,1,4,0:0:0:0:
256,192,90336,1,8,0:0:0:0:
256,192,90816,1,4,0:0:0:0:
256,192,91296,1,8,0:0:0:0:
256,192,91776,1,4,0:0:0:0:
256,192,92256,1,8,0:0:0:0:
256,192,92736,1,4,0:0:0:0:
256,192,93696,1,12,0:0:0:0:
256,192,94176,1,0,0:0:0:0:
256,192,94656,1,12,0:0:0:0:
256,192,95136,1,0,0:0:0:0:
256,192,95616,1,12,0:0:0:0:
256,192,96096,1,0,0:0:0:0:
256,192,96576,1,12,0:0:0:0:
256,192,97536,1,12,0:0:0:0:
256,192,98016,1,12,0:0:0:0:
256,192,99456,5,4,0:0:0:0:
256,192,100416,1,0,0:0:0:0:
256,192,100896,1,8,0:0:0:0:
256,192,101376,1,0,0:0:0:0:
256,192,101616,1,0,0:0:0:0:
256,192,101856,1,8,0:0:0:0:
256,192,102096,1,8,0:0:0:0:
256,192,102336,1,0,0:0:0:0:
256,192,103056,1,0,0:0:0:0:
256,192,103296,1,0,0:0:0:0:
256,192,104016,1,8,0:0:0:0:
256,192,104256,1,8,0:0:0:0:
256,192,105096,1,4,0:0:0:0:
256,192,105696,1,0,0:0:0:0:
256,192,106056,1,12,0:0:0:0:
256,192,106656,1,8,0:0:0:0:
256,192,107136,1,4,0:0:0:0:
256,192,108096,1,0,0:0:0:0:
256,192,108336,1,0,0:0:0:0:
256,192,108576,1,0,0:0:0:0:
256,192,109056,1,8,0:0:0:0:
256,192,109296,1,8,0:0:0:0:
256,192,109536,1,8,0:0:0:0:
256,192,110016,1,8,0:0:0:0:
256,192,110736,1,0,0:0:0:0:
256,192,110976,1,0,0:0:0:0:
256,192,111696,1,8,0:0:0:0:
256,192,111936,1,8,0:0:0:0:
256,192,112776,1,4,0:0:0:0:
256,192,113376,1,0,0:0:0:0:
256,192,113736,1,12,0:0:0:0:
256,192,114336,1,8,0:0:0:0:
256,192,114816,1,4,0:0:0:0:
256,192,115296,1,8,0:0:0:0:
256,192,116256,1,8,0:0:0:0:
256,192,116736,1,0,0:0:0:0:
256,192,117216,1,8,0:0:0:0:
256,192,117696,1,0,0:0:0:0:
256,192,118656,1,12,0:0:0:0:
256,192,118896,1,12,0:0:0:0:
256,192,119136,1,12,0:0:0:0:
256,192,119616,1,0,0:0:0:0:
256,192,119976,1,0,0:0:0:0:
256,192,120336,1,0,0:0:0:0:
256,192,120576,1,0,0:0:0:0:
256,192,121536,1,8,0:0:0:0:
256,192,122496,1,4,0:0:0:0:
256,192,124416,1,8,0:0:0:0:
256,192,126336,1,8,0:0:0:0:
256,192,128256,1,8,0:0:0:0:
256,192,129696,1,8,0:0:0:0:
256,192,130176,1,4,0:0:0:0:
256,192,131136,1,0,0:0:0:0:
256,192,132096,1,8,0:0:0:0:
256,192,133056,1,8,0:0:0:0:
256,192,134016,1,12,0:0:0:0:
256,192,134256,1,12,0:0:0:0:
256,192,134496,1,12,0:0:0:0:
256,192,134976,1,0,0:0:0:0:
256,192,135336,1,0,0:0:0:0:
256,192,135696,1,0,0:0:0:0:
256,192,135936,1,0,0:0:0:0:
256,192,136896,1,0,0:0:0:0:
256,192,137256,1,0,0:0:0:0:
256,192,137616,1,0,0:0:0:0:
256,192,137856,1,0,0:0:0:0:
256,192,145536,5,8,0:0:0:0:
256,192,147456,1,8,0:0:0:0:
256,192,149376,1,8,0:0:0:0:
256,192,151176,1,4,0:0:0:0:
256,192,151776,1,0,0:0:0:0:
256,192,152136,1,12,0:0:0:0:
256,192,153216,1,4,0:0:0:0:
256,192,154176,1,0,0:0:0:0:
256,192,154656,1,8,0:0:0:0:
256,192,155136,1,0,0:0:0:0:
256,192,155376,1,8,0:0:0:0:
256,192,155616,1,0,0:0:0:0:
256,192,155856,1,8,0:0:0:0:
256,192,156096,1,0,0:0:0:0:
256,192,156816,1,0,0:0:0:0:
256,192,157056,1,0,0:0:0:0:
256,192,157776,1,8,0:0:0:0:
256,192,158016,1,8,0:0:0:0:
256,192,158856,1,4,0:0:0:0:
256,192,159456,1,0,0:0:0:0:
256,192,159816,1,12,0:0:0:0:
256,192,160416,1,8,0:0:0:0:
256,192,160896,1,4,0:0:0:0:
256,192,161856,1,8,0:0:0:0:
256,192,162336,1,0,0:0:0:0:
256,192,162816,1,8,0:0:0:0:
256,192,163056,1,0,0:0:0:0:
256,192,163296,1,8,0:0:0:0:
256,192,163536,1,0,0:0:0:0:
256,192,163776,1,8,0:0:0:0:
256,192,164496,1,0,0:0:0:0:
256,192,164736,1,0,0:0:0:0:
256,192,165456,1,8,0:0:0:0:
256,192,165696,1,8,0:0:0:0:
256,192,166536,1,4,0:0:0:0:
256,192,167136,1,0,0:0:0:0:
256,192,167496,1,12,0:0:0:0:
256,192,168096,1,8,0:0:0:0:
256,192,168576,1,4,0:0:0:0:
256,192,169056,1,8,0:0:0:0:
256,192,170016,1,8,0:0:0:0:
256,192,170496,1,0,0:0:0:0:
256,192,170976,1,8,0:0:0:0:
256,192,171456,1,0,0:0:0:0:
256,192,172416,1,12,0:0:0:0:
256,192,172656,1,12,0:0:0:0:
256,192,172896,1,12,0:0:0:0:
256,192,173376,1,0,0:0:0:0:
256,192,173736,1,0,0:0:0:0:
256,192,174096,1,0,0:0:0:0:
256,192,174336,1,0,0:0:0:0:
256,192,175296,1,8,0:0:0:0:
256,192,176256,1,12,0:0:0:0:
256,192,176496,1,12,0:0:0:0:
256,192,176736,1,12,0:0:0:0:
256,192,177216,1,0,0:0:0:0:
256,192,177576,1,0,0:0:0:0:
256,192,177936,1,0,0:0:0:0:
256,192,178176,1,0,0:0:0:0:
256,192,179136,1,8,0:0:0:0:
256,192,180096,1,4,0:0:0:0:
256,192,181056,1,8,0:0:0:0:
256,192,182016,1,0,0:0:0:0:
256,192,182976,1,8,0:0:0:0:
256,192,183216,1,8,0:0:0:0:
256,192,183456,1,8,0:0:0:0:
256,192,183936,1,0,0:0:0:0:
256,192,184896,1,8,0:0:0:0:
256,192,185856,1,0,0:0:0:0:
256,192,186816,1,8,0:0:0:0:
256,192,187056,1,8,0:0:0:0:
256,192,187296,1,8,0:0:0:0:
256,192,187776,1,4,0:0:0:0:
256,192,188736,1,8,0:0:0:0:
256,192,189696,1,0,0:0:0:0:
256,192,190656,1,8,0:0:0:0:
256,192,190896,1,8,0:0:0:0:
256,192,191136,1,8,0:0:0:0:
256,192,191616,1,0,0:0:0:0:
256,192,192576,1,8,0:0:0:0:
256,192,193536,1,0,0:0:0:0:
256,192,194496,1,8,0:0:0:0:
256,192,194736,1,8,0:0:0:0:
256,192,194976,1,8,0:0:0:0:
256,192,195456,1,4,0:0:0:0:
256,192,196416,1,0,0:0:0:0:
256,192,196896,1,12,0:0:0:0:
