osu file format v14

[General]
AudioFilename: audio.mp3
AudioLeadIn: 0
PreviewTime: 51426
Countdown: 0
SampleSet: Normal
StackLeniency: 0.7
Mode: 1
LetterboxInBreaks: 0
WidescreenStoryboard: 0

[Editor]
DistanceSpacing: 0.9
BeatDivisor: 8
GridSize: 32
TimelineZoom: 3.599999

[Metadata]
Title:Endgame
TitleUnicode:エンドゲエム
Artist:Miyashita Yuu
ArtistUnicode:宮下遊
Creator:_Rise
Version:Hell Oni
Source:
Tags:japanese pop j-pop jpop 錆付くまで sabitsuku made かいりきベア kairiki bear
BeatmapID:2892814
BeatmapSetID:1402249

[Difficulty]
HPDrainRate:6
CircleSize:5
OverallDifficulty:7
ApproachRate:5
SliderMultiplier:1.4
SliderTickRate:1

[Events]
//Background and Video events
0,0,"bg.jpg",0,0
//Break Periods
2,138056,144336
//Storyboard Layer 0 (Background)
//Storyboard Layer 1 (Fail)
//Storyboard Layer 2 (Pass)
//Storyboard Layer 3 (Foreground)
//Storyboard Layer 4 (Overlay)
//Storyboard Sound Samples

[TimingPoints]
576,240,4,1,0,90,1,0
576,-90.9090909090909,4,1,0,90,0,0
6306,-100,4,1,0,90,0,0
21726,-111.111111111111,4,1,0,85,0,0
29346,-100,4,1,0,85,0,0
33246,-111.111111111111,4,1,0,85,0,0
36066,-100,4,1,0,85,0,0
37086,-111.111111111111,4,1,0,85,0,0
37986,-100,4,1,0,85,0,0
40926,-125,4,1,0,80,0,0
43746,-111.111111111111,4,1,0,90,0,0
49506,-90.9090909090909,4,1,0,90,0,0
51426,-100,4,1,0,95,0,0
51456,-100,4,1,0,95,0,1
66816,-100,4,1,0,95,0,0
66846,-111.111111111111,4,1,0,90,0,0
70626,-90.9090909090909,4,1,0,95,0,0
70656,-90.9090909090909,4,1,0,95,0,1
73536,-90.9090909090909,4,1,0,95,0,0
73566,-90.9090909090909,4,1,0,90,0,0
74466,-111.111111111111,4,1,0,90,0,0
82146,-105.263157894737,4,1,0,90,0,0
97506,-90.9090909090909,4,1,0,90,0,0
98466,-142.857142857143,4,1,0,30,0,0
99426,-100,4,1,0,95,0,0
99456,-100,4,1,0,95,0,1
114816,-100,4,1,0,95,0,0
114846,-111.111111111111,4,1,0,90,0,0
118626,-90.9090909090909,4,1,0,95,0,0
118656,-90.9090909090909,4,1,0,95,0,1
121536,-90.9090909090909,4,1,0,95,0,0
121566,-90.9090909090909,4,1,0,75,0,0
122466,-142.857142857143,4,1,0,75,0,0
129546,-142.857142857143,4,1,0,85,0,0
130146,-111.111111111111,4,1,0,85,0,0
133986,-90.9090909090908,4,1,0,95,0,0
134016,-90.9090909090908,4,1,0,95,0,1
137856,-90.9090909090908,4,1,0,95,0,0
137886,-166.666666666667,4,1,0,70,0,0
151146,-166.666666666667,4,1,0,80,0,0
151266,-111.111111111111,4,1,0,90,0,0
152226,-111.111111111111,4,1,0,70,0,0
153186,-100,4,1,0,95,0,0
153216,-100,4,1,0,95,0,1
168576,-100,4,1,0,95,0,0
168606,-111.111111111111,4,1,0,90,0,0
172386,-90.9090909090909,4,1,0,95,0,0
172416,-90.9090909090909,4,1,0,95,0,1
176226,-83.3333333333333,4,1,0,95,0,1
179136,-83.3333333333333,4,1,0,95,0,0
179166,-83.3333333333333,4,1,0,90,0,0
180066,-100,4,1,0,90,0,0
195486,-111.111111111111,4,1,0,90,0,0

[HitObjects]
244,193,576,5,4,0:0:0:0:
244,193,896,1,0,0:0:0:0:
244,193,976,1,0,0:0:0:0:
244,193,1056,1,12,0:0:0:0:
226,178,1536,1,4,0:0:0:0:
257,183,1856,1,0,0:0:0:0:
257,183,1936,1,0,0:0:0:0:
257,183,2016,1,12,0:0:0:0:
226,178,2176,1,0,0:0:0:0:
247,202,2336,1,0,0:0:0:0:
247,202,2496,1,12,0:0:0:0:
259,198,2816,1,0,0:0:0:0:
259,198,2896,1,0,0:0:0:0:
259,198,2976,1,12,0:0:0:0:
256,190,3456,1,4,0:0:0:0:
216,184,3776,1,0,0:0:0:0:
246,189,3856,1,0,0:0:0:0:
246,189,3936,1,12,0:0:0:0:
246,189,4096,1,8,0:0:0:0:
241,192,4256,1,0,0:0:0:0:
241,192,4416,1,12,0:0:0:0:
241,192,4896,1,12,0:0:0:0:
246,181,5376,1,12,0:0:0:0:
246,181,5496,1,12,0:0:0:0:
246,181,5616,1,4,0:0:0:0:
246,181,5736,1,12,0:0:0:0:
243,193,5976,1,0,0:0:0:0:
261,208,6016,1,0,0:0:0:0:
261,208,6056,1,0,0:0:0:0:
247,203,6096,1,8,0:0:0:0:
260,190,6336,1,4,0:0:0:0:
275,208,6516,1,0,0:0:0:0:
261,201,6576,1,8,0:0:0:0:
262,205,6696,1,0,0:0:0:0:
262,205,6756,1,0,0:0:0:0:
261,201,6816,1,0,0:0:0:0:
261,201,6936,1,0,0:0:0:0:
261,201,7056,1,8,0:0:0:0:
261,201,7176,1,0,0:0:0:0:
260,184,7236,1,0,0:0:0:0:
258,196,7296,1,8,0:0:0:0:
260,184,7356,1,8,0:0:0:0:
262,205,7416,1,0,0:0:0:0:
262,205,7536,1,8,0:0:0:0:
231,203,7656,1,8,0:0:0:0:
231,203,7716,1,8,0:0:0:0:
231,203,7776,1,0,0:0:0:0:
261,201,7896,1,0,0:0:0:0:
261,201,8016,1,8,0:0:0:0:
241,181,8136,1,8,0:0:0:0:
242,200,8196,1,0,0:0:0:0:
242,200,8256,1,8,0:0:0:0:
242,200,8316,1,8,0:0:0:0:
242,200,8376,1,0,0:0:0:0:
226,202,8436,1,0,0:0:0:0:
226,198,8496,1,8,0:0:0:0:
242,200,8616,1,0,0:0:0:0:
226,202,8676,1,8,0:0:0:0:
226,202,8736,1,0,0:0:0:0:
223,195,8856,1,0,0:0:0:0:
223,195,8976,1,8,0:0:0:0:
223,195,9096,1,0,0:0:0:0:
247,213,9216,1,8,0:0:0:0:
255,238,9276,1,8,0:0:0:0:
247,213,9336,1,0,0:0:0:0:
227,208,9456,1,8,0:0:0:0:
252,227,9516,1,0,0:0:0:0:
227,208,9576,1,0,0:0:0:0:
227,208,9696,1,8,0:0:0:0:
233,219,9816,1,0,0:0:0:0:
270,231,9936,1,8,0:0:0:0:
252,220,10056,1,0,0:0:0:0:
225,215,10116,1,0,0:0:0:0:
240,226,10176,1,0,0:0:0:0:
240,242,10296,1,0,0:0:0:0:
240,242,10356,1,0,0:0:0:0:
240,242,10416,1,8,0:0:0:0:
245,229,10536,1,8,0:0:0:0:
218,225,10596,1,0,0:0:0:0:
240,242,10656,1,0,0:0:0:0:
240,242,10776,1,0,0:0:0:0:
240,242,10896,1,8,0:0:0:0:
243,209,11016,1,0,0:0:0:0:
243,209,11076,1,0,0:0:0:0:
243,209,11136,1,8,0:0:0:0:
240,242,11196,1,8,0:0:0:0:
240,242,11256,1,0,0:0:0:0:
240,242,11376,1,8,0:0:0:0:
276,219,11496,1,0,0:0:0:0:
276,219,11556,1,8,0:0:0:0:
258,225,11616,1,0,0:0:0:0:
240,242,11736,1,0,0:0:0:0:
240,242,11856,1,8,0:0:0:0:
251,203,11976,1,0,0:0:0:0:
271,243,12036,1,0,0:0:0:0:
271,243,12096,1,8,0:0:0:0:
251,203,12156,1,0,0:0:0:0:
251,203,12216,1,8,0:0:0:0:
258,225,12276,1,8,0:0:0:0:
251,203,12336,1,0,0:0:0:0:
252,240,12456,1,8,0:0:0:0:
252,241,12576,1,0,0:0:0:0:
264,261,12696,1,0,0:0:0:0:
247,234,12756,1,0,0:0:0:0:
264,261,12816,1,8,0:0:0:0:
281,267,12936,1,0,0:0:0:0:
281,268,13056,1,8,0:0:0:0:
281,268,13116,1,8,0:0:0:0:
281,268,13176,1,0,0:0:0:0:
254,258,13236,1,0,0:0:0:0:
254,258,13296,1,8,0:0:0:0:
254,258,13356,1,0,0:0:0:0:
254,258,13416,1,0,0:0:0:0:
288,258,13536,1,8,0:0:0:0:
249,226,13716,1,0,0:0:0:0:
256,234,13776,1,0,0:0:0:0:
256,234,13896,1,8,0:0:0:0:
250,224,14016,1,4,0:0:0:0:
271,213,14196,1,0,0:0:0:0:
271,213,14256,1,8,0:0:0:0:
271,213,14376,1,0,0:0:0:0:
271,213,14436,1,0,0:0:0:0:
271,213,14496,1,0,0:0:0:0:
271,213,14616,1,0,0:0:0:0:
271,213,14736,1,8,0:0:0:0:
271,213,14856,1,0,0:0:0:0:
271,213,14916,1,0,0:0:0:0:
271,213,14976,1,8,0:0:0:0:
271,213,15036,1,8,0:0:0:0:
271,213,15096,1,0,0:0:0:0:
271,213,15216,1,8,0:0:0:0:
256,247,15336,1,8,0:0:0:0:
256,247,15396,1,8,0:0:0:0:
256,247,15456,1,0,0:0:0:0:
271,213,15576,1,0,0:0:0:0:
271,213,15696,1,8,0:0:0:0:
271,213,15816,1,8,0:0:0:0:
271,213,15876,1,0,0:0:0:0:
271,218,15936,1,8,0:0:0:0:
271,218,15996,1,8,0:0:0:0:
271,218,16056,1,0,0:0:0:0:
286,227,16116,1,0,0:0:0:0:
271,218,16176,1,8,0:0:0:0:
271,218,16296,1,0,0:0:0:0:
286,227,16356,1,8,0:0:0:0:
286,227,16416,1,0,0:0:0:0:
271,218,16536,1,0,0:0:0:0:
271,218,16656,1,8,0:0:0:0:
271,218,16776,1,0,0:0:0:0:
271,218,16896,1,8,0:0:0:0:
271,218,16956,1,8,0:0:0:0:
271,218,17016,1,0,0:0:0:0:
271,218,17136,1,8,0:0:0:0:
271,218,17196,1,0,0:0:0:0:
271,218,17256,1,0,0:0:0:0:
271,218,17376,1,8,0:0:0:0:
271,218,17496,1,0,0:0:0:0:
271,218,17616,1,8,0:0:0:0:
266,189,17736,1,0,0:0:0:0:
266,189,17796,1,0,0:0:0:0:
271,218,17856,1,0,0:0:0:0:
271,218,17976,1,0,0:0:0:0:
271,218,18036,1,0,0:0:0:0:
271,218,18096,1,8,0:0:0:0:
257,211,18216,1,8,0:0:0:0:
251,214,18276,1,0,0:0:0:0:
271,218,18336,1,0,0:0:0:0:
271,218,18456,1,0,0:0:0:0:
271,218,18576,1,8,0:0:0:0:
251,214,18696,1,0,0:0:0:0:
251,214,18756,1,0,0:0:0:0:
251,214,18816,1,8,0:0:0:0:
271,218,18876,1,8,0:0:0:0:
271,218,18936,1,0,0:0:0:0:
271,218,19056,1,8,0:0:0:0:
251,211,19176,1,0,0:0:0:0:
253,193,19236,1,8,0:0:0:0:
253,193,19296,1,0,0:0:0:0:
256,208,19416,1,0,0:0:0:0:
256,208,19536,1,8,0:0:0:0:
256,208,19656,1,0,0:0:0:0:
250,211,19716,1,0,0:0:0:0:
250,211,19776,1,8,0:0:0:0:
256,208,19836,1,0,0:0:0:0:
256,208,19896,1,8,0:0:0:0:
253,193,19956,1,8,0:0:0:0:
256,208,20016,1,0,0:0:0:0:
250,211,20136,1,8,0:0:0:0:
250,211,20256,1,0,0:0:0:0:
246,210,20376,1,0,0:0:0:0:
236,217,20436,1,0,0:0:0:0:
246,210,20496,1,8,0:0:0:0:
246,210,20616,1,0,0:0:0:0:
241,193,20736,1,8,0:0:0:0:
241,193,20796,1,8,0:0:0:0:
241,193,20856,1,0,0:0:0:0:
241,193,20916,1,0,0:0:0:0:
241,193,20976,1,8,0:0:0:0:
241,193,21036,1,0,0:0:0:0:
241,193,21096,1,0,0:0:0:0:
225,180,21156,1,0,0:0:0:0:
229,186,21216,1,8,0:0:0:0:
225,180,21336,1,0,0:0:0:0:
251,190,21396,1,0,0:0:0:0:
229,186,21456,1,8,0:0:0:0:
229,186,21516,1,8,0:0:0:0:
229,186,21576,1,8,0:0:0:0:
229,186,21696,1,4,0:0:0:0:
226,193,21936,1,8,0:0:0:0:
226,193,22176,1,0,0:0:0:0:
240,187,22296,1,0,0:0:0:0:
226,193,22416,1,8,0:0:0:0:
226,193,22656,1,0,0:0:0:0:
214,203,22776,1,8,0:0:0:0:
226,193,22836,1,8,0:0:0:0:
254,179,22896,1,8,0:0:0:0:
225,178,23016,1,0,0:0:0:0:
225,178,23136,1,8,0:0:0:0:
225,178,23256,1,0,0:0:0:0:
225,178,23316,1,0,0:0:0:0:
231,196,23376,1,8,0:0:0:0:
242,194,23616,1,0,0:0:0:0:
242,194,23736,1,8,0:0:0:0:
243,192,23796,1,8,0:0:0:0:
243,192,23856,1,8,0:0:0:0:
242,194,23976,1,0,0:0:0:0:
242,194,24096,1,8,0:0:0:0:
242,194,24216,1,8,0:0:0:0:
242,194,24276,1,8,0:0:0:0:
242,194,24336,1,0,0:0:0:0:
254,211,24576,1,8,0:0:0:0:
232,206,24816,1,0,0:0:0:0:
255,209,24936,1,0,0:0:0:0:
243,185,24996,1,0,0:0:0:0:
239,211,25056,1,8,0:0:0:0:
239,211,25176,1,0,0:0:0:0:
270,215,25296,1,12,0:0:0:0:
222,201,25536,1,4,0:0:0:0:
245,207,25776,1,8,0:0:0:0:
244,207,26016,1,0,0:0:0:0:
244,207,26136,1,0,0:0:0:0:
244,207,26256,1,8,0:0:0:0:
251,220,26496,1,0,0:0:0:0:
251,220,26616,1,8,0:0:0:0:
251,220,26676,1,8,0:0:0:0:
251,220,26736,1,8,0:0:0:0:
251,220,26856,1,0,0:0:0:0:
251,220,26976,1,8,0:0:0:0:
251,220,27096,1,0,0:0:0:0:
251,220,27156,1,0,0:0:0:0:
251,220,27216,1,8,0:0:0:0:
251,220,27456,1,0,0:0:0:0:
251,220,27576,1,8,0:0:0:0:
251,220,27636,1,8,0:0:0:0:
251,220,27696,1,8,0:0:0:0:
251,220,27816,1,0,0:0:0:0:
251,220,27936,1,8,0:0:0:0:
254,210,28056,1,8,0:0:0:0:
254,210,28116,1,8,0:0:0:0:
254,210,28176,1,0,0:0:0:0:
265,223,28416,1,0,0:0:0:0:
256,207,28656,1,8,0:0:0:0:
256,237,28776,1,0,0:0:0:0:
254,210,28836,1,0,0:0:0:0:
254,210,28896,1,8,0:0:0:0:
256,222,28956,1,0,0:0:0:0:
256,210,29016,1,0,0:0:0:0:
256,220,29136,1,8,0:0:0:0:
269,229,29256,1,8,0:0:0:0:
254,230,29376,1,4,0:0:0:0:
240,215,29616,1,8,0:0:0:0:
240,215,29856,1,0,0:0:0:0:
240,215,29976,1,0,0:0:0:0:
240,215,30096,1,8,0:0:0:0:
239,223,30336,1,0,0:0:0:0:
239,223,30456,1,0,0:0:0:0:
239,223,30576,1,8,0:0:0:0:
246,218,30696,1,0,0:0:0:0:
243,228,30936,1,0,0:0:0:0:
243,228,31056,1,8,0:0:0:0:
256,230,31176,1,0,0:0:0:0:
256,229,31236,1,0,0:0:0:0:
251,207,31296,1,8,0:0:0:0:
251,207,31416,1,0,0:0:0:0:
251,207,31536,1,8,0:0:0:0:
255,207,31596,1,8,0:0:0:0:
255,207,31656,1,0,0:0:0:0:
261,208,31776,1,0,0:0:0:0:
261,208,31836,1,8,0:0:0:0:
261,208,31896,1,0,0:0:0:0:
266,183,31956,1,0,0:0:0:0:
261,208,32016,1,8,0:0:0:0:
251,191,32076,1,8,0:0:0:0:
260,219,32136,1,0,0:0:0:0:
256,203,32256,1,12,0:0:0:0:
256,203,32376,1,12,0:0:0:0:
256,203,32616,1,12,0:0:0:0:
250,208,32856,1,0,0:0:0:0:
250,208,32916,1,0,0:0:0:0:
250,208,32976,1,8,0:0:0:0:
250,208,33096,1,8,0:0:0:0:
250,208,33216,1,4,0:0:0:0:
266,228,33456,1,0,0:0:0:0:
248,200,33576,1,8,0:0:0:0:
248,200,33696,1,0,0:0:0:0:
248,200,33816,1,0,0:0:0:0:
248,200,33936,1,8,0:0:0:0:
248,200,34176,1,0,0:0:0:0:
248,200,34296,1,8,0:0:0:0:
248,200,34356,1,8,0:0:0:0:
248,200,34416,1,0,0:0:0:0:
248,200,34536,1,8,0:0:0:0:
248,200,34656,1,0,0:0:0:0:
255,203,34776,1,0,0:0:0:0:
255,203,34836,1,0,0:0:0:0:
255,203,34896,1,8,0:0:0:0:
255,203,35136,1,0,0:0:0:0:
255,203,35256,1,8,0:0:0:0:
255,203,35316,1,8,0:0:0:0:
255,203,35376,1,0,0:0:0:0:
255,203,35496,1,0,0:0:0:0:
255,203,35616,1,8,0:0:0:0:
246,197,35676,1,0,0:0:0:0:
246,197,35736,1,0,0:0:0:0:
246,197,35796,1,0,0:0:0:0:
246,197,35856,1,8,0:0:0:0:
247,202,36096,1,12,0:0:0:0:
247,202,36216,1,12,0:0:0:0:
247,202,36456,1,12,0:0:0:0:
240,205,36696,1,0,0:0:0:0:
236,204,36756,1,8,0:0:0:0:
247,210,36816,1,8,0:0:0:0:
251,202,36936,1,8,0:0:0:0:
252,214,37056,1,4,0:0:0:0:
247,202,37236,1,0,0:0:0:0:
247,210,37296,1,8,0:0:0:0:
247,210,37416,1,0,0:0:0:0:
253,205,37536,1,8,0:0:0:0:
253,205,37596,1,8,0:0:0:0:
251,202,37656,1,0,0:0:0:0:
253,205,37776,1,8,0:0:0:0:
249,212,37896,1,0,0:0:0:0:
249,212,38016,1,12,0:0:0:0:
249,214,38136,1,12,0:0:0:0:
249,214,38376,1,12,0:0:0:0:
251,208,38616,1,0,0:0:0:0:
251,208,38676,1,0,0:0:0:0:
251,208,38736,1,8,0:0:0:0:
251,208,38856,1,0,0:0:0:0:
249,214,38976,1,8,0:0:0:0:
249,214,39036,1,0,0:0:0:0:
249,214,39096,1,8,0:0:0:0:
249,214,39156,1,8,0:0:0:0:
251,208,39216,1,0,0:0:0:0:
246,207,39336,1,8,0:0:0:0:
251,208,39396,1,8,0:0:0:0:
246,207,39456,1,0,0:0:0:0:
233,203,39516,1,8,0:0:0:0:
233,203,39576,1,0,0:0:0:0:
246,202,39636,1,0,0:0:0:0:
246,202,39696,1,8,0:0:0:0:
246,202,39816,1,0,0:0:0:0:
244,210,39936,1,12,0:0:0:0:
246,207,40056,1,12,0:0:0:0:
253,219,40176,1,0,0:0:0:0:
244,210,40296,1,12,0:0:0:0:
256,224,40536,1,0,0:0:0:0:
256,224,40596,1,0,0:0:0:0:
256,224,40656,1,8,0:0:0:0:
253,216,40776,1,8,0:0:0:0:
248,219,40896,1,12,0:0:0:0:
253,216,41136,1,0,0:0:0:0:
253,216,41256,1,8,0:0:0:0:
253,216,41496,1,8,0:0:0:0:
253,216,41556,1,8,0:0:0:0:
251,212,41616,1,8,0:0:0:0:
286,241,41856,1,8,0:0:0:0:
245,207,42016,1,0,0:0:0:0:
241,213,42096,1,0,0:0:0:0:
241,213,42176,1,0,0:0:0:0:
241,213,42256,1,0,0:0:0:0:
245,207,42336,1,8,0:0:0:0:
245,207,42416,1,8,0:0:0:0:
245,207,42496,1,8,0:0:0:0:
245,207,42576,1,8,0:0:0:0:
245,207,42656,1,8,0:0:0:0:
245,207,42736,1,8,0:0:0:0:
271,223,42816,1,8,0:0:0:0:
241,220,43056,1,0,0:0:0:0:
241,220,43296,1,8,0:0:0:0:
241,220,43536,1,8,0:0:0:0:
241,220,43776,1,4,0:0:0:0:
246,213,44016,1,0,0:0:0:0:
246,213,44136,1,0,0:0:0:0:
246,213,44256,1,8,0:0:0:0:
240,185,44496,1,0,0:0:0:0:
240,185,44616,1,8,0:0:0:0:
240,185,44676,1,8,0:0:0:0:
240,185,44736,1,0,0:0:0:0:
240,185,44856,1,8,0:0:0:0:
245,207,44976,1,0,0:0:0:0:
245,207,45096,1,0,0:0:0:0:
245,207,45216,1,8,0:0:0:0:
245,207,45456,1,8,0:0:0:0:
248,189,45576,1,8,0:0:0:0:
245,207,45696,1,0,0:0:0:0:
241,190,45936,1,8,0:0:0:0:
245,207,46056,1,0,0:0:0:0:
245,207,46176,1,8,0:0:0:0:
236,195,46236,1,8,0:0:0:0:
248,205,46296,1,8,0:0:0:0:
248,205,46356,1,8,0:0:0:0:
245,207,46416,1,0,0:0:0:0:
247,215,46536,1,0,0:0:0:0:
247,215,46596,1,0,0:0:0:0:
247,215,46656,1,8,0:0:0:0:
247,215,46776,1,0,0:0:0:0:
247,215,47016,1,0,0:0:0:0:
247,215,47136,1,8,0:0:0:0:
249,216,47196,1,0,0:0:0:0:
247,215,47256,1,0,0:0:0:0:
247,215,47376,1,8,0:0:0:0:
247,215,47496,1,8,0:0:0:0:
254,221,47616,1,4,0:0:0:0:
254,220,47796,1,0,0:0:0:0:
254,220,47856,1,8,0:0:0:0:
254,220,47976,1,0,0:0:0:0:
250,224,48096,1,8,0:0:0:0:
250,224,48156,1,8,0:0:0:0:
250,224,48216,1,8,0:0:0:0:
250,224,48336,1,0,0:0:0:0:
252,213,48456,1,8,0:0:0:0:
252,213,48516,1,8,0:0:0:0:
252,213,48576,1,0,0:0:0:0:
254,220,48696,1,0,0:0:0:0:
249,207,48756,1,0,0:0:0:0:
249,207,48816,1,8,0:0:0:0:
276,228,48876,1,8,0:0:0:0:
257,224,48936,1,0,0:0:0:0:
256,216,49056,1,8,0:0:0:0:
257,222,49116,1,0,0:0:0:0:
256,216,49176,1,0,0:0:0:0:
256,216,49236,1,0,0:0:0:0:
256,216,49296,1,8,0:0:0:0:
256,216,49416,1,0,0:0:0:0:
253,207,49536,5,12,0:0:0:0:
253,207,50016,1,12,0:0:0:0:
253,207,50496,1,12,0:0:0:0:
253,207,50616,1,12,0:0:0:0:
253,207,50736,1,4,0:0:0:0:
253,207,50856,1,12,0:0:0:0:
256,192,51096,1,0,0:0:0:0:
256,192,51136,1,0,0:0:0:0:
256,192,51176,1,0,0:0:0:0:
256,192,51216,1,8,0:0:0:0:
256,208,51456,5,4,0:0:0:0:
256,208,51636,1,0,0:0:0:0:
256,208,51696,1,8,0:0:0:0:
220,185,51816,1,0,0:0:0:0:
220,185,51936,1,8,0:0:0:0:
220,185,51996,1,8,0:0:0:0:
243,201,52056,1,0,0:0:0:0:
243,201,52176,1,8,0:0:0:0:
251,197,52296,1,0,0:0:0:0:
255,196,52356,1,8,0:0:0:0:
255,196,52416,1,0,0:0:0:0:
255,196,52476,1,0,0:0:0:0:
255,196,52536,1,8,0:0:0:0:
255,196,52596,1,8,0:0:0:0:
255,196,52656,1,0,0:0:0:0:
267,214,52776,1,0,0:0:0:0:
267,214,52836,1,0,0:0:0:0:
267,214,52896,1,8,0:0:0:0:
267,214,53016,1,0,0:0:0:0:
267,214,53136,1,8,0:0:0:0:
243,194,53256,1,0,0:0:0:0:
243,194,53316,1,0,0:0:0:0:
240,178,53376,1,8,0:0:0:0:
260,205,53436,1,0,0:0:0:0:
252,198,53496,1,0,0:0:0:0:
252,198,53616,1,8,0:0:0:0:
260,205,53736,1,0,0:0:0:0:
241,194,53796,1,0,0:0:0:0:
241,194,53856,1,8,0:0:0:0:
241,194,53916,1,8,0:0:0:0:
257,184,53976,1,0,0:0:0:0:
241,194,54036,1,0,0:0:0:0:
241,194,54096,1,8,0:0:0:0:
241,194,54216,1,8,0:0:0:0:
241,194,54276,1,8,0:0:0:0:
241,194,54336,1,0,0:0:0:0:
260,208,54456,1,0,0:0:0:0:
260,208,54576,1,8,0:0:0:0:
247,207,54696,1,8,0:0:0:0:
257,184,54756,1,0,0:0:0:0:
252,184,54816,1,8,0:0:0:0:
250,202,54876,1,8,0:0:0:0:
241,194,54936,1,0,0:0:0:0:
255,203,55056,1,8,0:0:0:0:
260,208,55176,1,0,0:0:0:0:
260,208,55236,1,0,0:0:0:0:
255,203,55296,1,0,0:0:0:0:
261,187,55416,1,0,0:0:0:0:
261,187,55476,1,0,0:0:0:0:
261,187,55536,1,8,0:0:0:0:
261,187,55656,1,8,0:0:0:0:
261,187,55776,1,0,0:0:0:0:
252,191,55896,1,0,0:0:0:0:
252,191,56016,1,8,0:0:0:0:
252,191,56076,1,8,0:0:0:0:
252,191,56136,1,0,0:0:0:0:
252,191,56256,1,8,0:0:0:0:
251,213,56376,1,0,0:0:0:0:
256,192,56436,1,8,0:0:0:0:
256,192,56496,1,0,0:0:0:0:
260,218,56616,1,0,0:0:0:0:
260,218,56736,1,8,0:0:0:0:
271,230,56796,1,0,0:0:0:0:
271,230,56856,1,8,0:0:0:0:
260,218,56916,1,8,0:0:0:0:
260,218,56976,1,0,0:0:0:0:
246,257,57096,1,12,0:0:0:0:
286,227,57336,1,0,0:0:0:0:
266,226,57456,1,8,0:0:0:0:
283,213,57516,1,0,0:0:0:0:
283,213,57576,1,8,0:0:0:0:
283,213,57636,1,8,0:0:0:0:
283,213,57696,1,0,0:0:0:0:
283,213,57756,1,8,0:0:0:0:
266,223,57816,1,0,0:0:0:0:
266,223,57936,1,8,0:0:0:0:
259,216,58056,1,4,0:0:0:0:
239,208,58296,1,0,0:0:0:0:
239,208,58416,1,8,0:0:0:0:
249,203,58476,1,8,0:0:0:0:
239,208,58536,1,0,0:0:0:0:
239,208,58596,1,0,0:0:0:0:
249,220,58656,1,8,0:0:0:0:
249,203,58716,1,0,0:0:0:0:
249,220,58776,1,0,0:0:0:0:
249,220,58836,1,0,0:0:0:0:
249,220,58896,1,8,0:0:0:0:
249,220,59016,1,8,0:0:0:0:
249,220,59136,1,4,0:0:0:0:
241,237,59376,1,8,0:0:0:0:
254,217,59496,1,0,0:0:0:0:
254,217,59616,1,8,0:0:0:0:
219,211,59676,1,0,0:0:0:0:
219,211,59736,1,0,0:0:0:0:
254,216,59856,1,8,0:0:0:0:
254,216,59976,1,0,0:0:0:0:
249,225,60036,1,8,0:0:0:0:
249,225,60096,1,0,0:0:0:0:
254,216,60156,1,0,0:0:0:0:
254,217,60216,1,8,0:0:0:0:
248,237,60276,1,0,0:0:0:0:
248,237,60336,1,8,0:0:0:0:
256,247,60456,1,0,0:0:0:0:
256,247,60516,1,0,0:0:0:0:
256,247,60576,1,8,0:0:0:0:
254,234,60696,1,0,0:0:0:0:
254,234,60816,1,8,0:0:0:0:
249,224,60936,1,0,0:0:0:0:
249,224,60996,1,0,0:0:0:0:
247,228,61056,1,8,0:0:0:0:
247,228,61116,1,8,0:0:0:0:
247,228,61176,1,0,0:0:0:0:
247,228,61296,1,8,0:0:0:0:
247,228,61416,1,0,0:0:0:0:
247,228,61476,1,0,0:0:0:0:
247,228,61536,1,8,0:0:0:0:
240,217,61596,1,0,0:0:0:0:
240,217,61656,1,0,0:0:0:0:
240,217,61716,1,0,0:0:0:0:
240,217,61776,1,8,0:0:0:0:
240,217,61896,1,8,0:0:0:0:
240,217,61956,1,8,0:0:0:0:
240,217,62016,1,0,0:0:0:0:
247,228,62136,1,0,0:0:0:0:
247,228,62256,1,8,0:0:0:0:
240,217,62376,1,0,0:0:0:0:
240,217,62436,1,0,0:0:0:0:
240,217,62496,1,8,0:0:0:0:
240,217,62556,1,8,0:0:0:0:
240,217,62616,1,0,0:0:0:0:
240,217,62736,1,8,0:0:0:0:
245,237,62856,1,0,0:0:0:0:
245,237,62916,1,0,0:0:0:0:
245,237,62976,1,0,0:0:0:0:
261,187,63096,1,0,0:0:0:0:
261,187,63156,1,0,0:0:0:0:
261,187,63216,1,8,0:0:0:0:
261,187,63336,1,8,0:0:0:0:
261,187,63456,1,0,0:0:0:0:
252,191,63576,1,0,0:0:0:0:
252,191,63696,1,8,0:0:0:0:
252,191,63756,1,8,0:0:0:0:
252,191,63816,1,0,0:0:0:0:
252,191,63936,1,8,0:0:0:0:
251,213,64056,1,0,0:0:0:0:
256,192,64116,1,8,0:0:0:0:
256,192,64176,1,0,0:0:0:0:
260,218,64296,1,0,0:0:0:0:
260,218,64416,1,8,0:0:0:0:
271,230,64476,1,0,0:0:0:0:
271,230,64536,1,8,0:0:0:0:
260,218,64596,1,8,0:0:0:0:
260,218,64656,1,0,0:0:0:0:
246,257,64776,1,12,0:0:0:0:
286,227,65016,1,0,0:0:0:0:
266,226,65136,1,8,0:0:0:0:
266,223,65196,1,8,0:0:0:0:
266,223,65256,1,0,0:0:0:0:
266,223,65316,1,0,0:0:0:0:
266,223,65376,1,8,0:0:0:0:
266,223,65436,1,0,0:0:0:0:
266,223,65496,1,0,0:0:0:0:
266,223,65616,1,8,0:0:0:0:
259,216,65736,1,4,0:0:0:0:
239,208,65976,1,0,0:0:0:0:
239,208,66096,1,8,0:0:0:0:
239,208,66156,1,0,0:0:0:0:
254,231,66216,1,8,0:0:0:0:
254,231,66276,1,8,0:0:0:0:
254,231,66336,1,0,0:0:0:0:
249,220,66396,1,8,0:0:0:0:
249,220,66456,1,0,0:0:0:0:
249,220,66516,1,0,0:0:0:0:
249,220,66576,1,8,0:0:0:0:
249,220,66696,1,8,0:0:0:0:
271,229,66816,1,4,0:0:0:0:
262,228,67056,1,0,0:0:0:0:
262,228,67296,1,8,0:0:0:0:
262,228,67536,1,0,0:0:0:0:
262,228,67656,1,8,0:0:0:0:
262,228,67716,1,8,0:0:0:0:
262,228,67776,1,0,0:0:0:0:
225,219,67896,1,8,0:0:0:0:
262,228,68016,1,0,0:0:0:0:
234,219,68256,1,8,0:0:0:0:
248,222,68496,1,0,0:0:0:0:
247,230,68616,1,8,0:0:0:0:
248,222,68736,1,0,0:0:0:0:
261,238,68976,1,0,0:0:0:0:
261,238,69096,1,0,0:0:0:0:
261,238,69216,1,8,0:0:0:0:
256,227,69336,1,0,0:0:0:0:
256,227,69456,1,8,0:0:0:0:
256,227,69576,1,8,0:0:0:0:
256,227,69696,1,0,0:0:0:0:
212,197,69816,1,8,0:0:0:0:
259,220,69876,1,0,0:0:0:0:
263,237,69936,1,0,0:0:0:0:
263,237,70056,1,8,0:0:0:0:
273,234,70176,1,0,0:0:0:0:
273,234,70236,1,8,0:0:0:0:
273,234,70296,1,0,0:0:0:0:
273,234,70356,1,0,0:0:0:0:
273,234,70416,1,8,0:0:0:0:
273,234,70536,1,0,0:0:0:0:
273,234,70656,1,12,0:0:0:0:
261,213,70896,1,12,0:0:0:0:
261,213,71136,1,12,0:0:0:0:
243,205,71256,1,0,0:0:0:0:
237,197,71376,1,0,0:0:0:0:
268,217,71496,1,0,0:0:0:0:
268,217,71556,1,0,0:0:0:0:
268,217,71616,1,8,0:0:0:0:
235,212,71736,1,0,0:0:0:0:
235,212,71856,1,0,0:0:0:0:
268,217,71976,1,12,0:0:0:0:
268,217,72096,1,0,0:0:0:0:
268,217,72216,1,0,0:0:0:0:
268,217,72336,1,12,0:0:0:0:
256,242,72576,1,4,0:0:0:0:
256,222,72816,1,8,0:0:0:0:
252,217,72936,1,0,0:0:0:0:
224,184,72996,1,0,0:0:0:0:
231,228,73056,1,8,0:0:0:0:
251,217,73116,1,8,0:0:0:0:
231,228,73176,1,0,0:0:0:0:
231,228,73236,1,0,0:0:0:0:
231,228,73296,1,8,0:0:0:0:
231,228,73416,1,0,0:0:0:0:
231,228,73536,1,8,0:0:0:0:
214,198,74496,1,4,0:0:0:0:
221,216,74816,1,0,0:0:0:0:
221,216,74896,1,0,0:0:0:0:
221,216,74976,1,8,0:0:0:0:
249,203,75456,1,0,0:0:0:0:
249,203,75776,1,0,0:0:0:0:
249,203,75856,1,0,0:0:0:0:
248,198,75936,1,8,0:0:0:0:
260,203,76096,1,8,0:0:0:0:
260,203,76256,1,8,0:0:0:0:
260,203,76416,1,0,0:0:0:0:
248,198,76736,1,0,0:0:0:0:
248,198,76816,1,0,0:0:0:0:
248,198,76896,1,8,0:0:0:0:
247,206,77376,1,0,0:0:0:0:
260,203,77696,1,0,0:0:0:0:
247,206,77776,1,0,0:0:0:0:
247,206,77856,1,8,0:0:0:0:
236,198,78016,1,8,0:0:0:0:
234,211,78176,1,8,0:0:0:0:
255,196,78336,1,4,0:0:0:0:
245,193,78656,1,0,0:0:0:0:
245,193,78736,1,0,0:0:0:0:
246,198,78816,1,8,0:0:0:0:
249,199,79296,1,0,0:0:0:0:
244,208,79616,1,0,0:0:0:0:
244,208,79696,1,0,0:0:0:0:
244,208,79776,1,8,0:0:0:0:
236,217,79936,1,0,0:0:0:0:
236,217,80096,1,0,0:0:0:0:
236,217,80256,1,8,0:0:0:0:
246,230,80576,1,0,0:0:0:0:
247,232,80656,1,0,0:0:0:0:
246,230,80736,1,8,0:0:0:0:
244,208,81056,1,8,0:0:0:0:
246,230,81216,1,0,0:0:0:0:
246,230,81376,1,8,0:0:0:0:
247,232,81456,1,0,0:0:0:0:
246,230,81536,1,0,0:0:0:0:
246,228,81616,1,0,0:0:0:0:
246,228,81696,1,8,0:0:0:0:
246,228,81856,1,8,0:0:0:0:
246,230,82016,1,8,0:0:0:0:
251,225,82176,1,4,0:0:0:0:
252,217,82336,1,0,0:0:0:0:
252,217,82496,1,0,0:0:0:0:
252,217,82576,1,0,0:0:0:0:
252,217,82656,1,8,0:0:0:0:
252,217,82816,1,0,0:0:0:0:
252,217,82976,1,0,0:0:0:0:
252,217,83136,1,8,0:0:0:0:
263,212,83296,1,8,0:0:0:0:
263,212,83376,1,8,0:0:0:0:
248,213,83456,1,0,0:0:0:0:
249,203,83536,1,0,0:0:0:0:
249,203,83616,1,8,0:0:0:0:
252,217,83776,1,8,0:0:0:0:
252,217,83936,1,8,0:0:0:0:
252,217,84096,1,0,0:0:0:0:
249,203,84176,1,8,0:0:0:0:
248,200,84256,1,0,0:0:0:0:
249,203,84336,1,0,0:0:0:0:
249,203,84416,1,8,0:0:0:0:
248,200,84496,1,0,0:0:0:0:
237,189,84576,1,8,0:0:0:0:
265,203,84736,1,8,0:0:0:0:
265,203,84816,1,0,0:0:0:0:
265,203,84896,1,8,0:0:0:0:
265,203,85056,1,0,0:0:0:0:
271,220,85376,1,0,0:0:0:0:
271,220,85456,1,0,0:0:0:0:
271,220,85536,1,8,0:0:0:0:
271,220,85696,1,8,0:0:0:0:
271,220,85856,1,8,0:0:0:0:
271,220,86016,1,4,0:0:0:0:
259,226,86176,1,0,0:0:0:0:
259,226,86336,1,0,0:0:0:0:
253,203,86416,1,0,0:0:0:0:
259,226,86496,1,8,0:0:0:0:
257,222,86656,1,0,0:0:0:0:
257,222,86816,1,0,0:0:0:0:
260,214,86976,1,8,0:0:0:0:
256,201,87136,1,0,0:0:0:0:
260,213,87216,1,8,0:0:0:0:
260,213,87296,1,0,0:0:0:0:
260,213,87376,1,0,0:0:0:0:
260,213,87456,1,8,0:0:0:0:
260,213,87616,1,8,0:0:0:0:
236,203,87776,1,0,0:0:0:0:
260,213,87936,1,8,0:0:0:0:
260,213,88016,1,8,0:0:0:0:
260,213,88096,1,0,0:0:0:0:
260,213,88176,1,0,0:0:0:0:
260,213,88256,1,8,0:0:0:0:
260,213,88336,1,0,0:0:0:0:
260,213,88416,1,8,0:0:0:0:
260,214,88576,1,8,0:0:0:0:
260,213,88656,1,0,0:0:0:0:
260,213,88736,1,8,0:0:0:0:
260,213,88816,1,8,0:0:0:0:
260,213,88896,1,0,0:0:0:0:
249,202,89056,1,8,0:0:0:0:
249,202,89136,1,0,0:0:0:0:
256,203,89216,1,0,0:0:0:0:
256,203,89296,1,0,0:0:0:0:
256,203,89376,1,8,0:0:0:0:
256,203,89536,1,8,0:0:0:0:
256,203,89696,1,8,0:0:0:0:
256,203,89856,1,4,0:0:0:0:
252,217,90176,1,0,0:0:0:0:
252,217,90256,1,0,0:0:0:0:
252,217,90336,1,8,0:0:0:0:
252,217,90496,1,0,0:0:0:0:
252,217,90656,1,0,0:0:0:0:
252,217,90816,1,8,0:0:0:0:
253,238,90896,1,0,0:0:0:0:
263,212,90976,1,8,0:0:0:0:
263,212,91056,1,8,0:0:0:0:
248,213,91136,1,0,0:0:0:0:
249,203,91216,1,0,0:0:0:0:
249,203,91296,1,8,0:0:0:0:
252,217,91456,1,8,0:0:0:0:
252,217,91616,1,8,0:0:0:0:
252,217,91776,1,0,0:0:0:0:
249,203,91856,1,8,0:0:0:0:
248,200,91936,1,0,0:0:0:0:
249,203,92016,1,0,0:0:0:0:
249,203,92096,1,8,0:0:0:0:
248,200,92176,1,0,0:0:0:0:
237,189,92256,1,8,0:0:0:0:
261,194,92336,1,8,0:0:0:0:
261,194,92416,1,0,0:0:0:0:
261,211,92496,1,8,0:0:0:0:
266,201,92576,1,0,0:0:0:0:
261,211,92656,1,8,0:0:0:0:
265,203,92736,1,0,0:0:0:0:
271,202,92896,1,8,0:0:0:0:
286,223,92976,1,8,0:0:0:0:
271,220,93056,1,0,0:0:0:0:
271,220,93136,1,0,0:0:0:0:
271,220,93216,1,8,0:0:0:0:
271,220,93376,1,8,0:0:0:0:
271,220,93536,1,8,0:0:0:0:
271,225,93696,1,4,0:0:0:0:
259,226,93856,1,0,0:0:0:0:
260,216,93936,1,0,0:0:0:0:
259,226,94016,1,0,0:0:0:0:
253,203,94096,1,0,0:0:0:0:
259,226,94176,1,8,0:0:0:0:
257,222,94336,1,0,0:0:0:0:
257,222,94496,1,0,0:0:0:0:
260,214,94656,1,8,0:0:0:0:
246,197,94736,1,8,0:0:0:0:
256,201,94816,1,0,0:0:0:0:
260,213,94896,1,8,0:0:0:0:
260,213,94976,1,0,0:0:0:0:
260,213,95056,1,0,0:0:0:0:
260,213,95136,1,8,0:0:0:0:
260,213,95296,1,8,0:0:0:0:
255,193,95376,1,0,0:0:0:0:
255,193,95456,1,8,0:0:0:0:
253,197,95616,5,8,0:0:0:0:
253,197,95696,1,8,0:0:0:0:
253,197,95776,1,0,0:0:0:0:
253,197,95856,1,0,0:0:0:0:
253,197,95936,1,8,0:0:0:0:
253,197,96016,1,0,0:0:0:0:
253,197,96096,1,8,0:0:0:0:
253,197,96176,1,8,0:0:0:0:
253,197,96256,1,8,0:0:0:0:
253,197,96336,1,0,0:0:0:0:
253,197,96416,1,8,0:0:0:0:
253,197,96496,1,8,0:0:0:0:
253,197,96576,1,0,0:0:0:0:
262,199,96656,1,0,0:0:0:0:
262,199,96736,1,8,0:0:0:0:
262,199,96816,1,0,0:0:0:0:
262,199,96896,1,0,0:0:0:0:
257,218,96976,1,0,0:0:0:0:
262,199,97056,1,8,0:0:0:0:
262,199,97136,1,0,0:0:0:0:
262,199,97216,1,8,0:0:0:0:
262,199,97296,1,0,0:0:0:0:
262,199,97376,1,8,0:0:0:0:
249,224,97536,5,12,0:0:0:0:
249,224,98016,1,12,0:0:0:0:
268,188,98496,2,0,L|304:188,8,24.4999992523194
256,208,99456,5,4,0:0:0:0:
256,208,99636,1,0,0:0:0:0:
256,208,99696,1,8,0:0:0:0:
239,200,99816,1,8,0:0:0:0:
239,200,99936,1,0,0:0:0:0:
239,200,99996,1,0,0:0:0:0:
239,200,100056,1,0,0:0:0:0:
243,201,100176,1,8,0:0:0:0:
239,200,100296,1,8,0:0:0:0:
255,196,100356,1,8,0:0:0:0:
255,196,100416,1,0,0:0:0:0:
239,200,100476,1,8,0:0:0:0:
239,200,100536,1,0,0:0:0:0:
239,200,100596,1,0,0:0:0:0:
239,200,100656,1,8,0:0:0:0:
233,196,100776,1,0,0:0:0:0:
233,196,100836,1,0,0:0:0:0:
233,196,100896,1,8,0:0:0:0:
247,204,100956,1,0,0:0:0:0:
267,214,101016,1,0,0:0:0:0:
267,214,101136,1,8,0:0:0:0:
274,196,101256,1,0,0:0:0:0:
243,194,101316,1,0,0:0:0:0:
240,178,101376,1,8,0:0:0:0:
251,201,101436,1,8,0:0:0:0:
252,198,101496,1,0,0:0:0:0:
236,220,101556,1,0,0:0:0:0:
252,198,101616,1,8,0:0:0:0:
260,205,101736,1,0,0:0:0:0:
241,194,101796,1,0,0:0:0:0:
241,194,101856,1,8,0:0:0:0:
251,201,101916,1,0,0:0:0:0:
257,184,101976,1,0,0:0:0:0:
241,194,102036,1,0,0:0:0:0:
241,194,102096,1,8,0:0:0:0:
257,198,102156,1,0,0:0:0:0:
241,194,102216,1,8,0:0:0:0:
241,194,102276,1,8,0:0:0:0:
241,194,102336,1,0,0:0:0:0:
260,208,102456,1,0,0:0:0:0:
260,208,102576,1,8,0:0:0:0:
266,230,102696,1,8,0:0:0:0:
244,196,102756,1,8,0:0:0:0:
241,194,102816,1,0,0:0:0:0:
241,194,102876,1,0,0:0:0:0:
241,194,102936,1,8,0:0:0:0:
246,189,102996,1,0,0:0:0:0:
255,203,103056,1,8,0:0:0:0:
253,183,103176,1,0,0:0:0:0:
254,191,103236,1,0,0:0:0:0:
254,191,103296,1,8,0:0:0:0:
261,187,103416,1,0,0:0:0:0:
261,187,103476,1,0,0:0:0:0:
261,187,103536,1,8,0:0:0:0:
271,204,103596,1,8,0:0:0:0:
271,204,103656,1,0,0:0:0:0:
271,204,103776,1,8,0:0:0:0:
252,191,103896,1,0,0:0:0:0:
252,191,104016,1,8,0:0:0:0:
252,191,104076,1,8,0:0:0:0:
252,191,104136,1,0,0:0:0:0:
252,191,104256,1,8,0:0:0:0:
251,213,104376,1,0,0:0:0:0:
271,204,104436,1,8,0:0:0:0:
271,204,104496,1,0,0:0:0:0:
260,218,104616,1,0,0:0:0:0:
251,228,104676,1,0,0:0:0:0:
260,218,104736,1,8,0:0:0:0:
271,230,104796,1,0,0:0:0:0:
271,230,104856,1,8,0:0:0:0:
260,218,104916,1,8,0:0:0:0:
260,218,104976,1,0,0:0:0:0:
246,257,105096,1,12,0:0:0:0:
286,227,105336,1,0,0:0:0:0:
266,226,105456,1,8,0:0:0:0:
260,218,105516,1,8,0:0:0:0:
258,222,105576,1,0,0:0:0:0:
258,222,105636,1,0,0:0:0:0:
260,218,105696,1,8,0:0:0:0:
260,218,105756,1,0,0:0:0:0:
266,223,105816,1,0,0:0:0:0:
266,223,105936,1,8,0:0:0:0:
259,216,106056,5,4,0:0:0:0:
239,208,106296,1,0,0:0:0:0:
239,208,106416,1,8,0:0:0:0:
260,218,106476,1,0,0:0:0:0:
260,218,106536,1,8,0:0:0:0:
259,222,106596,1,8,0:0:0:0:
259,222,106656,1,0,0:0:0:0:
259,222,106716,1,8,0:0:0:0:
249,220,106776,1,0,0:0:0:0:
249,220,106836,1,0,0:0:0:0:
249,220,106896,1,8,0:0:0:0:
253,189,107136,5,4,0:0:0:0:
253,189,107376,1,0,0:0:0:0:
253,189,107436,1,0,0:0:0:0:
253,189,107496,1,0,0:0:0:0:
253,189,107616,1,0,0:0:0:0:
253,189,107676,1,0,0:0:0:0:
253,189,107736,1,0,0:0:0:0:
253,189,107856,1,0,0:0:0:0:
253,189,107916,1,0,0:0:0:0:
253,189,107976,1,0,0:0:0:0:
253,189,108096,1,8,0:0:0:0:
253,189,108156,1,0,0:0:0:0:
253,189,108216,1,0,0:0:0:0:
253,189,108336,1,8,0:0:0:0:
253,189,108396,1,0,0:0:0:0:
253,189,108456,1,0,0:0:0:0:
253,189,108576,1,8,0:0:0:0:
253,189,108636,1,0,0:0:0:0:
253,189,108696,1,0,0:0:0:0:
253,189,108816,1,8,0:0:0:0:
253,189,108876,1,0,0:0:0:0:
253,189,108936,1,0,0:0:0:0:
253,189,109056,1,8,0:0:0:0:
257,201,109116,1,8,0:0:0:0:
253,189,109176,1,0,0:0:0:0:
253,189,109296,1,8,0:0:0:0:
253,189,109356,1,8,0:0:0:0:
253,189,109416,1,0,0:0:0:0:
253,189,109536,1,8,0:0:0:0:
253,189,109596,1,8,0:0:0:0:
253,189,109656,1,0,0:0:0:0:
253,189,109776,1,8,0:0:0:0:
253,189,109836,1,8,0:0:0:0:
253,189,109896,1,0,0:0:0:0:
258,213,110016,1,8,0:0:0:0:
258,213,110076,1,8,0:0:0:0:
258,213,110136,1,0,0:0:0:0:
258,213,110196,1,0,0:0:0:0:
258,213,110256,1,8,0:0:0:0:
258,213,110316,1,8,0:0:0:0:
258,213,110376,1,0,0:0:0:0:
258,213,110436,1,0,0:0:0:0:
258,213,110496,1,8,0:0:0:0:
253,201,110556,1,0,0:0:0:0:
269,222,110616,1,0,0:0:0:0:
253,201,110676,1,0,0:0:0:0:
269,222,110736,1,8,0:0:0:0:
245,237,110976,1,0,0:0:0:0:
261,187,111096,1,0,0:0:0:0:
261,187,111156,1,0,0:0:0:0:
261,187,111216,1,8,0:0:0:0:
261,187,111276,1,8,0:0:0:0:
261,187,111336,1,0,0:0:0:0:
261,187,111456,1,8,0:0:0:0:
252,191,111576,1,0,0:0:0:0:
252,191,111696,1,8,0:0:0:0:
252,191,111756,1,8,0:0:0:0:
252,191,111816,1,0,0:0:0:0:
252,191,111936,1,8,0:0:0:0:
251,213,112056,1,0,0:0:0:0:
288,192,112116,1,8,0:0:0:0:
288,192,112176,1,0,0:0:0:0:
260,218,112296,1,0,0:0:0:0:
269,228,112356,1,0,0:0:0:0:
260,218,112416,1,8,0:0:0:0:
271,230,112476,1,0,0:0:0:0:
271,230,112536,1,8,0:0:0:0:
260,218,112596,1,8,0:0:0:0:
260,218,112656,1,0,0:0:0:0:
246,257,112776,1,12,0:0:0:0:
286,227,113016,1,0,0:0:0:0:
266,226,113136,1,8,0:0:0:0:
270,216,113196,1,0,0:0:0:0:
270,216,113256,1,8,0:0:0:0:
270,216,113316,1,8,0:0:0:0:
270,216,113376,1,0,0:0:0:0:
270,216,113436,1,8,0:0:0:0:
266,223,113496,1,0,0:0:0:0:
266,223,113616,1,8,0:0:0:0:
259,216,113736,1,4,0:0:0:0:
239,208,113976,1,0,0:0:0:0:
239,208,114096,1,8,0:0:0:0:
260,221,114156,1,0,0:0:0:0:
270,216,114216,1,0,0:0:0:0:
270,216,114276,1,0,0:0:0:0:
270,216,114336,1,8,0:0:0:0:
260,221,114396,1,8,0:0:0:0:
270,216,114456,1,0,0:0:0:0:
270,216,114516,1,0,0:0:0:0:
249,220,114576,1,8,0:0:0:0:
270,216,114636,1,0,0:0:0:0:
249,220,114696,1,8,0:0:0:0:
271,229,114816,1,4,0:0:0:0:
253,216,115056,1,0,0:0:0:0:
253,216,115296,1,8,0:0:0:0:
253,216,115536,1,0,0:0:0:0:
253,216,115656,1,8,0:0:0:0:
253,216,115716,1,8,0:0:0:0:
253,216,115776,1,0,0:0:0:0:
253,216,115896,1,8,0:0:0:0:
253,216,116016,1,0,0:0:0:0:
239,200,116136,1,0,0:0:0:0:
246,208,116256,1,8,0:0:0:0:
246,208,116496,1,0,0:0:0:0:
246,208,116616,1,8,0:0:0:0:
246,208,116736,1,0,0:0:0:0:
246,208,116976,1,0,0:0:0:0:
246,208,117096,1,0,0:0:0:0:
240,192,117156,1,0,0:0:0:0:
246,208,117216,1,8,0:0:0:0:
246,208,117336,1,0,0:0:0:0:
246,208,117456,1,8,0:0:0:0:
246,208,117576,1,8,0:0:0:0:
246,208,117696,1,0,0:0:0:0:
238,225,117816,1,8,0:0:0:0:
238,225,117876,1,0,0:0:0:0:
238,225,117936,1,0,0:0:0:0:
238,225,118056,1,8,0:0:0:0:
238,225,118176,1,0,0:0:0:0:
238,225,118236,1,8,0:0:0:0:
238,225,118296,1,0,0:0:0:0:
238,225,118356,1,0,0:0:0:0:
238,225,118416,1,8,0:0:0:0:
238,225,118476,1,8,0:0:0:0:
238,225,118536,1,0,0:0:0:0:
228,215,118656,1,12,0:0:0:0:
228,215,118896,1,12,0:0:0:0:
228,215,119136,1,12,0:0:0:0:
241,217,119256,1,0,0:0:0:0:
241,217,119376,1,0,0:0:0:0:
241,217,119496,1,0,0:0:0:0:
241,217,119556,1,0,0:0:0:0:
241,217,119616,1,8,0:0:0:0:
241,217,119736,1,0,0:0:0:0:
241,217,119856,1,0,0:0:0:0:
241,217,119976,1,12,0:0:0:0:
241,217,120096,1,0,0:0:0:0:
241,217,120216,1,0,0:0:0:0:
241,217,120336,1,12,0:0:0:0:
254,220,120576,1,4,0:0:0:0:
254,220,120816,1,8,0:0:0:0:
254,220,120936,1,0,0:0:0:0:
254,220,120996,1,0,0:0:0:0:
254,220,121056,1,8,0:0:0:0:
254,220,121176,1,0,0:0:0:0:
254,220,121236,1,0,0:0:0:0:
254,220,121296,1,8,0:0:0:0:
257,230,121356,1,8,0:0:0:0:
254,220,121416,1,0,0:0:0:0:
257,230,121476,1,0,0:0:0:0:
254,220,121536,1,8,0:0:0:0:
255,206,122496,1,4,0:0:0:0:
217,224,122736,1,8,0:0:0:0:
258,222,122976,1,0,0:0:0:0:
258,222,123216,1,8,0:0:0:0:
256,227,123336,1,0,0:0:0:0:
258,222,123576,1,0,0:0:0:0:
258,222,123696,1,8,0:0:0:0:
258,222,123936,1,0,0:0:0:0:
258,222,124176,1,8,0:0:0:0:
258,222,124416,1,0,0:0:0:0:
233,200,124656,1,0,0:0:0:0:
234,207,124776,1,0,0:0:0:0:
233,200,124896,1,8,0:0:0:0:
245,213,125136,1,8,0:0:0:0:
245,213,125376,1,0,0:0:0:0:
245,213,125616,1,8,0:0:0:0:
245,213,125856,1,0,0:0:0:0:
245,213,126096,1,8,0:0:0:0:
240,208,126216,1,8,0:0:0:0:
245,213,126336,1,0,0:0:0:0:
240,208,126576,1,8,0:0:0:0:
240,208,126816,1,0,0:0:0:0:
252,213,127056,1,8,0:0:0:0:
252,213,127176,1,0,0:0:0:0:
240,208,127296,1,0,0:0:0:0:
252,213,127536,1,8,0:0:0:0:
238,206,127656,1,0,0:0:0:0:
238,206,127896,1,0,0:0:0:0:
240,208,128016,1,8,0:0:0:0:
236,206,128256,1,0,0:0:0:0:
229,203,128496,1,0,0:0:0:0:
229,203,128616,1,0,0:0:0:0:
229,203,128736,1,8,0:0:0:0:
236,206,128976,1,8,0:0:0:0:
238,206,129216,1,0,0:0:0:0:
247,205,129576,5,8,0:0:0:0:
247,205,129636,1,8,0:0:0:0:
247,205,129696,1,8,0:0:0:0:
247,205,129816,1,8,0:0:0:0:
247,205,129936,1,0,0:0:0:0:
247,205,130176,1,4,0:0:0:0:
256,206,130416,1,8,0:0:0:0:
245,197,130596,1,8,0:0:0:0:
256,206,130656,1,0,0:0:0:0:
245,197,130776,1,0,0:0:0:0:
256,217,130896,1,8,0:0:0:0:
256,217,131016,1,0,0:0:0:0:
245,197,131256,1,0,0:0:0:0:
256,217,131376,1,8,0:0:0:0:
275,213,131496,1,0,0:0:0:0:
234,178,131556,1,0,0:0:0:0:
275,214,131616,1,0,0:0:0:0:
248,198,131736,1,0,0:0:0:0:
275,213,131856,1,8,0:0:0:0:
272,220,132096,1,0,0:0:0:0:
272,220,132336,1,8,0:0:0:0:
257,200,132456,1,8,0:0:0:0:
257,200,132516,1,8,0:0:0:0:
272,220,132576,1,0,0:0:0:0:
252,192,132696,1,0,0:0:0:0:
252,192,132816,1,8,0:0:0:0:
272,220,133056,1,0,0:0:0:0:
246,187,133236,1,0,0:0:0:0:
262,211,133296,1,8,0:0:0:0:
262,211,133416,1,0,0:0:0:0:
259,206,133536,1,8,0:0:0:0:
291,224,133596,1,8,0:0:0:0:
290,224,133656,1,0,0:0:0:0:
290,224,133716,1,0,0:0:0:0:
247,225,133776,1,8,0:0:0:0:
249,228,133896,1,0,0:0:0:0:
249,228,134016,1,12,0:0:0:0:
256,222,134256,1,12,0:0:0:0:
256,222,134496,1,12,0:0:0:0:
255,212,134736,1,0,0:0:0:0:
255,212,134856,1,0,0:0:0:0:
256,216,134976,1,12,0:0:0:0:
246,232,135096,1,0,0:0:0:0:
246,232,135156,1,0,0:0:0:0:
256,216,135216,1,0,0:0:0:0:
256,216,135336,1,12,0:0:0:0:
246,232,135456,1,0,0:0:0:0:
246,232,135516,1,0,0:0:0:0:
256,216,135576,1,0,0:0:0:0:
256,216,135696,1,12,0:0:0:0:
242,210,135936,1,4,0:0:0:0:
236,216,136176,1,8,0:0:0:0:
236,216,136236,1,8,0:0:0:0:
236,216,136296,1,0,0:0:0:0:
245,214,136356,1,0,0:0:0:0:
236,216,136416,1,8,0:0:0:0:
236,216,136476,1,0,0:0:0:0:
236,216,136536,1,0,0:0:0:0:
236,216,136596,1,0,0:0:0:0:
236,216,136656,1,8,0:0:0:0:
236,216,136776,1,0,0:0:0:0:
256,216,136896,1,12,0:0:0:0:
247,212,137016,1,0,0:0:0:0:
247,223,137136,1,4,0:0:0:0:
236,216,137256,1,12,0:0:0:0:
247,213,137376,1,0,0:0:0:0:
247,223,137496,1,4,0:0:0:0:
240,217,137616,1,12,0:0:0:0:
261,229,137856,1,4,0:0:0:0:
254,193,145536,5,0,0:0:0:0:
254,193,145776,1,8,0:0:0:0:
247,204,146016,1,0,0:0:0:0:
247,204,146256,1,8,0:0:0:0:
247,204,146376,1,8,0:0:0:0:
247,204,146616,1,0,0:0:0:0:
247,204,146736,1,8,0:0:0:0:
247,204,146856,1,8,0:0:0:0:
247,204,146976,1,0,0:0:0:0:
247,204,147216,1,8,0:0:0:0:
247,204,147456,1,0,0:0:0:0:
247,204,147696,1,0,0:0:0:0:
247,204,147936,1,8,0:0:0:0:
247,204,148176,1,8,0:0:0:0:
247,204,148416,1,0,0:0:0:0:
259,207,149136,1,8,0:0:0:0:
259,207,149376,1,0,0:0:0:0:
261,203,150096,1,0,0:0:0:0:
261,203,150336,1,8,0:0:0:0:
255,221,151056,1,8,0:0:0:0:
255,221,151176,1,4,0:0:0:0:
251,213,151416,1,0,0:0:0:0:
251,213,151476,1,0,0:0:0:0:
251,213,151536,1,8,0:0:0:0:
242,208,151596,1,0,0:0:0:0:
237,221,151656,1,8,0:0:0:0:
237,221,151716,1,8,0:0:0:0:
237,221,151776,1,0,0:0:0:0:
241,209,151836,1,8,0:0:0:0:
241,209,151896,1,0,0:0:0:0:
241,209,151956,1,0,0:0:0:0:
256,208,152016,1,8,0:0:0:0:
264,213,152136,1,4,0:0:0:0:
256,192,152256,12,0,152736,0:0:0:0:
262,238,153216,5,4,0:0:0:0:
220,185,153336,1,0,0:0:0:0:
256,208,153396,1,0,0:0:0:0:
256,208,153456,1,8,0:0:0:0:
220,185,153576,1,0,0:0:0:0:
220,185,153696,1,8,0:0:0:0:
220,185,153756,1,8,0:0:0:0:
243,201,153816,1,0,0:0:0:0:
256,208,153876,1,0,0:0:0:0:
243,201,153936,1,8,0:0:0:0:
251,197,154056,1,0,0:0:0:0:
255,196,154116,1,8,0:0:0:0:
255,196,154176,1,0,0:0:0:0:
255,196,154236,1,0,0:0:0:0:
255,196,154296,1,8,0:0:0:0:
260,210,154356,1,0,0:0:0:0:
260,210,154416,1,8,0:0:0:0:
260,210,154476,1,8,0:0:0:0:
260,210,154536,1,0,0:0:0:0:
260,210,154596,1,0,0:0:0:0:
260,210,154656,1,8,0:0:0:0:
267,214,154776,1,0,0:0:0:0:
260,219,154836,1,0,0:0:0:0:
267,214,154896,1,8,0:0:0:0:
243,194,155016,1,0,0:0:0:0:
240,178,155136,1,8,0:0:0:0:
260,205,155196,1,0,0:0:0:0:
252,198,155256,1,0,0:0:0:0:
260,210,155316,1,0,0:0:0:0:
252,198,155376,1,8,0:0:0:0:
260,205,155496,1,0,0:0:0:0:
241,194,155556,1,0,0:0:0:0:
241,194,155616,1,8,0:0:0:0:
243,194,155676,1,0,0:0:0:0:
257,184,155736,1,0,0:0:0:0:
241,194,155796,1,0,0:0:0:0:
241,194,155856,1,8,0:0:0:0:
246,198,155916,1,8,0:0:0:0:
241,194,155976,1,8,0:0:0:0:
241,194,156036,1,8,0:0:0:0:
241,194,156096,1,0,0:0:0:0:
260,208,156216,1,0,0:0:0:0:
260,208,156336,1,8,0:0:0:0:
247,207,156456,1,8,0:0:0:0:
257,184,156516,1,0,0:0:0:0:
252,184,156576,1,8,0:0:0:0:
250,202,156636,1,8,0:0:0:0:
241,194,156696,1,0,0:0:0:0:
254,194,156756,1,0,0:0:0:0:
255,203,156816,1,8,0:0:0:0:
260,208,156936,1,0,0:0:0:0:
260,208,156996,1,0,0:0:0:0:
255,203,157056,1,0,0:0:0:0:
261,187,157176,1,0,0:0:0:0:
261,187,157236,1,0,0:0:0:0:
261,187,157296,1,8,0:0:0:0:
253,222,157356,1,8,0:0:0:0:
253,222,157416,1,0,0:0:0:0:
259,209,157476,1,8,0:0:0:0:
261,187,157536,1,0,0:0:0:0:
252,191,157656,1,0,0:0:0:0:
252,191,157776,1,8,0:0:0:0:
252,191,157836,1,8,0:0:0:0:
252,191,157896,1,0,0:0:0:0:
252,191,158016,1,8,0:0:0:0:
251,213,158136,1,0,0:0:0:0:
271,230,158196,1,0,0:0:0:0:
271,230,158256,1,8,0:0:0:0:
271,230,158316,1,8,0:0:0:0:
260,218,158376,1,0,0:0:0:0:
265,232,158436,1,0,0:0:0:0:
260,218,158496,1,8,0:0:0:0:
271,230,158556,1,0,0:0:0:0:
271,230,158616,1,8,0:0:0:0:
260,218,158676,1,8,0:0:0:0:
260,218,158736,1,0,0:0:0:0:
246,257,158856,1,12,0:0:0:0:
286,227,159096,1,0,0:0:0:0:
266,226,159216,1,8,0:0:0:0:
283,213,159276,1,0,0:0:0:0:
283,213,159336,1,8,0:0:0:0:
283,213,159396,1,8,0:0:0:0:
283,213,159456,1,0,0:0:0:0:
283,213,159516,1,8,0:0:0:0:
266,223,159576,1,0,0:0:0:0:
270,230,159636,1,0,0:0:0:0:
266,223,159696,1,8,0:0:0:0:
259,216,159816,1,4,0:0:0:0:
239,208,160056,1,0,0:0:0:0:
256,234,160116,1,0,0:0:0:0:
239,208,160176,1,8,0:0:0:0:
256,234,160236,1,0,0:0:0:0:
239,208,160296,1,0,0:0:0:0:
239,208,160356,1,0,0:0:0:0:
259,236,160416,1,8,0:0:0:0:
259,236,160476,1,8,0:0:0:0:
249,220,160536,1,0,0:0:0:0:
249,220,160596,1,0,0:0:0:0:
249,220,160656,1,8,0:0:0:0:
256,234,160716,1,0,0:0:0:0:
249,220,160776,1,8,0:0:0:0:
249,220,160896,1,4,0:0:0:0:
261,247,161076,1,0,0:0:0:0:
241,237,161136,1,8,0:0:0:0:
254,217,161256,1,0,0:0:0:0:
254,242,161316,1,0,0:0:0:0:
254,217,161376,1,8,0:0:0:0:
219,211,161436,1,0,0:0:0:0:
219,211,161496,1,0,0:0:0:0:
254,216,161616,1,8,0:0:0:0:
236,225,161736,1,8,0:0:0:0:
253,227,161796,1,8,0:0:0:0:
249,225,161856,1,0,0:0:0:0:
256,234,161916,1,8,0:0:0:0:
256,234,161976,1,0,0:0:0:0:
248,237,162036,1,0,0:0:0:0:
248,237,162096,1,8,0:0:0:0:
254,227,162156,1,8,0:0:0:0:
256,247,162216,1,0,0:0:0:0:
256,247,162276,1,0,0:0:0:0:
256,247,162336,1,8,0:0:0:0:
254,234,162456,1,0,0:0:0:0:
254,234,162576,1,8,0:0:0:0:
249,224,162696,1,0,0:0:0:0:
249,224,162756,1,0,0:0:0:0:
247,228,162816,1,8,0:0:0:0:
247,228,162876,1,8,0:0:0:0:
247,228,162936,1,0,0:0:0:0:
247,228,163056,1,8,0:0:0:0:
247,228,163176,1,0,0:0:0:0:
247,228,163236,1,0,0:0:0:0:
247,228,163296,1,8,0:0:0:0:
240,217,163356,1,0,0:0:0:0:
240,217,163416,1,0,0:0:0:0:
240,217,163476,1,0,0:0:0:0:
240,217,163536,1,8,0:0:0:0:
266,218,163656,1,0,0:0:0:0:
242,208,163716,1,0,0:0:0:0:
251,230,163776,1,8,0:0:0:0:
251,230,163836,1,8,0:0:0:0:
251,230,163896,1,8,0:0:0:0:
251,230,163956,1,8,0:0:0:0:
242,231,164016,1,0,0:0:0:0:
242,231,164076,1,8,0:0:0:0:
240,217,164136,1,0,0:0:0:0:
240,217,164196,1,0,0:0:0:0:
240,217,164256,1,8,0:0:0:0:
240,217,164316,1,8,0:0:0:0:
240,217,164376,1,0,0:0:0:0:
175,180,164436,1,0,0:0:0:0:
240,217,164496,1,8,0:0:0:0:
245,237,164616,1,0,0:0:0:0:
245,237,164676,1,0,0:0:0:0:
245,237,164736,1,0,0:0:0:0:
261,187,164856,1,0,0:0:0:0:
261,187,164916,1,0,0:0:0:0:
261,187,164976,1,8,0:0:0:0:
274,222,165036,1,8,0:0:0:0:
274,222,165096,1,0,0:0:0:0:
248,216,165156,1,8,0:0:0:0:
261,187,165216,1,0,0:0:0:0:
252,191,165336,1,0,0:0:0:0:
252,191,165456,1,8,0:0:0:0:
252,191,165516,1,8,0:0:0:0:
252,191,165576,1,0,0:0:0:0:
252,191,165696,1,8,0:0:0:0:
251,213,165816,1,0,0:0:0:0:
271,230,165876,1,0,0:0:0:0:
271,230,165936,1,8,0:0:0:0:
248,216,165996,1,8,0:0:0:0:
260,218,166056,1,0,0:0:0:0:
248,216,166116,1,0,0:0:0:0:
260,218,166176,1,8,0:0:0:0:
271,230,166236,1,0,0:0:0:0:
271,230,166296,1,8,0:0:0:0:
260,218,166356,1,8,0:0:0:0:
260,218,166416,1,0,0:0:0:0:
246,257,166536,1,12,0:0:0:0:
286,227,166776,1,0,0:0:0:0:
266,226,166896,1,8,0:0:0:0:
266,223,166956,1,8,0:0:0:0:
266,223,167016,1,0,0:0:0:0:
266,223,167076,1,0,0:0:0:0:
266,223,167136,1,8,0:0:0:0:
266,223,167196,1,0,0:0:0:0:
266,223,167256,1,0,0:0:0:0:
248,210,167316,1,0,0:0:0:0:
266,223,167376,1,8,0:0:0:0:
259,216,167496,1,4,0:0:0:0:
239,208,167736,1,0,0:0:0:0:
260,220,167796,1,0,0:0:0:0:
239,208,167856,1,8,0:0:0:0:
239,208,167916,1,0,0:0:0:0:
254,231,167976,1,8,0:0:0:0:
254,231,168036,1,8,0:0:0:0:
254,231,168096,1,0,0:0:0:0:
249,220,168156,1,8,0:0:0:0:
249,220,168216,1,0,0:0:0:0:
249,220,168276,1,0,0:0:0:0:
249,220,168336,1,8,0:0:0:0:
259,218,168396,1,0,0:0:0:0:
249,220,168456,1,8,0:0:0:0:
271,229,168576,1,4,0:0:0:0:
254,231,168816,1,0,0:0:0:0:
245,227,169056,1,8,0:0:0:0:
245,227,169296,1,0,0:0:0:0:
254,231,169416,1,8,0:0:0:0:
254,231,169456,1,8,0:0:0:0:
254,231,169496,1,8,0:0:0:0:
254,231,169536,1,0,0:0:0:0:
256,236,169656,1,8,0:0:0:0:
256,236,169776,1,0,0:0:0:0:
261,219,169896,1,0,0:0:0:0:
261,233,170016,1,8,0:0:0:0:
261,233,170256,1,0,0:0:0:0:
261,219,170376,1,8,0:0:0:0:
261,219,170496,1,0,0:0:0:0:
261,213,170736,1,0,0:0:0:0:
261,213,170856,1,0,0:0:0:0:
261,213,170916,1,0,0:0:0:0:
261,213,170976,1,8,0:0:0:0:
261,213,171096,1,0,0:0:0:0:
261,213,171216,1,8,0:0:0:0:
261,213,171336,1,8,0:0:0:0:
250,215,171396,1,8,0:0:0:0:
261,213,171456,1,0,0:0:0:0:
250,215,171576,1,0,0:0:0:0:
261,213,171636,1,8,0:0:0:0:
261,213,171696,1,0,0:0:0:0:
257,217,171816,1,8,0:0:0:0:
257,217,171876,1,8,0:0:0:0:
257,217,171936,1,0,0:0:0:0:
257,217,171996,1,8,0:0:0:0:
257,217,172056,1,0,0:0:0:0:
257,217,172116,1,0,0:0:0:0:
257,217,172176,1,8,0:0:0:0:
257,217,172236,1,8,0:0:0:0:
257,217,172296,1,0,0:0:0:0:
262,229,172416,1,12,0:0:0:0:
262,229,172656,1,12,0:0:0:0:
262,229,172896,1,12,0:0:0:0:
262,229,173016,1,0,0:0:0:0:
262,229,173136,1,0,0:0:0:0:
262,229,173256,1,0,0:0:0:0:
262,229,173316,1,0,0:0:0:0:
262,229,173376,1,8,0:0:0:0:
262,229,173496,1,0,0:0:0:0:
262,229,173616,1,0,0:0:0:0:
262,229,173736,1,12,0:0:0:0:
262,229,173856,1,0,0:0:0:0:
262,229,173976,1,0,0:0:0:0:
262,229,174096,1,12,0:0:0:0:
267,232,174336,1,4,0:0:0:0:
251,238,174576,1,8,0:0:0:0:
251,237,174696,1,0,0:0:0:0:
251,237,174756,1,0,0:0:0:0:
251,237,174816,1,8,0:0:0:0:
261,221,174876,1,8,0:0:0:0:
251,237,174936,1,0,0:0:0:0:
251,237,174996,1,0,0:0:0:0:
251,237,175056,1,8,0:0:0:0:
251,238,175176,1,0,0:0:0:0:
248,217,175296,1,12,0:0:0:0:
231,200,175416,1,0,0:0:0:0:
248,217,175536,1,4,0:0:0:0:
248,217,175656,1,12,0:0:0:0:
231,200,175776,1,0,0:0:0:0:
231,211,175896,1,4,0:0:0:0:
238,190,176016,1,12,0:0:0:0:
228,202,176256,1,12,0:0:0:0:
234,207,176496,1,12,0:0:0:0:
237,206,176736,1,12,0:0:0:0:
237,206,176856,1,0,0:0:0:0:
237,217,176976,1,0,0:0:0:0:
249,217,177036,1,0,0:0:0:0:
249,217,177096,1,0,0:0:0:0:
249,217,177156,1,0,0:0:0:0:
249,217,177216,1,8,0:0:0:0:
249,217,177336,1,0,0:0:0:0:
249,217,177396,1,0,0:0:0:0:
249,217,177456,1,0,0:0:0:0:
249,217,177576,1,12,0:0:0:0:
249,217,177696,1,0,0:0:0:0:
249,217,177756,1,0,0:0:0:0:
249,217,177816,1,0,0:0:0:0:
249,217,177936,1,12,0:0:0:0:
249,217,178176,1,4,0:0:0:0:
249,217,178416,1,8,0:0:0:0:
249,217,178536,1,0,0:0:0:0:
249,217,178596,1,0,0:0:0:0:
249,217,178656,1,8,0:0:0:0:
246,201,178716,1,8,0:0:0:0:
249,217,178776,1,0,0:0:0:0:
249,217,178836,1,0,0:0:0:0:
249,217,178896,1,8,0:0:0:0:
223,206,178956,1,0,0:0:0:0:
249,217,179016,1,0,0:0:0:0:
249,217,179076,1,0,0:0:0:0:
249,217,179136,1,8,0:0:0:0:
210,189,180096,1,4,0:0:0:0:
275,208,180276,1,0,0:0:0:0:
261,201,180336,1,8,0:0:0:0:
262,205,180456,1,0,0:0:0:0:
262,205,180516,1,0,0:0:0:0:
261,201,180576,1,0,0:0:0:0:
261,201,180696,1,0,0:0:0:0:
261,201,180816,1,8,0:0:0:0:
261,201,180936,1,0,0:0:0:0:
260,184,180996,1,0,0:0:0:0:
258,196,181056,1,8,0:0:0:0:
260,184,181116,1,8,0:0:0:0:
262,205,181176,1,0,0:0:0:0:
230,192,181236,1,0,0:0:0:0:
262,205,181296,1,8,0:0:0:0:
231,203,181416,1,8,0:0:0:0:
231,203,181476,1,8,0:0:0:0:
231,203,181536,1,0,0:0:0:0:
261,201,181656,1,0,0:0:0:0:
261,201,181776,1,8,0:0:0:0:
253,217,181896,1,8,0:0:0:0:
242,200,181956,1,0,0:0:0:0:
242,200,182016,1,8,0:0:0:0:
242,200,182076,1,8,0:0:0:0:
242,200,182136,1,0,0:0:0:0:
226,202,182196,1,0,0:0:0:0:
226,198,182256,1,8,0:0:0:0:
237,204,182316,1,0,0:0:0:0:
237,204,182376,1,8,0:0:0:0:
226,202,182496,1,0,0:0:0:0:
223,195,182616,1,0,0:0:0:0:
251,207,182676,1,0,0:0:0:0:
223,195,182736,1,8,0:0:0:0:
241,208,182856,1,0,0:0:0:0:
234,215,182976,1,8,0:0:0:0:
234,215,183036,1,0,0:0:0:0:
234,215,183096,1,0,0:0:0:0:
251,207,183156,1,0,0:0:0:0:
227,208,183216,1,8,0:0:0:0:
226,210,183276,1,8,0:0:0:0:
227,208,183336,1,0,0:0:0:0:
227,208,183456,1,8,0:0:0:0:
241,208,183576,1,0,0:0:0:0:
251,209,183636,1,0,0:0:0:0:
270,231,183696,1,8,0:0:0:0:
241,208,183756,1,0,0:0:0:0:
252,220,183816,1,0,0:0:0:0:
240,226,183936,1,0,0:0:0:0:
240,242,184056,1,0,0:0:0:0:
240,242,184116,1,0,0:0:0:0:
240,242,184176,1,8,0:0:0:0:
245,229,184296,1,8,0:0:0:0:
218,225,184356,1,0,0:0:0:0:
240,242,184416,1,0,0:0:0:0:
240,242,184536,1,0,0:0:0:0:
240,242,184656,1,8,0:0:0:0:
243,209,184776,1,0,0:0:0:0:
243,209,184836,1,0,0:0:0:0:
243,209,184896,1,8,0:0:0:0:
240,242,184956,1,8,0:0:0:0:
240,242,185016,1,0,0:0:0:0:
254,226,185076,1,0,0:0:0:0:
240,242,185136,1,8,0:0:0:0:
276,219,185256,1,0,0:0:0:0:
276,219,185316,1,8,0:0:0:0:
258,225,185376,1,0,0:0:0:0:
240,242,185496,1,0,0:0:0:0:
240,242,185616,1,8,0:0:0:0:
251,203,185736,1,0,0:0:0:0:
271,243,185796,1,0,0:0:0:0:
271,243,185856,1,8,0:0:0:0:
251,203,185916,1,0,0:0:0:0:
251,203,185976,1,8,0:0:0:0:
258,225,186036,1,8,0:0:0:0:
251,203,186096,1,0,0:0:0:0:
258,225,186156,1,0,0:0:0:0:
252,240,186216,1,8,0:0:0:0:
252,241,186336,1,0,0:0:0:0:
264,261,186456,1,0,0:0:0:0:
219,214,186516,1,0,0:0:0:0:
264,261,186576,1,8,0:0:0:0:
281,267,186696,1,0,0:0:0:0:
281,268,186816,1,8,0:0:0:0:
281,268,186876,1,8,0:0:0:0:
281,268,186936,1,0,0:0:0:0:
254,258,186996,1,0,0:0:0:0:
254,258,187056,1,8,0:0:0:0:
254,258,187116,1,0,0:0:0:0:
254,258,187176,1,0,0:0:0:0:
222,217,187236,1,0,0:0:0:0:
288,258,187296,1,8,0:0:0:0:
249,226,187476,1,0,0:0:0:0:
256,234,187536,1,0,0:0:0:0:
256,234,187656,1,8,0:0:0:0:
250,224,187776,1,4,0:0:0:0:
271,213,187956,1,0,0:0:0:0:
271,213,188016,1,8,0:0:0:0:
271,213,188136,1,0,0:0:0:0:
271,213,188196,1,0,0:0:0:0:
271,213,188256,1,0,0:0:0:0:
271,213,188376,1,0,0:0:0:0:
271,213,188496,1,8,0:0:0:0:
271,213,188616,1,0,0:0:0:0:
271,213,188676,1,0,0:0:0:0:
271,213,188736,1,8,0:0:0:0:
271,213,188796,1,8,0:0:0:0:
271,213,188856,1,0,0:0:0:0:
271,223,188916,1,0,0:0:0:0:
271,213,188976,1,8,0:0:0:0:
256,247,189096,1,8,0:0:0:0:
256,247,189156,1,8,0:0:0:0:
256,247,189216,1,0,0:0:0:0:
271,213,189336,1,0,0:0:0:0:
271,213,189456,1,8,0:0:0:0:
271,213,189576,1,8,0:0:0:0:
271,213,189636,1,0,0:0:0:0:
271,218,189696,1,8,0:0:0:0:
271,218,189756,1,8,0:0:0:0:
271,218,189816,1,0,0:0:0:0:
286,227,189876,1,0,0:0:0:0:
271,218,189936,1,8,0:0:0:0:
271,223,189996,1,0,0:0:0:0:
271,223,190056,1,8,0:0:0:0:
286,227,190176,1,0,0:0:0:0:
271,218,190296,1,0,0:0:0:0:
262,211,190356,1,0,0:0:0:0:
271,218,190416,1,8,0:0:0:0:
271,218,190536,1,0,0:0:0:0:
271,218,190656,1,8,0:0:0:0:
269,212,190716,1,0,0:0:0:0:
271,218,190776,1,0,0:0:0:0:
262,211,190836,1,0,0:0:0:0:
271,218,190896,1,8,0:0:0:0:
269,212,190956,1,8,0:0:0:0:
271,218,191016,1,0,0:0:0:0:
271,218,191136,1,8,0:0:0:0:
271,218,191256,1,0,0:0:0:0:
269,212,191316,1,0,0:0:0:0:
271,218,191376,1,8,0:0:0:0:
269,212,191436,1,0,0:0:0:0:
266,189,191496,1,0,0:0:0:0:
271,218,191616,1,0,0:0:0:0:
271,218,191736,1,0,0:0:0:0:
271,218,191796,1,0,0:0:0:0:
271,218,191856,1,8,0:0:0:0:
257,211,191976,1,8,0:0:0:0:
251,214,192036,1,0,0:0:0:0:
271,218,192096,1,0,0:0:0:0:
271,218,192216,1,0,0:0:0:0:
271,218,192336,1,8,0:0:0:0:
251,214,192456,1,0,0:0:0:0:
251,214,192516,1,0,0:0:0:0:
251,214,192576,1,8,0:0:0:0:
271,218,192636,1,8,0:0:0:0:
271,218,192696,1,0,0:0:0:0:
259,223,192756,1,0,0:0:0:0:
271,218,192816,1,8,0:0:0:0:
251,211,192936,1,0,0:0:0:0:
253,193,192996,1,8,0:0:0:0:
253,193,193056,1,0,0:0:0:0:
256,208,193176,1,0,0:0:0:0:
256,208,193296,1,8,0:0:0:0:
256,208,193416,1,0,0:0:0:0:
250,211,193476,1,0,0:0:0:0:
250,211,193536,1,8,0:0:0:0:
256,208,193596,1,0,0:0:0:0:
256,208,193656,1,8,0:0:0:0:
253,193,193716,1,8,0:0:0:0:
256,208,193776,1,0,0:0:0:0:
259,223,193836,1,0,0:0:0:0:
250,211,193896,1,8,0:0:0:0:
250,211,194016,1,0,0:0:0:0:
256,208,194076,1,0,0:0:0:0:
246,210,194136,1,0,0:0:0:0:
245,203,194196,1,0,0:0:0:0:
246,210,194256,1,8,0:0:0:0:
246,210,194376,1,0,0:0:0:0:
241,193,194496,1,8,0:0:0:0:
241,193,194556,1,8,0:0:0:0:
241,193,194616,1,0,0:0:0:0:
241,193,194676,1,0,0:0:0:0:
241,193,194736,1,8,0:0:0:0:
241,193,194796,1,0,0:0:0:0:
241,193,194856,1,0,0:0:0:0:
225,180,194916,1,0,0:0:0:0:
229,186,194976,1,8,0:0:0:0:
239,184,195036,1,0,0:0:0:0:
239,184,195096,1,8,0:0:0:0:
239,184,195156,1,8,0:0:0:0:
239,184,195216,1,0,0:0:0:0:
239,184,195276,1,0,0:0:0:0:
229,186,195336,1,8,0:0:0:0:
244,213,195456,1,4,0:0:0:0:
266,204,195696,1,0,0:0:0:0:
231,201,195816,1,8,0:0:0:0:
260,200,196056,1,8,0:0:0:0:
260,200,196116,1,8,0:0:0:0:
260,200,196176,1,0,0:0:0:0:
262,206,196416,1,8,0:0:0:0:
261,204,196896,1,12,0:0:0:0:
