osu file format v14

[General]
AudioFilename: audio.mp3
AudioLeadIn: 0
PreviewTime: 73396
Countdown: 0
SampleSet: Soft
StackLeniency: 0.7
Mode: 0
LetterboxInBreaks: 0
WidescreenStoryboard: 0

[Editor]
DistanceSpacing: 0.9
BeatDivisor: 4
GridSize: 4
TimelineZoom: 1.7

[Metadata]
Title:Saikou Heart (TV Size)
TitleUnicode:サイコーハート (TV Size)
Artist:Miyashita Ai (CV: Murakami Natsumi)
ArtistUnicode:宮下 愛 (CV: 村上奈津実)
Creator:Andrea
Version:Sekai's Insane
Source:ラブライブ!虹ヶ咲学園スクールアイドル同好会
Tags:Ayaka Miyake PASSiON KiNG Videogame VGM Sekai Sekaii Sekai-nyan osuplayer111 Darksonic HabiHolic love live! nijigasaki high school idol club gakuen doukoukai doukou kai nijigaku ニジガク llas sifas スクスタ festival all stars スクールアイドルフェスティバル perfect dream project pdp insert anime video game japanese pop jpop j-pop
BeatmapID:2681636
BeatmapSetID:1292050

[Difficulty]
HPDrainRate:6
CircleSize:4.5
OverallDifficulty:7
ApproachRate:8.5
SliderMultiplier:1.6
SliderTickRate:2

[Events]
//Background and Video events
0,0,"aiaiaiai.jpg",0,0
Video,-200,"Video.mp4"
//Break Periods
//Storyboard Layer 0 (Background)
//Storyboard Layer 1 (Fail)
//Storyboard Layer 2 (Pass)
//Storyboard Layer 3 (Foreground)
//Storyboard Layer 4 (Overlay)
//Storyboard Sound Samples

[TimingPoints]
5240,375,4,2,1,40,1,0
5240,-125,4,2,1,40,0,0
6740,-125,4,2,1,20,0,0
7490,-125,4,2,1,40,0,0
9365,-200,4,2,1,40,0,0
10677,-125,4,2,1,5,0,0
11240,-125,4,2,1,40,0,0
12740,-125,4,2,1,20,0,0
13302,-125,4,2,1,40,0,0
14240,-125,4,2,1,30,0,0
18365,-125,4,2,1,5,0,0
18740,-111.111111111111,4,2,1,50,0,0
19115,-111.111111111111,4,1,1,40,0,0
20615,-111.111111111111,4,2,1,50,0,0
21740,-100,4,1,1,60,0,0
32896,-100,4,1,1,5,0,0
32990,-100,4,1,1,60,0,0
33740,-111.111111111111,4,2,1,50,0,0
39646,-111.111111111111,4,2,1,40,0,0
39740,-111.111111111111,4,2,1,50,0,0
40677,-83.3333333333333,4,2,1,50,0,0
40865,-111.111111111111,4,2,1,50,0,0
42177,-83.3333333333333,4,2,1,50,0,0
42365,-111.111111111111,4,2,1,50,0,0
44521,-111.111111111111,4,2,1,5,0,0
44615,-111.111111111111,4,2,1,50,0,0
44896,-111.111111111111,4,2,1,5,0,0
44990,-111.111111111111,4,2,1,50,0,0
52865,-83.3333333333333,4,2,1,50,0,0
53052,-111.111111111111,4,2,1,50,0,0
54365,-83.3333333333333,4,2,1,50,0,0
54552,-111.111111111111,4,2,1,50,0,0
57740,-125,4,2,1,50,0,0
59427,-125,4,2,2,40,0,0
59615,-125,4,2,1,50,0,0
62427,-125,4,2,2,40,0,0
62615,-125,4,2,1,50,0,0
63740,-111.111111111111,4,2,1,50,0,0
66740,-100,4,2,1,55,0,0
69740,-100,4,2,1,60,0,0
71240,-100,4,1,1,50,0,0
72740,-100,4,2,1,20,0,0
73490,-125,4,2,1,40,0,0
73771,-125,4,2,1,5,0,0
73865,-66.6666666666667,4,2,1,50,0,0
74146,-125,4,2,1,5,0,0
74240,-90.9090909090909,4,1,1,60,0,1
86146,-90.9090909090909,4,1,1,60,0,0
86240,-90.9090909090909,4,1,1,60,0,1
98240,-111.111111111111,4,2,1,50,0,0
101333,-111.111111111111,4,2,1,40,0,0
101615,-111.111111111111,4,2,1,35,0,0
101990,-111.111111111111,4,2,1,30,0,0
102365,-111.111111111111,4,2,1,25,0,0
102740,-111.111111111111,4,2,1,20,0,0
103115,-111.111111111111,4,2,1,15,0,0
103490,-111.111111111111,4,2,1,10,0,0
103677,-111.111111111111,4,2,1,5,0,0

[Colours]
Combo1 : 255,255,170
Combo2 : 255,98,21
SliderBorder : 255,255,170
SliderTrackOverride : 255,98,21

[HitObjects]
72,328,5240,6,0,L|200:312,1,128,2|0,0:0|0:0,0:0:0:0:
280,196,5802,2,0,P|308:240|296:312,1,128,2|0,0:0|0:0,0:0:0:0:
160,204,6365,2,0,L|32:220,1,128,2|0,0:0|0:0,0:0:0:0:
32,219,7490,1,2,0:0:0:0:
84,100,7677,1,0,0:0:0:0:
160,204,7865,1,2,0:0:0:0:
160,204,8240,6,0,P|216:224|280:184,1,128,2|0,0:0|0:0,0:0:0:0:
360,88,8802,2,0,P|304:68|240:108,1,128,2|0,0:0|0:0,0:0:0:0:
160,73,9365,2,0,P|273:-3|408:20,1,280,2|0,0:0|0:0,0:0:0:0:
407,19,11240,5,2,0:0:0:0:
352,100,11427,1,0,0:0:0:0:
407,19,11615,1,0,0:0:0:0:
468,104,11802,2,0,P|468:148|404:212,1,128,2|0,0:0|0:0,0:0:0:0:
286,209,12365,2,0,L|358:89,1,128,2|0,0:0|0:0,0:0:0:0:
414,208,13302,5,0,0:0:0:0:
286,209,13490,2,0,L|328:144,1,64,2|0,0:0|0:0,0:0:0:0:
364,280,13865,2,0,L|329:333,1,64,2|0,0:0|0:0,0:0:0:0:
286,209,14240,1,2,0:0:0:0:
256,192,14333,12,0,18365,0:0:0:0:
176,340,18740,5,4,0:0:0:0:
176,340,18927,1,0,0:0:0:0:
128,228,19115,2,0,L|116:200,7,17.9999994506836
196,208,19490,2,0,L|203:224,7,17.9999994506836
260,172,19865,2,0,L|252:155,7,17.9999994506836
332,156,20240,2,0,L|339:172,7,17.9999994506836
368,244,20615,5,2,0:0:0:0:
432,124,20802,1,0,0:0:0:0:
496,248,20990,1,2,0:0:0:0:
496,248,21365,2,0,P|484:300|464:324,1,71.9999978027344,2|0,0:0|0:0,0:0:0:0:
432,124,21740,6,0,L|508:100,1,80,4|0,1:2|1:0,0:0:0:0:
400,52,22021,1,0,1:0:0:0:
400,52,22115,2,0,L|324:76,1,80,8|8,1:0|1:0,0:0:0:0:
188,76,22490,2,0,L|112:52,1,80,2|0,1:0|1:0,0:0:0:0:
4,99,22771,1,0,1:0:0:0:
4,99,22865,2,0,L|80:123,1,80,8|0,1:0|1:0,0:0:0:0:
164,268,23240,6,0,P|176:224|180:180,1,80,2|0,1:0|1:0,0:0:0:0:
76,248,23521,1,0,1:0:0:0:
76,248,23615,2,0,P|80:287|91:326,1,80,8|8,1:0|1:0,0:0:0:0:
260,296,23990,2,0,P|272:252|276:208,1,80,2|0,1:0|1:0,0:0:0:0:
268,128,24271,1,0,1:0:0:0:
268,128,24365,2,0,L|360:144,1,80,8|0,1:0|1:0,0:0:0:0:
260,296,24740,6,0,L|168:280,1,80,2|0,1:0|1:0,0:0:0:0:
152,192,25021,1,0,1:0:0:0:
152,192,25115,2,0,L|230:205,1,80,8|8,1:0|1:0,0:0:0:0:
216,16,25490,2,0,P|188:64|192:100,1,80,2|0,1:0|1:0,0:0:0:0:
280,76,25771,1,0,1:0:0:0:
280,76,25865,2,0,B|312:76|312:76|328:84|328:84|364:84,1,80,8|0,1:0|1:0,0:0:0:0:
424,252,26240,6,0,L|460:168,1,80,2|0,1:0|1:0,0:0:0:0:
356,208,26521,1,0,1:0:0:0:
356,208,26615,2,0,L|324:281,1,80,8|8,1:0|1:0,0:0:0:0:
88,252,26990,2,0,L|52:168,1,80,2|0,1:0|1:0,0:0:0:0:
156,208,27271,1,0,1:0:0:0:
156,208,27365,2,0,L|187:281,1,80,8|0,1:0|1:0,0:0:0:0:
256,72,27740,6,0,P|216:64|168:76,1,80,2|0,1:0|1:0,0:0:0:0:
220,140,28021,1,0,1:0:0:0:
220,140,28115,2,0,L|251:213,1,80,8|8,1:0|1:0,0:0:0:0:
408,300,28490,2,0,P|368:307|329:299,1,80,2|0,1:0|1:0,0:0:0:0:
365,231,28771,1,0,1:0:0:0:
365,231,28865,2,0,L|333:157,1,80,8|0,1:0|1:0,0:0:0:0:
256,24,29240,5,2,1:0:0:0:
176,136,29427,1,0,1:0:0:0:
176,136,29521,1,0,1:0:0:0:
176,136,29615,1,8,1:0:0:0:
92,24,29802,1,8,1:0:0:0:
256,24,29990,2,0,P|272:64|260:108,1,80,2|0,1:0|1:0,0:0:0:0:
176,136,30271,1,0,1:0:0:0:
175,135,30365,2,0,P|159:172|166:211,1,80,8|0,1:0|1:0,0:0:0:0:
208,344,30740,5,2,1:0:0:0:
316,192,30927,1,0,1:0:0:0:
316,192,31021,1,0,1:0:0:0:
316,192,31115,2,0,L|384:252,1,80,8|8,1:0|1:0,0:0:0:0:
208,344,31490,2,0,L|148:291,1,80,2|0,1:0|1:0,0:0:0:0:
220,232,31771,1,0,1:0:0:0:
220,232,31865,2,0,L|279:284,1,80,8|0,1:0|1:0,0:0:0:0:
208,48,32240,6,0,P|184:96|208:160,1,120,2|0,1:0|1:0,0:0:0:0:
256,104,32615,2,0,L|376:92,1,120,8|0,1:0|0:0,0:0:0:0:
444,156,32990,2,0,L|352:168,1,80,2|0,1:0|0:0,0:0:0:0:
324,172,33271,1,8,1:0:0:0:
287,192,33365,1,8,1:0:0:0:
276,232,33458,1,0,0:0:0:0:
301,267,33552,1,8,1:0:0:0:
432,267,33740,6,0,P|446:311|434:343,1,71.9999978027344,4|0,3:2|0:0,0:0:0:0:
296,335,34115,2,0,P|289:300|302:267,1,71.9999978027344,2|0,3:2|0:0,0:0:0:0:
368,168,34490,1,0,3:2:0:0:
432,267,34677,1,0,0:0:0:0:
368,168,34865,2,0,B|332:168|332:168|316:164|316:164|288:164,1,71.9999978027344,2|0,3:2|0:0,0:0:0:0:
184,144,35240,1,0,3:2:0:0:
296,164,35427,1,0,0:0:0:0:
184,144,35615,2,0,P|180:100|204:64,1,71.9999978027344,2|0,3:2|0:0,0:0:0:0:
296,164,35990,2,0,P|309:196|303:232,1,71.9999978027344,0|0,3:2|0:0,0:0:0:0:
160,148,36365,2,0,P|156:104|180:68,1,71.9999978027344,2|0,3:2|0:0,0:0:0:0:
80,200,36740,6,0,P|152:188|224:228,1,143.999995605469,0|2,3:2|3:2,0:0:0:0:
132,304,37302,1,0,0:0:0:0:
80,200,37490,2,0,L|-4:192,1,71.9999978027344,0|0,3:2|0:0,0:0:0:0:
132,304,37865,2,0,L|203:310,1,71.9999978027344,2|0,3:2|0:0,0:0:0:0:
336,316,38240,5,0,3:2:0:0:
302,224,38427,1,0,0:0:0:0:
394,191,38615,1,2,3:2:0:0:
427,282,38802,1,0,0:0:0:0:
302,224,38990,2,0,L|276:148,1,71.9999978027344,0|0,3:2|0:0,0:0:0:0:
140,64,39365,2,0,P|176:44|212:44,1,71.9999978027344,2|0,3:2|3:2,0:0:0:0:
200,136,39740,6,0,L|250:281,1,143.999995605469,0|2,3:2|3:2,0:0:0:0:
172,300,40302,1,0,0:0:0:0:
320,244,40490,1,0,3:2:0:0:
172,300,40677,6,0,B|162:322|159:346|159:346|179:336|208:332,1,95.9999970703126,0|2,0:0|3:2,0:0:0:0:
320,244,41052,5,0,0:0:0:0:
320,244,41240,2,0,P|384:224|464:232,1,143.999995605469,0|2,3:2|3:2,0:0:0:0:
400,312,41802,1,0,0:0:0:0:
440,148,41990,1,0,3:2:0:0:
400,312,42177,6,0,B|384:332|374:353|374:353|362:332|354:309,1,95.9999970703126,0|2,0:0|3:2,0:0:0:0:
256,216,42552,5,0,0:0:0:0:
256,216,42740,2,0,B|228:176|228:176|224:140|224:140|184:88,1,143.999995605469,0|2,3:2|3:2,0:0:0:0:
184,244,43302,1,0,0:0:0:0:
300,148,43490,2,0,L|348:212,1,71.9999978027344,0|0,3:2|0:0,0:0:0:0:
184,244,43865,2,0,L|140:186,1,71.9999978027344,2|0,3:2|0:0,0:0:0:0:
208,356,44240,6,0,P|256:334|304:356,1,107.999996704102,0|0,3:2|0:0,0:0:0:0:
364,320,44615,2,0,B|388:288|388:288|388:260|388:260|412:224,1,107.999996704102,2|0,3:2|0:0,0:0:0:0:
452,168,44990,1,0,3:2:0:0:
472,272,45177,1,0,0:0:0:0:
348,184,45365,1,2,3:2:0:0:
456,76,45552,1,0,3:2:0:0:
456,76,45646,1,0,0:0:0:0:
456,76,45740,6,0,P|408:68|376:84,1,71.9999978027344,2|0,3:2|0:0,0:0:0:0:
324,108,46021,1,8,0:0:0:0:
324,108,46115,2,0,L|296:40,1,71.9999978027344,0|8,3:2|0:0,0:0:0:0:
228,136,46490,1,2,3:2:0:0:
387,75,46677,1,0,0:0:0:0:
387,75,46771,1,8,0:0:0:0:
387,75,46865,2,0,L|414:141,1,71.9999978027344,0|8,3:2|0:0,0:0:0:0:
440,304,47240,5,2,3:2:0:0:
332,204,47427,1,0,0:0:0:0:
332,204,47521,1,8,0:0:0:0:
332,204,47615,1,0,3:2:0:0:
296,336,47802,1,8,0:0:0:0:
440,304,47990,2,0,P|456:332|452:372,1,71.9999978027344,2|0,3:2|0:0,0:0:0:0:
372,320,48271,1,8,0:0:0:0:
372,320,48365,2,0,P|367:284|384:253,1,71.9999978027344,0|8,3:2|0:0,0:0:0:0:
179,163,48740,5,2,3:2:0:0:
256,240,48927,1,0,0:0:0:0:
256,240,49021,1,8,0:0:0:0:
256,240,49115,1,0,3:2:0:0:
332,163,49302,1,8,0:0:0:0:
256,87,49490,1,2,3:2:0:0:
179,163,49677,1,0,0:0:0:0:
179,163,49771,1,8,0:0:0:0:
179,163,49865,2,0,B|168:128|168:128|184:88,1,71.9999978027344,0|8,3:2|0:0,0:0:0:0:
68,288,50240,6,0,L|104:350,1,71.9999978027344,2|0,3:2|0:0,0:0:0:0:
132,242,50521,1,8,0:0:0:0:
132,242,50615,2,0,L|96:180,1,71.9999978027344,0|8,3:2|0:0,0:0:0:0:
48,84,50990,1,2,3:2:0:0:
176,72,51177,1,0,0:0:0:0:
176,72,51271,1,8,0:0:0:0:
176,72,51365,2,0,P|228:64|248:68,1,71.9999978027344,0|8,3:2|0:0,0:0:0:0:
384,124,51740,5,2,3:2:0:0:
332,16,51927,1,0,0:0:0:0:
332,16,52021,1,8,0:0:0:0:
332,16,52115,1,0,3:2:0:0:
396,152,52302,1,8,0:0:0:0:
472,24,52490,1,2,3:2:0:0:
396,152,52677,1,0,0:0:0:0:
396,152,52771,1,8,0:0:0:0:
396,152,52865,6,0,B|417:166|433:182|433:182|437:158|437:134,1,95.9999970703126,0|8,3:2|0:0,0:0:0:0:
300,232,53240,6,0,P|256:240|228:260,1,71.9999978027344,2|0,3:2|0:0,0:0:0:0:
212,340,53521,1,8,0:0:0:0:
212,340,53615,2,0,P|256:332|284:312,1,71.9999978027344,0|8,3:2|0:0,0:0:0:0:
120,224,53990,1,2,3:2:0:0:
60,336,54177,1,0,0:0:0:0:
60,336,54271,1,8,0:0:0:0:
60,336,54365,6,0,B|60:360|56:384|56:384|40:368|18:353,1,95.9999970703126,0|8,3:2|0:0,0:0:0:0:
120,224,54740,6,0,L|92:144,1,71.9999978027344,2|0,3:2|0:0,0:0:0:0:
152,72,55021,1,8,0:0:0:0:
152,72,55115,2,0,L|175:139,1,71.9999978027344,0|8,3:2|0:0,0:0:0:0:
328,80,55490,2,0,B|364:72|364:72|408:80,1,71.9999978027344,2|0,3:2|0:0,0:0:0:0:
456,136,55771,1,8,0:0:0:0:
456,136,55865,2,0,L|448:220,1,71.9999978027344,0|8,3:2|0:0,0:0:0:0:
256,320,56240,5,2,3:2:0:0:
168,256,56427,1,0,0:0:0:0:
168,256,56521,1,8,0:0:0:0:
168,256,56615,1,0,3:2:0:0:
202,153,56802,1,8,0:0:0:0:
310,153,56990,1,2,3:2:0:0:
343,256,57177,1,0,0:0:0:0:
343,256,57271,1,8,0:0:0:0:
343,256,57365,1,0,3:2:0:0:
202,153,57552,1,8,0:0:0:0:
343,64,57740,6,0,P|376:56|416:64,1,64,8|0,1:2|0:0,0:0:0:0:
372,148,58115,2,0,P|339:156|299:148,1,64,8|0,0:0|0:0,0:0:0:0:
202,152,58490,2,0,P|170:155|140:148,1,64,8|0,0:0|0:0,0:0:0:0:
106,59,58865,2,0,P|138:56|168:63,1,64,8|0,1:2|0:0,0:0:0:0:
220,232,59240,2,0,P|176:240|88:216,1,128,8|8,0:0|1:2,0:0:0:0:
140,336,59802,1,0,0:0:0:0:
220,232,59990,2,0,L|256:300,1,64,8|0,0:0|0:0,0:0:0:0:
384,288,60365,2,0,L|354:231,1,64,8|0,0:0|0:0,0:0:0:0:
464,320,60740,6,0,P|416:316|348:356,1,128,8|8,1:2|0:0,0:0:0:0:
464,320,61302,1,0,0:0:0:0:
472,192,61490,2,0,P|472:152|452:116,1,64,8|0,0:0|0:0,0:0:0:0:
368,60,61865,2,0,P|357:89|358:121,1,64,8|0,1:2|0:0,0:0:0:0:
312,192,62146,1,0,0:0:0:0:
312,192,62240,6,0,L|176:140,1,128,8|8,0:0|1:2,0:0:0:0:
96,100,62802,1,0,0:0:0:0:
112,216,62990,2,0,L|184:242,1,64,8|0,0:0|0:0,0:0:0:0:
296,288,63365,1,8,1:2:0:0:
172,237,63552,1,0,0:0:0:0:
296,288,63740,6,0,P|304:328|288:360,1,71.9999978027344,8|0,1:2|0:0,0:0:0:0:
172,237,64115,2,0,P|159:203|167:169,1,71.9999978027344,8|0,0:0|0:0,0:0:0:0:
280,84,64490,2,0,L|208:60,1,71.9999978027344,8|0,0:0|0:0,0:0:0:0:
268,168,64865,2,0,L|340:192,1,71.9999978027344,8|0,1:2|0:0,0:0:0:0:
420,140,65146,1,0,0:0:0:0:
420,140,65240,6,0,L|351:117,1,71.9999978027344,8|0,0:0|1:2,0:0:0:0:
420,232,65615,1,8,1:2:0:0:
432,44,65802,1,0,0:0:0:0:
420,232,65990,2,0,P|468:236|496:220,1,71.9999978027344,8|0,0:0|0:0,0:0:0:0:
432,44,66365,2,0,P|396:37|363:49,1,71.9999978027344,8|0,0:0|0:0,0:0:0:0:
300,88,66646,1,0,0:0:0:0:
300,88,66740,6,0,B|200:140|200:140|212:112|204:80,1,160,4|2,1:2|1:2,0:0:0:0:
212,268,67302,1,0,0:0:0:0:
212,268,67396,1,0,0:0:0:0:
212,268,67490,2,0,B|312:216|312:216|300:244|308:276,1,160,0|2,1:2|1:2,0:0:0:0:
128,192,68052,1,0,0:0:0:0:
128,192,68146,1,0,0:0:0:0:
128,192,68240,2,0,P|112:272|160:332,1,160,0|2,1:2|1:2,0:0:0:0:
236,192,68802,1,0,0:0:0:0:
236,192,68896,1,0,0:0:0:0:
236,192,68990,2,0,L|416:176,1,160,0|2,1:2|1:2,0:0:0:0:
504,168,69552,1,0,0:0:0:0:
392,260,69740,5,0,1:2:0:0:
428,92,69927,1,0,0:0:0:0:
428,92,70021,1,0,0:0:0:0:
428,92,70115,1,2,1:2:0:0:
304,256,70302,1,0,0:0:0:0:
304,256,70396,1,0,0:0:0:0:
304,256,70490,1,0,1:2:0:0:
348,68,70677,1,0,0:0:0:0:
348,68,70771,1,0,0:0:0:0:
348,68,70865,1,2,1:2:0:0:
216,256,71052,1,0,0:0:0:0:
262,57,71240,6,0,L|268:32,7,20
192,48,71615,2,0,L|187:67,7,20,2|0|0|0|0|0|0|0,0:0|0:0|0:0|0:0|0:0|0:0|0:0|0:0,0:0:0:0:
112,76,71990,2,0,L|116:56,7,20
40,64,72365,2,0,L|35:83,7,20,2|0|0|0|0|0|0|0,0:0|0:0|0:0|0:0|0:0|0:0|0:0|0:0,0:0:0:0:
16,160,72740,1,0,0:0:0:0:
236,80,73490,6,0,P|276:76|336:104,1,96,2|0,0:0|0:0,0:0:0:0:
368,168,73865,2,0,B|404:148|412:120|412:120|436:112|436:112|440:72|488:40,1,180.000006866455,2|0,1:2|0:0,0:0:0:0:
468,184,74240,6,0,B|484:224|484:224|464:272,1,88.000002685547,4|0,1:2|0:0,0:0:0:0:
392,300,74521,1,0,0:0:0:0:
392,300,74615,2,0,L|324:244,1,88.000002685547,8|8,0:0|0:0,0:0:0:0:
156,136,74990,2,0,P|212:136|240:116,1,88.000002685547,2|0,0:0|0:0,0:0:0:0:
176,60,75271,1,0,0:0:0:0:
176,60,75365,2,0,P|120:60|92:80,1,88.000002685547,8|0,0:0|0:0,0:0:0:0:
144,252,75740,5,2,0:0:0:0:
256,152,75927,1,0,0:0:0:0:
256,152,76021,1,0,0:0:0:0:
256,152,76115,1,8,0:0:0:0:
368,252,76302,1,8,0:0:0:0:
144,252,76490,2,0,P|140:200|164:160,1,88.000002685547,2|0,0:0|0:0,0:0:0:0:
192,104,76771,1,0,0:0:0:0:
192,104,76865,2,0,L|176:16,1,88.000002685547,8|0,0:0|0:0,0:0:0:0:
376,136,77240,6,0,P|420:128|464:144,1,88.000002685547,2|0,0:0|0:0,0:0:0:0:
408,208,77521,1,0,0:0:0:0:
408,208,77615,2,0,L|372:308,1,88.000002685547,8|8,0:0|0:0,0:0:0:0:
256,192,77990,1,2,0:0:0:0:
163,124,78177,1,0,0:0:0:0:
163,124,78271,1,0,0:0:0:0:
163,124,78365,1,8,0:0:0:0:
198,15,78552,1,0,0:0:0:0:
313,15,78740,5,2,0:0:0:0:
348,124,78927,1,0,0:0:0:0:
348,124,79021,1,0,0:0:0:0:
348,124,79115,2,0,L|416:56,1,88.000002685547,8|8,0:0|0:0,0:0:0:0:
163,124,79490,2,0,L|95:192,1,88.000002685547,2|0,0:0|0:0,0:0:0:0:
44,236,79771,1,0,0:0:0:0:
44,236,79865,2,0,P|12:196|4:156,1,88.000002685547,8|0,0:0|0:0,0:0:0:0:
120,348,80240,6,0,L|200:296,1,88.000002685547,4|0,1:2|0:0,0:0:0:0:
256,260,80521,1,0,0:0:0:0:
318,300,80615,2,0,L|392:348,2,88.000002685547,8|8|2,0:0|0:0|0:0,0:0:0:0:
120,36,81177,1,0,0:0:0:0:
120,36,81271,1,0,0:0:0:0:
120,36,81365,6,0,L|193:83,1,88.000002685547,8|0,0:0|0:0,0:0:0:0:
256,124,81646,1,0,0:0:0:0:
318,84,81740,2,0,L|392:36,1,88.000002685547,2|0,0:0|0:0,0:0:0:0:
440,104,82021,1,0,0:0:0:0:
440,104,82115,2,0,L|366:152,1,88.000002685547,8|8,0:0|0:0,0:0:0:0:
252,36,82490,1,2,0:0:0:0:
366,151,82677,1,0,0:0:0:0:
366,151,82771,1,0,0:0:0:0:
366,151,82865,1,8,0:0:0:0:
252,36,83052,1,0,0:0:0:0:
436,192,83240,6,0,P|444:236|424:284,1,88.000002685547,2|0,0:0|0:0,0:0:0:0:
368,336,83521,1,0,0:0:0:0:
368,336,83615,2,0,L|468:364,1,88.000002685547,8|8,0:0|0:0,0:0:0:0:
336,216,83990,2,0,L|251:192,1,88.000002685547,2|0,0:0|0:0,0:0:0:0:
180,176,84271,1,0,0:0:0:0:
180,176,84365,2,0,P|165:134|174:92,1,88.000002685547,8|0,0:0|0:0,0:0:0:0:
144,348,84740,5,2,0:0:0:0:
256,240,84927,1,0,0:0:0:0:
256,240,85021,1,0,0:0:0:0:
256,240,85115,1,8,0:0:0:0:
368,348,85302,1,8,0:0:0:0:
444,232,85490,2,0,P|456:200|436:140,1,88.000002685547,2|0,0:0|0:0,0:0:0:0:
388,96,85771,1,0,0:0:0:0:
388,96,85865,2,0,L|412:4,1,88.000002685547,8|0,0:0|0:0,0:0:0:0:
212,36,86240,6,0,L|189:121,1,88.000002685547,4|0,1:2|0:0,0:0:0:0:
132,168,86521,1,0,0:0:0:0:
132,168,86615,2,0,B|92:176|92:176|40:156,1,88.000002685547,8|8,0:0|0:0,0:0:0:0:
72,280,86990,1,2,0:0:0:0:
104,92,87177,1,0,0:0:0:0:
104,92,87271,1,0,0:0:0:0:
104,92,87365,2,0,L|126:6,1,88.000002685547,8|0,0:0|0:0,0:0:0:0:
341,192,87740,5,2,0:0:0:0:
172,192,87927,1,0,0:0:0:0:
172,192,88021,1,0,0:0:0:0:
172,192,88115,1,8,0:0:0:0:
256,280,88302,1,8,0:0:0:0:
256,108,88490,2,0,L|348:64,1,88.000002685547,2|0,0:0|0:0,0:0:0:0:
400,120,88771,1,0,0:0:0:0:
400,120,88865,2,0,L|492:76,1,88.000002685547,8|0,0:0|0:0,0:0:0:0:
256,280,89240,6,0,L|348:324,1,88.000002685547,2|0,0:0|0:0,0:0:0:0:
400,268,89521,1,0,0:0:0:0:
400,268,89615,2,0,L|492:312,1,88.000002685547,8|8,0:0|0:0,0:0:0:0:
336,136,89990,1,2,0:0:0:0:
192,72,90177,1,0,0:0:0:0:
192,72,90271,1,0,0:0:0:0:
192,72,90365,1,8,0:0:0:0:
336,4,90552,1,0,0:0:0:0:
256,192,90740,6,0,B|252:232|252:232|264:252|264:252|261:288,1,88.000002685547,2|0,0:0|0:0,0:0:0:0:
196,320,91021,1,0,0:0:0:0:
196,320,91115,2,0,B|152:340|152:340|112:324,1,88.000002685547,8|8,0:0|0:0,0:0:0:0:
32,192,91490,1,2,0:0:0:0:
112,348,91677,1,0,0:0:0:0:
112,348,91771,1,0,0:0:0:0:
112,348,91865,2,0,B|148:362|148:362|192:342,1,88.000002685547,8|0,0:0|0:0,0:0:0:0:
384,192,92240,6,0,L|312:124,1,88.000002685547,4|0,1:2|0:0,0:0:0:0:
256,96,92521,1,0,0:0:0:0:
191,131,92615,2,0,L|128:192,2,88.000002685547,8|8|2,0:0|0:0|0:0,0:0:0:0:
384,192,93177,1,0,0:0:0:0:
384,192,93271,1,0,0:0:0:0:
384,192,93365,6,0,L|320:252,1,88.000002685547,8|0,0:0|0:0,0:0:0:0:
256,288,93646,1,0,0:0:0:0:
191,252,93740,2,0,L|128:192,1,88.000002685547,2|0,0:0|0:0,0:0:0:0:
144,104,94021,1,0,0:0:0:0:
144,104,94115,2,0,L|207:164,1,88.000002685547,8|8,0:0|0:0,0:0:0:0:
256,288,94490,1,2,0:0:0:0:
123,308,94677,1,0,0:0:0:0:
123,308,94771,1,0,0:0:0:0:
123,308,94865,2,0,L|60:248,1,88.000002685547,8|0,0:0|0:0,0:0:0:0:
352,332,95240,6,0,P|384:292|428:280,1,88.000002685547,4|0,1:2|0:0,0:0:0:0:
492,248,95521,1,0,0:0:0:0:
492,248,95615,1,8,0:0:0:0:
416,120,95802,2,0,L|312:104,1,88.000002685547,12|0,1:2|0:0,0:0:0:0:
176,88,96177,1,0,0:0:0:0:
176,88,96271,1,0,0:0:0:0:
176,88,96365,1,12,1:2:0:0:
304,12,96552,1,0,0:0:0:0:
256,184,96740,6,0,P|240:216|192:248,1,88.000002685547
140,300,97021,1,0,0:0:0:0:
140,300,97115,2,0,L|216:344,1,88.000002685547,8|8,0:0|0:0,0:0:0:0:
176,172,97490,2,0,L|100:128,1,88.000002685547
99,43,97771,1,0,0:0:0:0:
99,43,97865,2,0,L|175:87,1,88.000002685547,8|0,0:0|0:0,0:0:0:0:
452,192,98240,5,4,1:2:0:0:
60,192,98990,1,4,1:2:0:0:
60,192,99927,1,4,1:2:0:0:
256,64,100302,1,4,1:2:0:0:
352,140,100490,6,0,L|384:60,1,71.9999978027344,2|0,1:2|0:0,0:0:0:0:
133,73,100865,2,0,L|160:140,1,71.9999978027344,2|0,1:2|0:0,0:0:0:0:
256,64,101240,1,4,0:0:0:0:
256,192,101333,12,0,103677,0:0:0:0:
