osu file format v14

[General]
AudioFilename: audio.mp3
AudioLeadIn: 0
PreviewTime: 73396
Countdown: 0
SampleSet: Soft
StackLeniency: 0.7
Mode: 0
LetterboxInBreaks: 0
WidescreenStoryboard: 1

[Editor]
DistanceSpacing: 0.9
BeatDivisor: 4
GridSize: 4
TimelineZoom: 1.7

[Metadata]
Title:Saikou Heart (TV Size)
TitleUnicode:サイコーハート (TV Size)
Artist:Miyashita Ai (CV: Murakami Natsumi)
ArtistUnicode:宮下 愛 (CV: 村上奈津実)
Creator:Andrea
Version:Daisuki <3
Source:ラブライブ!虹ヶ咲学園スクールアイドル同好会
Tags:Ayaka Miyake PASSiON KiNG Videogame VGM Sekai Sekaii Sekai-nyan osuplayer111 Darksonic HabiHolic love live! nijigasaki high school idol club gakuen doukoukai doukou kai nijigaku ニジガク llas sifas スクスタ festival all stars スクールアイドルフェスティバル perfect dream project pdp insert anime video game japanese pop jpop j-pop
BeatmapID:2681633
BeatmapSetID:1292050

[Difficulty]
HPDrainRate:7
CircleSize:4.5
OverallDifficulty:8
ApproachRate:9
SliderMultiplier:1.8
SliderTickRate:2

[Events]
//Background and Video events
0,0,"aiaiaiai.jpg",0,0
Video,-200,"Video.mp4"
//Break Periods
//Storyboard Layer 0 (Background)
//Storyboard Layer 1 (Fail)
//Storyboard Layer 2 (Pass)
//Storyboard Layer 3 (Foreground)
//Storyboard Layer 4 (Overlay)
//Storyboard Sound Samples

[TimingPoints]
5240,375,4,2,1,40,1,0
5240,-125,4,2,1,40,0,0
6740,-125,4,2,1,20,0,0
7490,-125,4,2,1,40,0,0
9365,-200,4,2,1,40,0,0
10677,-125,4,2,1,5,0,0
11240,-125,4,2,1,40,0,0
12740,-125,4,2,1,20,0,0
13302,-125,4,2,1,40,0,0
14333,-125,4,2,1,30,0,0
18365,-125,4,2,1,5,0,0
18740,-111.111111111111,4,2,1,50,0,0
19115,-111.111111111111,4,1,1,40,0,0
20615,-111.111111111111,4,2,1,50,0,0
21271,-111.111111111111,4,2,1,5,0,0
21365,-111.111111111111,4,2,1,50,0,0
21740,-100,4,1,1,60,0,0
32896,-100,4,1,1,5,0,0
32990,-100,4,1,1,60,0,0
33740,-111.111111111111,4,2,1,50,0,0
39646,-111.111111111111,4,2,1,40,0,0
39740,-111.111111111111,4,2,1,50,0,0
40677,-83.3333333333333,4,2,1,50,0,0
40865,-111.111111111111,4,2,1,50,0,0
42177,-83.3333333333333,4,2,1,50,0,0
42365,-111.111111111111,4,2,1,50,0,0
44521,-111.111111111111,4,2,1,5,0,0
44615,-111.111111111111,4,2,1,50,0,0
44896,-111.111111111111,4,2,1,5,0,0
44990,-111.111111111111,4,2,1,50,0,0
52865,-83.3333333333333,4,2,1,50,0,0
53052,-111.111111111111,4,2,1,50,0,0
54365,-83.3333333333333,4,2,1,50,0,0
54552,-111.111111111111,4,2,1,50,0,0
57740,-125,4,2,1,50,0,0
59427,-125,4,2,2,40,0,0
59615,-125,4,2,1,50,0,0
59896,-125,4,2,1,5,0,0
59990,-125,4,2,1,50,0,0
62427,-125,4,2,2,40,0,0
62615,-125,4,2,1,50,0,0
63740,-111.111111111111,4,2,1,50,0,0
65896,-111.111111111111,4,2,1,5,0,0
65990,-111.111111111111,4,2,1,50,0,0
66740,-100,4,2,1,55,0,0
69740,-100,4,2,1,60,0,0
71240,-100,4,1,1,50,0,0
72740,-100,4,2,1,20,0,0
73490,-125,4,2,1,40,0,0
73771,-125,4,2,1,5,0,0
73865,-66.6666666666667,4,2,1,50,0,0
74146,-125,4,2,1,5,0,0
74240,-90.9090909090909,4,1,1,60,0,1
86146,-90.9090909090909,4,1,1,60,0,0
86240,-90.9090909090909,4,1,1,60,0,1
98240,-111.111111111111,4,2,1,50,0,0
101333,-111.111111111111,4,2,1,40,0,0
101615,-111.111111111111,4,2,1,35,0,0
101990,-111.111111111111,4,2,1,30,0,0
102365,-111.111111111111,4,2,1,25,0,0
102740,-111.111111111111,4,2,1,20,0,0
103115,-111.111111111111,4,2,1,15,0,0
103490,-111.111111111111,4,2,1,10,0,0
103677,-111.111111111111,4,2,1,5,0,0

[Colours]
Combo1 : 255,255,170
Combo2 : 255,98,21
SliderBorder : 255,255,170
SliderTrackOverride : 255,98,21

[HitObjects]
52,60,5240,6,0,P|120:40|188:60,1,144,2|0,0:0|0:0,0:0:0:0:
188,164,5802,2,0,P|256:183|324:163,1,144,2|0,0:0|0:0,0:0:0:0:
323,60,6365,2,0,P|391:40|460:60,1,144,2|0,0:0|0:0,0:0:0:0:
459,59,7490,1,2,0:0:0:0:
484,164,7677,1,0,0:0:0:0:
380,136,7865,1,2,0:0:0:0:
380,136,8240,6,0,B|358:183|358:183|326:212|326:212|304:259,1,144,2|0,0:0|0:0,0:0:0:0:
206,256,8802,2,0,B|185:212|185:212|153:183|153:183|132:136,1,144,2|0,0:0|0:0,0:0:0:0:
380,136,9365,2,0,P|256:54|132:136,1,315,2|0,0:0|0:0,0:0:0:0:
131,136,11240,6,0,P|110:204|130:272,1,144,2|0,0:0|0:0,0:0:0:0:
188,364,11802,2,0,P|256:384|324:364,1,144,2|0,0:0|0:0,0:0:0:0:
381,272,12365,2,0,P|401:204|381:136,1,144,2|0,0:0|0:0,0:0:0:0:
256,51,13302,5,0,0:0:0:0:
256,51,13490,2,0,B|232:119|280:119|256:191,2,144,2|2|2,0:0|0:0|0:0,0:0:0:0:
256,192,14333,12,0,18365,0:0:0:0:
176,192,18740,5,4,0:0:0:0:
256,96,18927,1,0,0:0:0:0:
336,192,19115,2,0,L|364:192,7,20.2499993820191,0|0|0|0|0|0|0|0,0:0|0:0|0:0|0:0|0:0|0:0|0:0|0:0,0:0:0:0:
292,248,19490,2,0,L|292:276,7,20.2499993820191,0|0|0|0|0|0|0|0,0:0|0:0|0:0|0:0|0:0|0:0|0:0|0:0,0:0:0:0:
220,248,19865,2,0,L|220:276,7,20.2499993820191,0|0|0|0|0|0|0|0,0:0|0:0|0:0|0:0|0:0|0:0|0:0|0:0,0:0:0:0:
176,192,20240,2,0,L|148:192,7,20.2499993820191,0|0|0|0|0|0|0|0,0:0|0:0|0:0|0:0|0:0|0:0|0:0|0:0,0:0:0:0:
256,152,20615,5,2,0:0:0:0:
176,24,20802,1,0,0:0:0:0:
336,24,20990,2,0,P|396:24|436:72,1,121.499996292114,2|0,0:0|0:0,0:0:0:0:
434,67,21365,2,0,L|378:135,1,80.9999975280763,2|0,0:0|0:0,0:0:0:0:
296,292,21740,6,0,P|256:310|216:292,1,90,4|0,1:2|1:0,0:0:0:0:
164,244,22021,1,0,1:0:0:0:
112,196,22115,2,0,P|94:156|112:116,1,90,8|8,1:0|1:0,0:0:0:0:
216,40,22490,2,0,P|255:22|295:40,1,90,2|0,1:0|1:0,0:0:0:0:
352,84,22771,1,0,1:0:0:0:
404,132,22865,2,0,L|476:76,1,90,8|0,1:0|1:0,0:0:0:0:
340,184,23240,5,2,1:0:0:0:
256,280,23427,1,0,1:0:0:0:
256,280,23521,1,0,1:0:0:0:
256,280,23615,2,0,B|220:280|220:280|216:276|216:276|216:284|216:284|212:280|212:280|176:280,1,90,8|8,1:0|1:0,0:0:0:0:
92,184,23990,1,2,1:0:0:0:
172,84,24177,1,0,1:0:0:0:
172,84,24271,1,0,1:0:0:0:
172,84,24365,2,0,B|206:84|206:84|210:80|210:80|210:88|210:88|214:84|214:84|250:84,1,90,8|0,1:0|1:0,0:0:0:0:
388,84,24740,6,0,P|432:84|468:112,1,90,2|0,1:0|1:0,0:0:0:0:
468,184,25021,1,0,1:0:0:0:
460,256,25115,2,0,P|424:282|380:282,1,90,8|8,1:0|1:0,0:0:0:0:
252,240,25490,2,0,L|204:316,1,90,2|0,1:0|1:0,0:0:0:0:
132,336,25771,1,0,1:0:0:0:
104,268,25865,2,0,L|152:192,1,90,8|0,1:0|1:0,0:0:0:0:
224,72,26240,5,2,1:0:0:0:
348,136,26427,1,0,1:0:0:0:
348,136,26521,1,0,1:0:0:0:
348,136,26615,2,0,B|392:136|392:136|428:164,1,90,8|8,1:0|1:0,0:0:0:0:
372,292,26990,1,2,1:0:0:0:
244,240,27177,1,0,1:0:0:0:
244,240,27271,1,0,1:0:0:0:
244,240,27365,2,0,B|200:240|200:240|164:212,1,90,8|0,1:0|1:0,0:0:0:0:
48,128,27740,6,0,B|32:80|56:80|48:40,1,90,2|0,1:0|1:0,0:0:0:0:
112,12,28021,1,0,1:0:0:0:
176,40,28115,2,0,B|192:88|168:88|176:128,1,90,8|8,1:0|1:0,0:0:0:0:
112,256,28490,2,0,B|148:256|148:256|168:268|168:268|200:268,1,90,2|0,1:0|1:0,0:0:0:0:
256,312,28771,1,0,1:0:0:0:
316,352,28865,2,0,B|352:352|352:352|372:364|372:364|404:364,1,90,8|0,1:0|1:0,0:0:0:0:
504,268,29240,5,2,1:0:0:0:
404,172,29427,1,0,1:0:0:0:
404,172,29521,1,0,1:0:0:0:
404,172,29615,2,0,P|360:172|324:144,1,90,8|8,1:0|1:0,0:0:0:0:
256,24,29990,1,2,1:0:0:0:
187,145,30177,1,0,1:0:0:0:
187,145,30271,1,0,1:0:0:0:
187,145,30365,2,0,P|152:171|108:172,1,90,8|0,1:0|1:0,0:0:0:0:
44,296,30740,6,0,B|68:328|96:324|96:324|120:344,1,90,2|0,1:0|1:0,0:0:0:0:
184,320,31021,1,0,1:0:0:0:
252,300,31115,2,0,B|276:332|304:328|304:328|328:348,1,90,8|8,1:0|1:0,0:0:0:0:
412,232,31490,2,0,B|430:205|421:190|421:190|439:192|460:163,1,90,2|0,1:0|1:0,0:0:0:0:
496,108,31771,1,0,1:0:0:0:
436,72,31865,2,0,B|409:53|394:62|394:62|396:44|367:23,1,90,8|0,1:0|1:0,0:0:0:0:
256,104,32240,5,2,1:0:0:0:
141,26,32427,1,0,0:0:0:0:
141,26,32521,1,0,1:0:0:0:
141,26,32615,2,0,B|115:44|117:62|117:62|102:53|76:72,1,90,8|0,1:0|0:0,0:0:0:0:
8,192,32990,1,2,1:0:0:0:
76,313,33177,1,0,0:0:0:0:
136,352,33271,1,8,1:0:0:0:
196,313,33365,1,8,1:0:0:0:
256,352,33458,1,0,0:0:0:0:
316,313,33552,1,8,1:0:0:0:
412,228,33740,6,0,P|428:192|412:156,1,80.9999975280763,4|0,3:2|0:0,0:0:0:0:
321,112,34115,1,2,3:2:0:0:
215,35,34302,1,0,0:0:0:0:
256,160,34490,1,0,3:2:0:0:
296,35,34677,1,0,0:0:0:0:
190,112,34865,2,0,P|150:112|118:140,1,80.9999975280763,2|0,3:2|0:0,0:0:0:0:
20,228,35240,6,0,B|52:273|52:273|94:292|94:292|129:342,1,161.999995056153,0|2,3:2|3:2,0:0:0:0:
100,212,35802,1,0,0:0:0:0:
100,212,35990,2,0,L|52:147,1,80.9999975280763,0|0,3:2|0:0,0:0:0:0:
100,40,36365,2,0,L|148:105,1,80.9999975280763,2|0,3:2|0:0,0:0:0:0:
256,40,36740,6,0,B|336:16|336:72|416:40,1,161.999995056153,0|2,3:2|3:2,0:0:0:0:
413,40,37302,1,0,0:0:0:0:
456,136,37490,1,0,3:2:0:0:
500,232,37677,1,0,0:0:0:0:
403,274,37865,1,2,3:2:0:0:
359,178,38052,1,0,0:0:0:0:
456,136,38240,6,0,B|421:86|421:86|378:67|378:67|346:21,1,161.999995056153,0|2,3:2|3:2,0:0:0:0:
256,80,38802,1,0,0:0:0:0:
165,22,38990,2,0,P|129:6|93:22,1,80.9999975280763,0|0,3:2|0:0,0:0:0:0:
24,128,39365,2,0,P|60:144|96:128,1,80.9999975280763,2|0,3:2|3:2,0:0:0:0:
200,200,39740,6,0,L|276:348,1,161.999995056153,0|2,3:2|3:2,0:0:0:0:
416,352,40302,1,0,0:0:0:0:
416,352,40490,1,0,3:2:0:0:
480,236,40677,6,0,B|480:204|506:192|506:192|480:176|480:148,1,107.999996704102,0|2,0:0|3:2,0:0:0:0:
416,32,41052,5,0,0:0:0:0:
416,32,41240,2,0,B|368:32|340:64|340:64|264:64,1,161.999995056153,0|2,3:2|3:2,0:0:0:0:
124,64,41802,1,0,0:0:0:0:
124,64,41990,1,0,3:2:0:0:
32,148,42177,6,0,B|32:176|6:192|6:192|32:204|32:236,1,107.999996704102,0|2,0:0|3:2,0:0:0:0:
124,320,42552,5,0,0:0:0:0:
124,320,42740,2,0,B|180:320|180:320|220:304|220:304|284:304,1,161.999995056153,0|2,3:2|3:2,0:0:0:0:
396,304,43302,1,0,0:0:0:0:
480,228,43490,2,0,B|499:192|499:192|480:156,1,80.9999975280763,0|0,3:2|0:0,0:0:0:0:
396,8,43865,2,0,B|377:44|377:44|396:80,1,80.9999975280763,2|0,3:2|0:0,0:0:0:0:
328,184,44240,6,0,P|256:216|184:184,1,161.999995056153,0|2,3:2|3:2,0:0:0:0:
256,84,44802,1,0,0:0:0:0:
328,184,44990,2,0,B|360:229|360:229|402:248|402:248|437:298,1,161.999995056153,0|2,3:2|3:2,0:0:0:0:
436,297,45552,1,0,3:2:0:0:
412,168,45740,6,0,L|364:103,1,80.9999975280763,2|0,3:2|0:0,0:0:0:0:
316,52,46021,1,8,0:0:0:0:
316,52,46115,2,0,P|276:52|240:76,1,80.9999975280763,0|8,3:2|0:0,0:0:0:0:
140,136,46490,2,0,P|106:157|66:157,1,80.9999975280763,2|0,3:2|0:0,0:0:0:0:
24,212,46771,1,8,0:0:0:0:
24,212,46865,2,0,L|60:284,1,80.9999975280763,0|8,3:2|0:0,0:0:0:0:
172,332,47240,6,0,B|212:332|212:332|248:356,1,80.9999975280763,2|0,3:2|0:0,0:0:0:0:
316,356,47521,1,8,0:0:0:0:
316,356,47615,2,0,B|350:333|350:333|390:333,1,80.9999975280763,0|8,3:2|0:0,0:0:0:0:
460,232,47990,2,0,P|476:196|460:160,1,80.9999975280763,2|0,3:2|0:0,0:0:0:0:
416,108,48271,1,8,0:0:0:0:
416,108,48365,2,0,P|380:92|344:108,1,80.9999975280763,0|8,3:2|0:0,0:0:0:0:
256,192,48740,5,2,3:2:0:0:
167,107,48927,1,0,0:0:0:0:
167,107,49021,1,8,0:0:0:0:
167,107,49115,2,0,P|131:92|96:108,1,80.9999975280763,0|8,3:2|0:0,0:0:0:0:
8,192,49490,1,2,3:2:0:0:
96,276,49677,1,0,0:0:0:0:
96,276,49771,1,8,0:0:0:0:
96,276,49865,2,0,P|131:292|167:276,1,80.9999975280763,0|8,3:2|0:0,0:0:0:0:
256,192,50240,5,2,3:2:0:0:
345,276,50427,1,0,0:0:0:0:
345,276,50521,1,8,0:0:0:0:
345,276,50615,2,0,L|408:336,1,80.9999975280763,0|8,3:2|0:0,0:0:0:0:
496,252,50990,1,2,3:2:0:0:
404,172,51177,1,0,0:0:0:0:
404,172,51271,1,8,0:0:0:0:
404,172,51365,2,0,L|341:112,1,80.9999975280763,0|8,3:2|0:0,0:0:0:0:
256,32,51740,6,0,P|216:32|180:60,1,80.9999975280763,2|0,3:2|0:0,0:0:0:0:
140,108,52021,1,8,0:0:0:0:
140,108,52115,2,0,L|56:108,1,80.9999975280763,0|8,3:2|0:0,0:0:0:0:
4,220,52490,2,0,L|52:288,1,80.9999975280763,2|0,3:2|0:0,0:0:0:0:
100,344,52771,1,8,0:0:0:0:
100,344,52865,6,0,B|128:344|144:370|144:370|156:344|188:344,1,107.999996704102,0|8,3:2|0:0,0:0:0:0:
260,248,53240,6,0,B|292:248|292:248|312:260|312:260|340:260,1,80.9999975280763,2|0,3:2|0:0,0:0:0:0:
400,292,53521,1,8,0:0:0:0:
400,292,53615,2,0,B|432:292|432:292|452:304|452:304|480:304,1,80.9999975280763,0|8,3:2|0:0,0:0:0:0:
512,184,53990,2,0,L|464:112,1,80.9999975280763,2|0,3:2|0:0,0:0:0:0:
424,52,54271,1,8,0:0:0:0:
424,52,54365,6,0,B|396:52|380:26|380:26|368:52|336:52,1,107.999996704102,0|8,3:2|0:0,0:0:0:0:
256,148,54740,5,2,3:2:0:0:
176,51,54927,1,0,0:0:0:0:
176,51,55021,1,8,0:0:0:0:
176,51,55115,2,0,B|140:32|140:32|104:51,1,80.9999975280763,0|8,3:2|0:0,0:0:0:0:
20,144,55490,1,2,3:2:0:0:
104,236,55677,1,0,0:0:0:0:
104,236,55771,1,8,0:0:0:0:
104,236,55865,2,0,B|140:255|140:255|176:236,1,80.9999975280763,0|8,3:2|0:0,0:0:0:0:
256,148,56240,5,2,3:2:0:0:
337,236,56427,1,0,0:0:0:0:
337,236,56521,1,8,0:0:0:0:
337,236,56615,2,0,P|352:271|336:307,1,80.9999975280763,0|8,3:2|0:0,0:0:0:0:
256,220,56990,1,2,3:2:0:0:
177,308,57177,1,0,0:0:0:0:
177,308,57271,1,8,0:0:0:0:
177,308,57365,2,0,P|161:272|177:237,1,80.9999975280763,0|8,3:2|0:0,0:0:0:0:
256,148,57740,6,0,P|296:148|324:128,1,72,8|0,1:2|0:0,0:0:0:0:
288,36,58115,2,0,P|248:36|220:56,1,72,8|0,0:0|0:0,0:0:0:0:
116,188,58490,2,0,P|156:188|184:168,1,72,8|0,0:0|0:0,0:0:0:0:
148,76,58865,2,0,P|108:76|80:96,2,72,8|0|8,1:2|0:0|0:0,0:0:0:0:
256,148,59427,1,0,1:2:0:0:
256,148,59615,2,0,B|304:128|304:164|364:148,1,108,8|0,1:2|0:0,0:0:0:0:
361,148,59990,6,0,L|400:216,1,72,8|0,0:0|0:0,0:0:0:0:
256,148,60365,2,0,L|217:80,1,72,8|0,0:0|0:0,0:0:0:0:
361,148,60740,2,0,L|436:278,1,144,8|8,1:2|0:0,0:0:0:0:
488,360,61302,1,0,0:0:0:0:
433,272,61490,2,0,L|368:308,1,72,8|0,0:0|0:0,0:0:0:0:
240,276,61865,2,0,L|305:240,1,72,8|0,1:2|0:0,0:0:0:0:
440,284,62240,2,0,L|375:320,1,72,8|0,0:0|1:2,0:0:0:0:
228,264,62615,2,0,L|293:228,1,72,8|0,1:2|0:0,0:0:0:0:
404,164,62990,2,0,B|376:124|376:124|364:79|364:79|334:36,1,144,8|8,0:0|1:2,0:0:0:0:
256,132,63552,1,0,0:0:0:0:
176,39,63740,6,0,P|140:23|104:39,1,80.9999975280763,8|0,1:2|0:0,0:0:0:0:
184,131,64115,2,0,P|220:147|256:131,1,80.9999975280763,8|0,0:0|0:0,0:0:0:0:
103,38,64490,2,0,P|67:22|32:38,1,80.9999975280763,8|0,0:0|0:0,0:0:0:0:
184,152,64865,2,0,P|219:167|255:152,1,80.9999975280763,8|0,1:2|0:0,0:0:0:0:
312,112,65146,1,0,0:0:0:0:
312,112,65240,1,8,0:0:0:0:
404,36,65427,1,0,1:2:0:0:
404,36,65615,6,0,P|456:36|508:80,1,121.499996292114,8|0,1:2|0:0,0:0:0:0:
507,78,65990,2,0,L|460:148,1,80.9999975280763,8|0,0:0|0:0,0:0:0:0:
392,244,66365,1,8,0:0:0:0:
300,380,66552,1,0,0:0:0:0:
300,380,66646,1,0,0:0:0:0:
300,380,66740,6,0,P|256:380|220:352,1,90,4|0,1:2|0:0,0:0:0:0:
120,260,67115,1,2,1:2:0:0:
120,124,67302,1,0,0:0:0:0:
120,124,67396,1,0,0:0:0:0:
120,124,67490,2,0,B|176:124|200:92|200:92|292:92,1,180,0|2,1:2|1:2,0:0:0:0:
424,192,68052,1,0,0:0:0:0:
424,192,68146,1,0,0:0:0:0:
424,192,68240,2,0,B|368:192|344:224|344:224|252:224,1,180,0|2,1:2|1:2,0:0:0:0:
120,124,68802,5,0,0:0:0:0:
120,124,68896,1,0,0:0:0:0:
120,124,68990,2,0,P|102:84|120:44,1,90,0|0,1:2|0:0,0:0:0:0:
296,84,69365,2,0,P|256:101|216:83,1,90,2|0,1:2|0:0,0:0:0:0:
393,44,69740,5,0,1:2:0:0:
393,44,69927,1,0,0:0:0:0:
476,192,70115,1,2,1:2:0:0:
476,192,70302,1,0,0:0:0:0:
324,268,70490,1,0,1:2:0:0:
324,268,70677,1,0,0:0:0:0:
241,120,70865,1,2,1:2:0:0:
241,120,71052,1,0,0:0:0:0:
393,44,71240,6,0,L|432:44,7,22.5,0|0|0|0|0|0|0|0,1:2|0:0|0:0|0:0|0:0|0:0|0:0|0:0,0:0:0:0:
424,112,71615,2,0,L|456:112,7,22.5,2|0|0|0|0|0|0|0,1:2|0:0|0:0|0:0|0:0|0:0|0:0|0:0,0:0:0:0:
456,180,71990,2,0,L|488:180,7,22.5,0|0|0|0|0|0|0|0,1:2|0:0|0:0|0:0|0:0|0:0|0:0|0:0,0:0:0:0:
488,248,72365,2,0,L|520:248,7,22.5,2|0|0|0|0|0|0|0,1:2|0:0|0:0|0:0|0:0|0:0|0:0|0:0,0:0:0:0:
512,316,72740,1,0,0:0:0:0:
512,316,73490,6,0,P|464:337|416:316,1,108,2|0,0:0|0:0,0:0:0:0:
415,315,73865,2,0,B|359:315|359:315|355:311|355:311|355:319|355:319|351:315|351:315|291:315|291:315|287:311|287:311|287:319|287:319|283:315|283:315|231:315,1,202.500007724762,2|0,1:2|0:0,0:0:0:0:
164,315,74240,6,0,P|113:315|75:283,1,99.0000030212403,4|0,1:2|0:0,0:0:0:0:
56,212,74521,1,0,0:0:0:0:
92,144,74615,2,0,P|130:114|179:115,1,99.0000030212403,8|8,0:0|0:0,0:0:0:0:
288,224,74990,2,0,L|356:296,1,99.0000030212403,2|0,0:0|0:0,0:0:0:0:
432,304,75271,1,0,0:0:0:0:
448,228,75365,2,0,L|380:156,1,99.0000030212403,8|0,0:0|0:0,0:0:0:0:
268,52,75740,5,2,0:0:0:0:
116,52,75927,1,0,0:0:0:0:
116,52,76021,1,0,0:0:0:0:
116,52,76115,2,0,P|72:32|28:52,1,99.0000030212403,8|8,0:0|0:0,0:0:0:0:
0,192,76490,1,2,0:0:0:0:
28,332,76677,1,0,0:0:0:0:
28,332,76771,1,0,0:0:0:0:
28,332,76865,2,0,P|72:351|116:332,1,99.0000030212403,8|0,0:0|0:0,0:0:0:0:
148,192,77240,6,0,B|184:192|184:192|208:208|208:208|248:208,1,99.0000030212403,2|0,0:0|0:0,0:0:0:0:
304,252,77521,1,0,0:0:0:0:
368,296,77615,2,0,B|404:296|404:296|428:312|428:312|468:312,1,99.0000030212403,8|8,0:0|0:0,0:0:0:0:
512,168,77990,2,0,L|452:80,1,99.0000030212403,2|0,0:0|0:0,0:0:0:0:
380,72,78271,1,0,0:0:0:0:
304,60,78365,2,0,P|252:60|216:32,1,99.0000030212403,8|0,0:0|0:0,0:0:0:0:
100,120,78740,5,2,0:0:0:0:
100,264,78927,1,0,0:0:0:0:
100,264,79021,1,0,0:0:0:0:
100,264,79115,2,0,P|80:307|100:351,1,99.0000030212403,8|8,0:0|0:0,0:0:0:0:
256,364,79490,1,2,0:0:0:0:
411,351,79677,1,0,0:0:0:0:
411,351,79771,1,0,0:0:0:0:
411,351,79865,2,0,P|431:307|412:264,1,99.0000030212403,8|0,0:0|0:0,0:0:0:0:
256,196,80240,6,0,B|256:156|256:156|252:152|252:152|260:152|260:152|256:148|256:148|256:104,1,99.0000030212403,4|0,1:2|0:0,0:0:0:0:
256,32,80521,1,0,0:0:0:0:
180,32,80615,2,0,B|140:32|140:32|136:36|136:36|136:28|136:28|132:32|132:32|88:32,1,99.0000030212403,8|8,0:0|0:0,0:0:0:0:
48,92,80896,1,0,0:0:0:0:
8,156,80990,1,2,0:0:0:0:
8,348,81177,5,0,0:0:0:0:
64,300,81271,1,0,0:0:0:0:
120,252,81365,2,0,B|164:274|164:274|207:252,1,99.0000030212403,8|0,0:0|0:0,0:0:0:0:
256,196,81646,1,0,0:0:0:0:
304,252,81740,2,0,B|348:274|348:274|392:252,1,99.0000030212403,2|0,0:0|0:0,0:0:0:0:
416,92,82115,6,0,B|416:40|416:40|384:4,1,99.0000030212403,8|8,0:0|0:0,0:0:0:0:
256,116,82490,1,2,0:0:0:0:
128,4,82677,1,0,0:0:0:0:
128,4,82771,1,0,0:0:0:0:
128,4,82865,2,0,B|97:40|97:40|97:92,1,99.0000030212403,8|0,0:0|0:0,0:0:0:0:
124,272,83240,6,0,P|72:272|40:304,1,99.0000030212403,2|0,0:0|0:0,0:0:0:0:
88,360,83521,1,0,0:0:0:0:
160,340,83615,2,0,P|212:340|244:308,1,99.0000030212403,8|8,0:0|0:0,0:0:0:0:
316,180,83990,2,0,L|408:220,1,99.0000030212403,2|0,0:0|0:0,0:0:0:0:
472,184,84271,1,0,0:0:0:0:
456,112,84365,2,0,L|364:72,1,99.0000030212403,8|0,0:0|0:0,0:0:0:0:
256,12,84740,5,2,0:0:0:0:
146,72,84927,1,0,0:0:0:0:
146,72,85021,1,0,0:0:0:0:
146,72,85115,2,0,L|56:112,1,99.0000030212403,8|8,0:0|0:0,0:0:0:0:
12,256,85490,1,2,0:0:0:0:
136,340,85677,1,0,0:0:0:0:
136,340,85771,1,0,0:0:0:0:
136,340,85865,2,0,L|226:300,1,99.0000030212403,8|0,0:0|0:0,0:0:0:0:
412,216,86240,6,0,B|412:180|412:180|424:152|424:152|424:120,1,99.0000030212403,4|0,1:2|0:0,0:0:0:0:
364,72,86521,1,0,0:0:0:0:
304,24,86615,2,0,B|268:24|268:24|240:12|240:12|208:12,1,99.0000030212403,8|8,0:0|0:0,0:0:0:0:
88,100,86990,2,0,P|36:100|4:132,1,99.0000030212403,2|0,0:0|0:0,0:0:0:0:
36,200,87271,1,0,0:0:0:0:
68,268,87365,2,0,L|108:360,1,99.0000030212403,8|0,0:0|0:0,0:0:0:0:
256,300,87740,5,2,0:0:0:0:
404,358,87927,1,0,0:0:0:0:
404,358,88021,1,0,0:0:0:0:
404,358,88115,2,0,L|444:268,1,99.0000030212403,8|8,0:0|0:0,0:0:0:0:
492,128,88490,1,2,0:0:0:0:
352,76,88677,1,0,0:0:0:0:
352,76,88771,1,0,0:0:0:0:
352,76,88865,2,0,P|300:76|260:48,1,99.0000030212403,8|0,0:0|0:0,0:0:0:0:
216,192,89240,6,0,P|268:192|308:220,1,99.0000030212403,2|0,0:0|0:0,0:0:0:0:
344,284,89521,1,0,0:0:0:0:
284,332,89615,2,0,P|232:332|192:304,1,99.0000030212403,8|8,0:0|0:0,0:0:0:0:
72,220,89990,2,0,B|52:168|84:168|72:124,1,99.0000030212403,2|0,0:0|0:0,0:0:0:0:
128,76,90271,1,0,0:0:0:0:
188,32,90365,2,0,B|240:12|240:44|284:32,1,99.0000030212403,8|0,0:0|0:0,0:0:0:0:
384,144,90740,5,2,0:0:0:0:
488,252,90927,1,0,0:0:0:0:
488,252,91021,1,0,0:0:0:0:
488,252,91115,2,0,L|420:332,1,99.0000030212403,8|8,0:0|0:0,0:0:0:0:
304,232,91490,1,2,0:0:0:0:
188,136,91677,1,0,0:0:0:0:
188,136,91771,1,0,0:0:0:0:
188,136,91865,2,0,P|136:136|96:108,1,99.0000030212403,8|0,0:0|0:0,0:0:0:0:
216,16,92240,6,0,P|268:16|308:44,1,99.0000030212403,4|0,1:2|0:0,0:0:0:0:
364,92,92521,1,0,0:0:0:0:
416,148,92615,2,0,P|457:174|505:173,1,99.0000030212403,8|8,0:0|0:0,0:0:0:0:
496,252,92896,1,0,0:0:0:0:
484,328,92990,1,2,0:0:0:0:
312,344,93177,5,0,0:0:0:0:
236,356,93271,1,0,0:0:0:0:
159,363,93365,2,0,P|107:367|67:343,1,99.0000030212403,8|0,0:0|0:0,0:0:0:0:
16,292,93646,1,0,0:0:0:0:
88,272,93740,2,0,P|139:267|179:291,1,99.0000030212403,2|0,0:0|0:0,0:0:0:0:
136,112,94115,6,0,P|188:112|228:76,1,99.0000030212403,8|8,0:0|0:0,0:0:0:0:
356,16,94490,1,2,0:0:0:0:
444,136,94677,1,0,0:0:0:0:
444,136,94771,1,0,0:0:0:0:
444,136,94865,2,0,P|464:180|444:224,1,99.0000030212403,8|0,0:0|0:0,0:0:0:0:
384,360,95240,6,0,P|340:379|296:359,1,99.0000030212403,4|0,1:2|0:0,0:0:0:0:
256,296,95521,1,0,0:0:0:0:
215,359,95615,2,0,P|171:379|128:360,1,99.0000030212403,8|12,0:0|1:2,0:0:0:0:
192,224,95990,2,0,P|172:180|191:136,1,99.0000030212403,0|0,0:0|0:0,0:0:0:0:
256,96,96271,1,0,0:0:0:0:
320,136,96365,2,0,P|339:180|320:224,1,99.0000030212403,12|0,1:2|0:0,0:0:0:0:
191,136,96740,5,0,0:0:0:0:
256,4,96927,1,0,0:0:0:0:
256,4,97021,1,0,0:0:0:0:
256,4,97115,2,0,P|308:4|344:36,1,99.0000030212403,8|8,0:0|0:0,0:0:0:0:
424,156,97490,1,0,0:0:0:0:
280,196,97677,1,0,0:0:0:0:
280,196,97771,1,0,0:0:0:0:
280,196,97865,2,0,P|228:196|192:164,1,99.0000030212403,8|0,0:0|0:0,0:0:0:0:
72,48,98240,5,4,1:2:0:0:
256,348,98990,1,4,1:2:0:0:
440,48,99927,1,4,1:2:0:0:
256,192,100302,1,4,1:2:0:0:
184,108,100490,6,0,P|168:72|184:36,1,80.9999975280763,2|0,1:2|0:0,0:0:0:0:
328,36,100865,2,0,P|344:72|328:108,1,80.9999975280763,2|0,1:2|0:0,0:0:0:0:
256,192,101240,1,4,0:0:0:0:
256,192,101333,12,0,103677,0:0:0:0:
