osu file format v14

[General]
AudioFilename: audio.mp3
AudioLeadIn: 0
PreviewTime: 73396
Countdown: 0
SampleSet: Soft
StackLeniency: 0.7
Mode: 0
LetterboxInBreaks: 0
WidescreenStoryboard: 1

[Editor]
DistanceSpacing: 0.9
BeatDivisor: 4
GridSize: 4
TimelineZoom: 1.7

[Metadata]
Title:Saikou Heart (TV Size)
TitleUnicode:サイコーハート (TV Size)
Artist:Miyashita Ai (CV: Murakami Natsumi)
ArtistUnicode:宮下 愛 (CV: 村上奈津実)
Creator:Andrea
Version:DS' Hard
Source:ラブライブ!虹ヶ咲学園スクールアイドル同好会
Tags:Ayaka Miyake PASSiON KiNG Videogame VGM Sekai Sekaii Sekai-nyan osuplayer111 Darksonic HabiHolic love live! nijigasaki high school idol club gakuen doukoukai doukou kai nijigaku ニジガク llas sifas スクスタ festival all stars スクールアイドルフェスティバル perfect dream project pdp insert anime video game japanese pop jpop j-pop
BeatmapID:2681634
BeatmapSetID:1292050

[Difficulty]
HPDrainRate:5
CircleSize:4
OverallDifficulty:6
ApproachRate:7.5
SliderMultiplier:1.4
SliderTickRate:2

[Events]
//Background and Video events
0,0,"aiaiaiai.jpg",0,0
Video,-200,"Video.mp4"
//Break Periods
//Storyboard Layer 0 (Background)
//Storyboard Layer 1 (Fail)
//Storyboard Layer 2 (Pass)
//Storyboard Layer 3 (Foreground)
//Storyboard Layer 4 (Overlay)
//Storyboard Sound Samples

[TimingPoints]
5240,375,4,2,1,40,1,0
5240,-125,4,2,1,40,0,0
6740,-125,4,2,1,20,0,0
7490,-125,4,2,1,40,0,0
9365,-200,4,2,1,40,0,0
10677,-125,4,2,1,5,0,0
11240,-125,4,2,1,40,0,0
12740,-125,4,2,1,20,0,0
13302,-125,4,2,1,40,0,0
14333,-125,4,2,1,30,0,0
18365,-125,4,2,1,5,0,0
18740,-111.111111111111,4,2,1,50,0,0
19115,-111.111111111111,4,1,1,40,0,0
20615,-111.111111111111,4,2,1,50,0,0
21271,-111.111111111111,4,2,1,5,0,0
21365,-111.111111111111,4,2,1,50,0,0
21740,-100,4,1,1,60,0,0
32896,-100,4,1,1,5,0,0
32990,-100,4,1,1,60,0,0
33740,-111.111111111111,4,2,1,50,0,0
39646,-111.111111111111,4,2,1,40,0,0
39740,-111.111111111111,4,2,1,50,0,0
44521,-111.111111111111,4,2,1,5,0,0
44615,-111.111111111111,4,2,1,50,0,0
44896,-111.111111111111,4,2,1,5,0,0
44990,-111.111111111111,4,2,1,50,0,0
57740,-125,4,2,1,50,0,0
59427,-125,4,2,2,40,0,0
59615,-125,4,2,1,50,0,0
59896,-125,4,2,1,5,0,0
59990,-125,4,2,1,50,0,0
61490,-125,4,2,3,40,0,0
61536,-125,4,2,1,50,0,0
62427,-125,4,2,2,40,0,0
62615,-125,4,2,1,50,0,0
63740,-111.111111111111,4,2,1,50,0,0
65896,-111.111111111111,4,2,1,5,0,0
65990,-111.111111111111,4,2,1,50,0,0
66740,-111.111111111111,4,2,1,55,0,0
69740,-100,4,2,1,60,0,0
71240,-100,4,1,1,50,0,0
72740,-100,4,2,1,20,0,0
73490,-125,4,2,1,40,0,0
74240,-90.9090909090909,4,1,1,60,0,1
86146,-90.9090909090909,4,1,1,60,0,0
86240,-90.9090909090909,4,1,1,60,0,1
98240,-111.111111111111,4,2,1,50,0,0
101333,-111.111111111111,4,2,1,40,0,0
101615,-111.111111111111,4,2,1,35,0,0
101990,-111.111111111111,4,2,1,30,0,0
102365,-111.111111111111,4,2,1,25,0,0
102740,-111.111111111111,4,2,1,20,0,0
103115,-111.111111111111,4,2,1,15,0,0
103490,-111.111111111111,4,2,1,10,0,0
103677,-111.111111111111,4,2,1,5,0,0

[Colours]
Combo1 : 255,255,170
Combo2 : 255,98,21
SliderBorder : 255,255,170
SliderTrackOverride : 255,98,21

[HitObjects]
352,280,5240,6,0,P|297:288|246:266,1,112,2|0,0:0|0:0,0:0:0:0:
256,187,5802,2,0,P|205:164|150:173,1,112,2|0,0:0|0:0,0:0:0:0:
90,221,6365,2,0,P|76:166|94:115,1,112,2|0,0:0|0:0,0:0:0:0:
344,76,7490,5,2,0:0:0:0:
420,88,7677,1,0,0:0:0:0:
372,148,7865,1,2,0:0:0:0:
372,148,8240,6,0,P|380:201|349:247,1,112,2|0,0:0|0:0,0:0:0:0:
284,292,8802,2,0,P|229:284|195:242,1,112,2|0,0:0|0:0,0:0:0:0:
260,192,9365,6,0,B|220:144|148:176|148:176|76:212|33:172,1,245,2|0,0:0|0:0,0:0:0:0:
132,328,11240,6,0,L|242:343,1,112,2|0,0:0|0:0,0:0:0:0:
244,264,11802,2,0,L|354:279,1,112,2|0,0:0|0:0,0:0:0:0:
376,355,12365,2,0,P|422:328|435:275,1,112,2|0,0:0|0:0,0:0:0:0:
431,59,13302,5,0,0:0:0:0:
431,59,13490,2,0,P|405:52|377:55,1,56,2|0,0:0|0:0,0:0:0:0:
348,128,13865,2,0,P|320:131|293:123,1,56,2|0,0:0|0:0,0:0:0:0:
272,48,14240,1,2,0:0:0:0:
256,192,14333,12,0,18365,0:0:0:0:
216,128,18740,6,0,P|144:156|152:220,1,125.999996154785,4|0,0:0|0:0,0:0:0:0:
212,248,19302,1,0,0:0:0:0:
272,312,19490,2,0,L|288:328,16,15.7499995193482,0|0|0|0|0|0|0|0|0|0|0|0|0|0|0|0|0,0:0|0:0|0:0|0:0|0:0|0:0|0:0|0:0|0:0|0:0|0:0|0:0|0:0|0:0|0:0|0:0|0:0,0:0:0:0:
284,224,20427,1,0,0:0:0:0:
347,167,20615,2,0,P|341:224|284:224,1,125.999996154785,2|2,0:0|0:0,0:0:0:0:
196,76,21365,2,0,P|164:74|134:83,1,62.9999980773926,2|0,0:0|0:0,0:0:0:0:
64,120,21740,5,4,1:2:0:0:
56,196,21927,2,0,L|52:244,2,35,0|0|8,1:0|1:0|1:0,0:0:0:0:
128,164,22302,1,8,1:0:0:0:
204,176,22490,1,2,1:0:0:0:
260,228,22677,2,0,L|294:230,2,35,0|0|8,1:0|1:0|1:0,0:0:0:0:
204,280,23052,1,0,1:0:0:0:
247,343,23240,6,0,P|281:351|316:348,1,70,2|0,1:0|1:0,0:0:0:0:
392,328,23615,2,0,P|399:294|396:259,1,70,8|8,1:0|1:0,0:0:0:0:
376,184,23990,1,2,1:0:0:0:
340,120,24177,1,0,1:0:0:0:
340,120,24271,1,0,1:0:0:0:
340,120,24365,2,0,P|304:108|272:112,1,70,8|0,1:0|1:0,0:0:0:0:
204,148,24740,5,2,1:0:0:0:
156,88,24927,2,0,L|161:53,2,35,0|0|8,1:0|1:0|1:0,0:0:0:0:
88,128,25302,1,8,1:0:0:0:
136,188,25490,1,2,1:0:0:0:
84,244,25677,2,0,L|49:238,2,35,0|0|8,1:0|1:0|1:0,0:0:0:0:
128,308,26052,1,0,1:0:0:0:
184,252,26240,6,0,L|253:263,1,70,2|0,1:0|1:0,0:0:0:0:
264,340,26615,2,0,L|333:328,1,70,8|8,1:0|1:0,0:0:0:0:
412,320,26990,1,2,1:0:0:0:
448,252,27177,1,0,1:0:0:0:
448,252,27271,1,0,1:0:0:0:
448,251,27365,2,0,P|452:216|443:182,1,70,8|0,1:0|1:0,0:0:0:0:
416,108,27740,5,2,1:0:0:0:
444,36,27927,2,0,L|478:42,2,35,0|0|8,1:0|1:0|1:0,0:0:0:0:
368,20,28302,1,8,1:0:0:0:
340,92,28490,1,2,1:0:0:0:
352,168,28677,2,0,L|358:202,2,35,0|0|8,1:0|1:0|1:0,0:0:0:0:
280,140,29052,1,0,1:0:0:0:
264,64,29240,6,0,P|232:48|198:49,1,70,2|0,1:0|1:0,0:0:0:0:
136,96,29615,2,0,P|101:94|70:110,1,70,8|8,1:0|1:0,0:0:0:0:
44,184,29990,1,2,1:0:0:0:
64,268,30177,1,0,1:0:0:0:
64,268,30271,1,0,1:0:0:0:
64,268,30365,2,0,P|73:300|99:324,1,70,8|0,1:0|1:0,0:0:0:0:
168,360,30740,6,0,L|237:367,1,70,2|0,1:0|1:0,0:0:0:0:
268,296,31115,2,0,L|337:303,1,70,8|8,1:0|1:0,0:0:0:0:
376,373,31490,2,0,P|415:318|394:253,1,140,2|8,1:0|1:0,0:0:0:0:
336,200,32052,1,0,1:0:0:0:
408,168,32240,2,0,P|387:103|426:48,2,140,2|8|2,1:0|1:0|1:0,0:0:0:0:
336,200,33177,2,0,L|328:240,4,35,0|8|8|0|8,0:0|1:0|1:0|0:0|1:0,0:0:0:0:
256,196,33740,1,4,3:2:0:0:
264,40,34115,6,0,P|232:36|201:38,1,62.9999980773926,2|0,3:2|0:0,0:0:0:0:
228,112,34490,2,0,P|196:114|165:110,2,62.9999980773926,0|0|2,3:2|0:0|3:2,0:0:0:0:
304,100,35052,1,0,0:0:0:0:
280,172,35240,2,0,P|296:232|281:292,1,125.999996154785,0|2,3:2|3:2,0:0:0:0:
228,348,35802,2,0,P|167:364|107:349,1,125.999996154785,0|0,0:0|0:0,0:0:0:0:
76,280,36365,1,2,3:2:0:0:
36,216,36552,1,0,0:0:0:0:
72,148,36740,1,0,3:2:0:0:
180,256,37115,6,0,L|242:264,1,62.9999980773926,2|0,3:2|0:0,0:0:0:0:
284,200,37490,2,0,L|346:208,2,62.9999980773926,0|0|2,3:2|0:0|3:2,0:0:0:0:
236,140,38052,1,0,0:0:0:0:
308,116,38240,2,0,L|432:133,1,125.999996154785,0|2,3:2|3:2,0:0:0:0:
467,199,38802,2,0,P|472:261|438:313,1,125.999996154785,0|0,0:0|0:0,0:0:0:0:
368,288,39365,1,2,3:2:0:0:
316,344,39552,1,0,3:2:0:0:
256,296,39740,1,0,3:2:0:0:
120,364,40115,5,2,3:2:0:0:
180,316,40302,1,0,0:0:0:0:
256,296,40490,1,0,3:2:0:0:
199,243,40677,2,0,P|192:213|192:182,1,62.9999980773926,0|2,0:0|3:2,0:0:0:0:
208,108,41052,1,0,0:0:0:0:
248,44,41240,1,0,3:2:0:0:
340,164,41615,5,2,3:2:0:0:
268,192,41802,1,0,0:0:0:0:
192,182,41990,1,0,3:2:0:0:
132,136,42177,2,0,P|109:114|93:87,1,62.9999980773926,0|2,0:0|3:2,0:0:0:0:
132,20,42552,1,0,0:0:0:0:
191,67,42740,6,0,P|249:91|309:77,1,125.999996154785,0|2,3:2|3:2,0:0:0:0:
352,140,43302,2,0,P|382:193|376:255,1,125.999996154785,0|2,0:0|0:0,0:0:0:0:
256,352,44052,1,0,0:0:0:0:
188,316,44240,2,0,P|157:262|163:200,1,125.999996154785,0|2,3:2|3:2,0:0:0:0:
204,136,44802,1,0,0:0:0:0:
239,203,44990,2,0,P|270:212|300:205,1,62.9999980773926,0|0,3:2|0:0,0:0:0:0:
344,144,45365,1,2,3:2:0:0:
412,112,45552,1,0,3:2:0:0:
476,152,45740,5,2,3:2:0:0:
412,192,45927,2,0,L|389:214,2,31.4999990386963,0|8|0,0:0|0:0|3:2,0:0:0:0:
464,248,46302,1,8,0:0:0:0:
400,287,46490,2,0,P|372:302|341:308,1,62.9999980773926,2|0,3:2|0:0,0:0:0:0:
308,240,46865,2,0,P|277:234|249:219,1,62.9999980773926,8|0,3:2|0:0,0:0:0:0:
260,144,47240,5,2,3:2:0:0:
212,84,47427,2,0,L|218:53,2,31.4999990386963,0|8|0,0:0|0:0|3:2,0:0:0:0:
156,136,47802,1,10,0:0:0:0:
208,192,47990,1,0,3:2:0:0:
168,260,48177,1,0,0:0:0:0:
168,260,48271,1,8,0:0:0:0:
168,259,48365,2,0,P|147:282|120:299,1,62.9999980773926,2|8,3:2|0:0,0:0:0:0:
72,240,48740,5,2,3:2:0:0:
24,180,48927,2,0,L|21:148,2,31.4999990386963,0|8|0,0:0|0:0|3:2,0:0:0:0:
100,168,49302,1,8,0:0:0:0:
135,100,49490,2,0,P|158:77|186:65,1,62.9999980773926,2|0,3:2|0:0,0:0:0:0:
204,140,49865,2,0,P|232:152|254:174,1,62.9999980773926,8|0,3:2|0:0,0:0:0:0:
192,216,50240,5,2,3:2:0:0:
180,292,50427,2,0,L|175:323,2,31.4999990386963,0|8|0,0:0|0:0|3:2,0:0:0:0:
252,268,50802,1,10,0:0:0:0:
308,320,50990,1,0,3:2:0:0:
392,328,51177,1,0,0:0:0:0:
392,328,51271,1,8,0:0:0:0:
392,328,51365,2,0,P|419:312|439:288,1,62.9999980773926,2|8,3:2|0:0,0:0:0:0:
432,212,51740,5,2,3:2:0:0:
380,156,51927,2,0,L|394:127,2,31.4999990386963,0|8|0,0:0|0:0|3:2,0:0:0:0:
320,204,52302,1,8,0:0:0:0:
244,192,52490,2,0,P|215:154|207:108,1,94.499997116089,0|8,3:2|0:0,0:0:0:0:
201,71,52865,2,0,L|157:27,1,62.9999980773926,2|0,3:2|0:0,0:0:0:0:
84,52,53240,5,0,3:2:0:0:
48,120,53427,2,0,L|36:149,2,31.4999990386963,0|8|0,0:0|0:0|3:2,0:0:0:0:
120,144,53802,1,8,0:0:0:0:
84,212,53990,2,0,L|50:300,1,94.499997116089,0|8,3:2|0:0,0:0:0:0:
38,336,54365,2,0,B|68:359|94:361,1,62.9999980773926,2|0,3:2|0:0,0:0:0:0:
168,340,54740,5,2,3:2:0:0:
244,352,54927,2,0,L|275:357,2,31.4999990386963,0|8|0,0:0|0:0|3:2,0:0:0:0:
216,280,55302,1,10,0:0:0:0:
243,208,55490,2,0,P|265:185|293:171,1,62.9999980773926,0|0,3:2|0:0,0:0:0:0:
312,96,55865,2,0,P|340:109|361:132,1,62.9999980773926,8|2,3:2|0:0,0:0:0:0:
384,204,56240,5,0,3:2:0:0:
376,280,56427,2,0,L|373:311,2,31.4999990386963,0|8|0,0:0|0:0|3:2,0:0:0:0:
300,280,56802,1,8,0:0:0:0:
256,348,56990,1,2,3:2:0:0:
180,328,57177,1,0,0:0:0:0:
180,328,57271,1,8,0:0:0:0:
180,328,57365,2,0,L|122:302,1,62.9999980773926,0|8,3:2|0:0,0:0:0:0:
56,264,57740,6,0,P|33:215|46:161,1,112,8|8,1:2|0:0,0:0:0:0:
140,36,58490,2,0,P|163:85|150:139,1,112,8|8,0:0|1:2,0:0:0:0:
192,204,59052,1,0,0:0:0:0:
260,240,59240,2,0,P|309:263|363:250,1,112,8|8,0:0|1:2,0:0:0:0:
492,164,59990,2,0,P|442:140|388:153,1,112,8|8,0:0|0:0,0:0:0:0:
338,95,60552,1,0,0:0:0:0:
296,160,60740,6,0,L|186:136,1,112,8|8,1:2|0:0,0:0:0:0:
192,60,61302,2,0,L|82:36,1,112,0|0,0:0|0:0,0:0:0:0:
32,92,61865,1,8,1:2:0:0:
48,168,62052,1,0,0:0:0:0:
20,240,62240,2,0,P|31:293|78:319,1,112,8|8,0:0|1:2,0:0:0:0:
140,272,62802,1,0,0:0:0:0:
172,344,62990,2,0,L|227:354,1,56,8|0,0:0|0:0,0:0:0:0:
248,280,63365,2,0,L|303:290,1,56,8|0,1:2|0:0,0:0:0:0:
336,224,63740,5,8,1:2:0:0:
336,224,63927,1,0,0:0:0:0:
384,284,64115,2,0,P|405:261|417:232,1,62.9999980773926,8|0,0:0|0:0,0:0:0:0:
412,160,64490,1,8,0:0:0:0:
412,160,64677,1,0,0:0:0:0:
400,84,64865,2,0,P|387:55|366:32,1,62.9999980773926,8|0,1:2|0:0,0:0:0:0:
328,100,65240,5,8,0:0:0:0:
328,100,65427,1,0,1:2:0:0:
256,131,65615,2,0,P|224:136|194:129,1,62.9999980773926,8|0,1:2|0:0,0:0:0:0:
168,56,65990,1,8,0:0:0:0:
168,56,66177,1,0,0:0:0:0:
120,116,66365,2,0,P|88:111|58:118,1,62.9999980773926,8|0,0:0|0:0,0:0:0:0:
47,196,66740,6,0,P|47:257|83:307,1,125.999996154785,4|2,1:2|1:2,0:0:0:0:
148,352,67302,1,0,0:0:0:0:
224,368,67490,2,0,P|284:374|338:343,1,125.999996154785,0|2,1:2|1:2,0:0:0:0:
389,283,68052,1,0,0:0:0:0:
412,208,68240,2,0,P|424:148|399:91,1,125.999996154785,0|2,1:2|1:2,0:0:0:0:
344,35,68802,1,0,0:0:0:0:
268,20,68990,2,0,P|237:15|206:20,1,62.9999980773926,0|0,1:2|0:0,0:0:0:0:
140,60,69365,1,2,1:2:0:0:
112,132,69552,1,0,0:0:0:0:
128,216,69740,6,0,L|197:222,1,70,0|0,1:2|0:0,0:0:0:0:
208,300,70115,2,0,L|277:306,1,70,2|0,1:2|0:0,0:0:0:0:
300,232,70490,2,0,L|369:238,1,70,0|0,1:2|0:0,0:0:0:0:
380,316,70865,2,0,L|449:322,1,70,2|0,1:2|0:0,0:0:0:0:
472,248,71240,6,0,L|477:213,7,35,0|0|0|0|2|0|0|0,1:2|0:0|0:0|0:0|1:2|0:0|0:0|0:0,0:0:0:0:
472,176,71990,2,0,L|467:159,16,17.5,0|0|0|0|0|0|0|0|2|0|0|0|0|0|0|0|0,1:2|0:0|0:0|0:0|0:0|0:0|0:0|0:0|1:2|0:0|0:0|0:0|0:0|0:0|0:0|0:0|0:0,0:0:0:0:
252,40,73490,5,2,0:0:0:0:
132,136,73865,1,2,1:2:0:0:
172,284,74240,5,4,1:2:0:0:
228,340,74427,2,0,L|216:376,2,38.5000011749268,0|0|8,0:0|0:0|0:0,0:0:0:0:
292,291,74802,2,0,P|330:287|367:295,1,77.0000023498536,8|2,0:0|0:0,0:0:0:0:
436,336,75177,1,0,0:0:0:0:
436,256,75365,2,0,P|444:218|439:180,1,77.0000023498536,8|0,0:0|0:0,0:0:0:0:
416,104,75740,5,2,0:0:0:0:
364,44,75927,2,0,L|381:9,2,38.5000011749268,0|0|8,0:0|0:0|0:0,0:0:0:0:
308,100,76302,1,8,0:0:0:0:
360,160,76490,1,2,0:0:0:0:
288,176,76677,1,0,0:0:0:0:
288,176,76771,1,0,0:0:0:0:
288,176,76865,2,0,P|244:192|208:192,1,77.0000023498536,8|0,0:0|0:0,0:0:0:0:
176,124,77240,5,2,0:0:0:0:
136,56,77427,2,0,L|112:20,2,38.5000011749268,0|0|8,0:0|0:0|0:0,0:0:0:0:
80,111,77802,2,0,P|53:139|46:177,1,77.0000023498536,8|2,0:0|0:0,0:0:0:0:
116,216,78177,1,0,0:0:0:0:
48,256,78365,2,0,P|55:293|81:321,1,77.0000023498536,8|0,0:0|0:0,0:0:0:0:
152,288,78740,6,0,L|232:271,1,77.0000023498536,2|0,0:0|0:0,0:0:0:0:
240,268,79021,1,0,0:0:0:0:
252,264,79115,1,8,0:0:0:0:
316,312,79302,1,8,0:0:0:0:
324,232,79490,1,2,0:0:0:0:
400,280,79677,1,0,0:0:0:0:
400,280,79771,1,0,0:0:0:0:
400,280,79865,2,0,P|444:272|464:248,1,77.0000023498536,8|0,0:0|0:0,0:0:0:0:
464,168,80240,5,4,1:2:0:0:
468,88,80427,2,0,L|504:76,2,38.5000011749268,0|0|8,0:0|0:0|0:0,0:0:0:0:
412,32,80802,2,0,L|376:20,2,38.5000011749268,8|0|2,0:0|0:0|0:0,0:0:0:0:
392,108,81177,1,0,0:0:0:0:
320,72,81365,5,8,0:0:0:0:
248,40,81552,2,0,L|212:24,2,38.5000011749268,0|0|2,0:0|0:0|0:0,0:0:0:0:
240,120,81927,2,0,L|204:136,2,38.5000011749268,0|0|8,0:0|0:0|0:0,0:0:0:0:
308,160,82302,1,8,0:0:0:0:
304,240,82490,1,2,0:0:0:0:
256,304,82677,1,0,0:0:0:0:
256,304,82771,1,0,0:0:0:0:
256,303,82865,2,0,P|228:329|191:340,1,77.0000023498536,8|0,0:0|0:0,0:0:0:0:
136,284,83240,5,2,0:0:0:0:
64,252,83427,2,0,L|28:236,2,38.5000011749268,0|0|8,0:0|0:0|0:0,0:0:0:0:
128,204,83802,1,8,0:0:0:0:
60,164,83990,1,2,0:0:0:0:
128,124,84177,2,0,L|164:108,2,38.5000011749268,0|0|8,0:0|0:0|0:0,0:0:0:0:
92,52,84552,6,0,L|164:20,1,77.0000023498536,0|2,0:0|0:0,0:0:0:0:
236,68,84927,1,0,0:0:0:0:
236,68,85021,1,0,0:0:0:0:
236,68,85115,2,0,P|268:88|284:124,1,77.0000023498536,8|8,0:0|0:0,0:0:0:0:
244,192,85490,1,2,0:0:0:0:
308,256,85677,1,0,0:0:0:0:
308,256,85771,1,0,0:0:0:0:
308,256,85865,2,0,P|328:288|364:304,1,77.0000023498536,8|0,0:0|0:0,0:0:0:0:
428,260,86240,5,4,1:2:0:0:
452,184,86427,2,0,L|490:180,2,38.5000011749268,0|0|8,0:0|0:0|0:0,0:0:0:0:
403,120,86802,2,0,P|366:128|330:117,1,77.0000023498536,8|2,0:0|0:0,0:0:0:0:
312,40,87177,1,0,0:0:0:0:
256,96,87365,2,0,P|218:87|182:98,1,77.0000023498536,8|0,0:0|0:0,0:0:0:0:
128,156,87740,5,2,0:0:0:0:
56,124,87927,2,0,L|47:86,2,38.5000011749268,0|0|8,0:0|0:0|0:0,0:0:0:0:
20,196,88302,1,8,0:0:0:0:
92,232,88490,1,2,0:0:0:0:
32,284,88677,1,0,0:0:0:0:
32,284,88771,1,0,0:0:0:0:
32,284,88865,2,0,P|52:328|84:340,1,77.0000023498536,8|0,0:0|0:0,0:0:0:0:
152,332,89240,5,2,0:0:0:0:
228,356,89427,2,0,L|265:366,2,38.5000011749268,0|0|8,0:0|0:0|0:0,0:0:0:0:
248,280,89802,2,0,L|322:300,1,77.0000023498536,8|2,0:0|0:0,0:0:0:0:
376,360,90177,1,0,0:0:0:0:
396,284,90365,2,0,L|416:209,1,77.0000023498536,8|0,0:0|0:0,0:0:0:0:
444,136,90740,6,0,P|424:100|388:80,1,77.0000023498536,2|0,0:0|0:0,0:0:0:0:
380,80,91021,1,0,0:0:0:0:
366,82,91115,1,8,0:0:0:0:
336,156,91302,1,8,0:0:0:0:
280,100,91490,1,2,0:0:0:0:
208,100,91677,1,0,0:0:0:0:
208,100,91771,1,0,0:0:0:0:
207,99,91865,2,0,P|169:99|134:114,1,77.0000023498536,8|0,0:0|0:0,0:0:0:0:
76,168,92240,5,4,1:2:0:0:
72,248,92427,2,0,L|34:254,2,38.5000011749268,0|0|8,0:0|0:0|0:0,0:0:0:0:
108,320,92802,2,0,L|145:313,2,38.5000011749268,8|0|2,0:0|0:0|0:0,0:0:0:0:
72,248,93177,1,0,0:0:0:0:
152,236,93365,5,8,0:0:0:0:
230,219,93552,2,0,L|267:212,2,38.5000011749268,0|0|2,0:0|0:0|0:0,0:0:0:0:
248,296,93927,2,0,L|254:333,2,38.5000011749268,0|0|8,0:0|0:0|0:0,0:0:0:0:
324,268,94302,1,8,0:0:0:0:
356,196,94490,1,2,0:0:0:0:
332,120,94677,1,0,0:0:0:0:
332,120,94771,1,0,0:0:0:0:
332,119,94865,2,0,P|321:83|295:55,1,77.0000023498536,8|0,0:0|0:0,0:0:0:0:
244,116,95240,6,0,L|168:120,1,77.0000023498536,4|0,1:2|0:0,0:0:0:0:
152,120,95521,1,0,0:0:0:0:
136,120,95615,1,8,0:0:0:0:
140,200,95802,2,0,L|64:204,1,77.0000023498536,12|0,1:2|0:0,0:0:0:0:
40,280,96177,2,0,L|2:282,2,38.5000011749268,0|0|12,0:0|0:0|1:2,0:0:0:0:
92,340,96552,1,0,0:0:0:0:
136,272,96740,5,0,0:0:0:0:
200,336,96927,1,0,0:0:0:0:
200,336,97021,1,0,0:0:0:0:
199,335,97115,2,0,P|236:342|274:339,1,77.0000023498536,8|8,0:0|0:0,0:0:0:0:
308,268,97490,1,0,0:0:0:0:
388,308,97677,1,0,0:0:0:0:
388,308,97771,1,0,0:0:0:0:
388,308,97865,2,0,L|416:236,1,77.0000023498536,8|0,0:0|0:0,0:0:0:0:
408,160,98240,5,4,1:2:0:0:
104,160,98990,1,4,1:2:0:0:
256,328,99927,1,4,1:2:0:0:
256,176,100302,1,4,1:2:0:0:
256,100,100490,6,0,L|193:105,1,62.9999980773926,2|0,1:2|0:0,0:0:0:0:
172,180,100865,2,0,L|109:185,1,62.9999980773926,2|0,1:2|0:0,0:0:0:0:
68,120,101240,1,4,0:0:0:0:
256,192,101333,12,0,103677,0:0:0:0:
