osu file format v14

[General]
AudioFilename: audio.mp3
AudioLeadIn: 0
PreviewTime: 57228
Countdown: 0
SampleSet: Soft
StackLeniency: 0.4
Mode: 0
LetterboxInBreaks: 0
WidescreenStoryboard: 1

[Editor]
Bookmarks: 410,14955,29500,44046,58591,73137,87682,102228,116773,131319,145864,160410,174955,191319,205864,220410,234955,249500,264046,278591
DistanceSpacing: 1
BeatDivisor: 4
GridSize: 4
TimelineZoom: 1

[Metadata]
Title:Meccha Going!!
TitleUnicode:めっちゃGoing!!
Artist:Miyashita Ai (CV: Murakami Natsumi)
ArtistUnicode:宮下 愛 (CV: 村上奈津実)
Creator:Andrea
Version:Sure's Insane!!
Source:ラブライブ!スクールアイドルフェスティバル ALL STARS
Tags:osuplayer111 Sure ykcarrot Full Version 虹ヶ咲学園スクールアイドル同好会 LoveLive! Love Live! School Idol Festival ALL STARS llsif sifas スクスタ Sukusuta PDP Perfect Dream Project TOKIMEKI Runners 虹ヶ咲学園スクールアイドル同好会 Nijigasaki High School Idol Club Doukoukai Dōkōkai Dokokai Club Academy High Video Game Pop JPop J-Pop Anime Japanese Solo Character Song
BeatmapID:2608764
BeatmapSetID:1247322

[Difficulty]
HPDrainRate:6
CircleSize:4
OverallDifficulty:7
ApproachRate:8
SliderMultiplier:2
SliderTickRate:1

[Events]
//Background and Video events
0,0,"Sure BG.jpg",0,0
Video,230,"Video.mp4"
//Break Periods
//Storyboard Layer 0 (Background)
//Storyboard Layer 1 (Fail)
//Storyboard Layer 2 (Pass)
//Storyboard Layer 3 (Foreground)
//Storyboard Layer 4 (Overlay)
//Storyboard Sound Samples

[TimingPoints]
410,454.545454545455,4,2,1,60,1,0
14500,-100,4,2,3,60,0,0
14614,-100,4,2,1,60,0,0
29046,-100,4,2,3,60,0,0
29160,-100,4,2,1,60,0,0
43591,-100,4,2,3,60,0,0
43705,-100,4,2,1,60,0,0
57569,-100,4,2,1,5,0,0
57682,-100,4,2,1,60,0,0
58023,-100,4,2,3,60,0,0
58591,-83.3333333333333,4,2,1,70,0,1
61773,-66.6666666666667,4,2,1,70,0,1
62228,-83.3333333333333,4,2,1,70,0,1
65410,-66.6666666666667,4,2,1,70,0,1
65864,-83.3333333333333,4,2,1,70,0,1
69046,-83.3333333333333,4,2,3,70,0,1
69160,-83.3333333333333,4,2,1,70,0,1
72455,-83.3333333333333,4,2,1,50,0,1
72682,-83.3333333333333,4,2,3,70,0,1
73023,-83.3333333333333,4,2,1,70,0,0
73137,-83.3333333333333,4,2,1,70,0,1
76319,-66.6666666666667,4,2,1,70,0,1
76773,-83.3333333333333,4,2,1,70,0,1
79955,-66.6666666666667,4,2,1,70,0,1
80410,-83.3333333333333,4,2,1,70,0,1
83591,-83.3333333333333,4,2,3,70,0,1
83705,-83.3333333333333,4,2,1,70,0,1
87228,-83.3333333333333,4,2,3,70,0,1
87341,-83.3333333333333,4,2,1,70,0,1
87682,-90.9090909090909,4,2,1,70,0,0
90864,-90.9090909090909,4,2,3,70,0,0
90978,-90.9090909090909,4,2,1,70,0,0
94500,-90.9090909090909,4,2,3,70,0,0
94614,-90.9090909090909,4,2,1,70,0,0
98137,-90.9090909090909,4,2,3,70,0,0
98250,-90.9090909090909,4,2,1,70,0,0
101773,-90.9090909090909,4,2,3,70,0,0
101887,-90.9090909090909,4,2,1,70,0,0
102228,-100,4,2,1,60,0,0
116319,-100,4,2,3,60,0,0
116432,-100,4,2,2,50,0,0
123591,-100,4,2,3,50,0,0
124046,-100,4,2,2,50,0,0
130864,-100,4,2,3,50,0,0
130978,-100,4,2,1,60,0,0
144841,-100,4,2,1,5,0,0
144955,-100,4,2,1,60,0,0
145296,-100,4,2,3,60,0,0
145864,-83.3333333333333,4,2,1,70,0,1
149046,-66.6666666666667,4,2,1,70,0,1
149500,-83.3333333333333,4,2,1,70,0,1
152682,-66.6666666666667,4,2,1,70,0,1
153137,-83.3333333333333,4,2,1,70,0,1
156319,-83.3333333333333,4,2,3,70,0,1
156432,-83.3333333333333,4,2,1,70,0,1
159728,-83.3333333333333,4,2,1,50,0,1
159955,-83.3333333333333,4,2,3,70,0,1
160296,-83.3333333333333,4,2,1,70,0,0
160410,-83.3333333333333,4,2,1,70,0,1
163591,-66.6666666666667,4,2,1,70,0,1
164046,-83.3333333333333,4,2,1,70,0,1
167228,-66.6666666666667,4,2,1,70,0,1
167682,-83.3333333333333,4,2,1,70,0,1
170864,-83.3333333333333,4,2,3,70,0,1
170978,-83.3333333333333,4,2,1,70,0,1
174273,-83.3333333333333,4,2,1,50,0,1
174500,-83.3333333333333,4,2,3,70,0,1
174955,-90.9090909090909,4,2,1,60,0,0
178137,-90.9090909090909,4,2,3,60,0,0
178250,-90.9090909090909,4,2,1,60,0,0
181773,-90.9090909090909,4,2,3,60,0,0
181887,-90.9090909090909,4,2,1,60,0,0
182228,-66.6666666666667,4,2,1,60,0,0
185410,-66.6666666666667,4,2,3,60,0,0
185637,-66.6666666666667,4,2,1,60,0,0
189046,-66.6666666666667,4,2,3,60,0,0
189273,-66.6666666666667,4,2,1,60,0,0
191319,-100,4,2,2,60,0,0
194500,-100,4,2,3,60,0,0
194614,-100,4,2,1,60,0,0
198137,-100,4,2,3,60,0,0
198250,-100,4,2,2,60,0,0
201773,-100,4,2,3,60,0,0
201887,-100,4,2,2,60,0,0
205410,-100,4,2,3,60,0,0
205864,-100,4,2,1,60,0,0
209046,-100,4,2,3,60,0,0
209160,-100,4,2,1,60,0,0
212682,-100,4,2,3,60,0,0
212796,-100,4,2,1,60,0,0
216319,-100,4,2,3,60,0,0
216432,-100,4,2,1,60,0,0
219387,-100,4,2,1,5,0,0
219500,-100,4,2,1,60,0,0
219955,-100,4,2,3,60,0,0
219983,-100,4,2,1,60,0,0
220296,-100,4,2,1,5,0,0
220410,-83.3333333333333,4,2,1,70,0,1
223591,-66.6666666666667,4,2,1,70,0,1
224046,-83.3333333333333,4,2,1,70,0,1
227228,-66.6666666666667,4,2,1,70,0,1
227682,-83.3333333333333,4,2,1,70,0,1
230864,-83.3333333333333,4,2,3,70,0,1
230978,-83.3333333333333,4,2,1,70,0,1
234273,-83.3333333333333,4,2,1,50,0,1
234500,-83.3333333333333,4,2,3,70,0,1
234841,-83.3333333333333,4,2,1,70,0,0
234955,-83.3333333333333,4,2,1,70,0,1
238137,-66.6666666666667,4,2,1,70,0,1
238591,-83.3333333333333,4,2,1,70,0,1
241773,-66.6666666666667,4,2,1,70,0,1
242228,-83.3333333333333,4,2,1,70,0,1
245410,-83.3333333333333,4,2,3,70,0,1
245523,-83.3333333333333,4,2,1,70,0,1
248819,-83.3333333333333,4,2,1,50,0,1
249046,-83.3333333333333,4,2,3,70,0,1
249500,-90.9090909090909,4,2,1,70,0,0
252682,-90.9090909090909,4,2,3,70,0,0
252796,-90.9090909090909,4,2,1,70,0,0
256319,-90.9090909090909,4,2,3,70,0,0
256432,-90.9090909090909,4,2,1,70,0,0
259955,-90.9090909090909,4,2,3,70,0,0
260069,-90.9090909090909,4,2,1,70,0,0
263591,-90.9090909090909,4,2,3,70,0,0
263705,-90.9090909090909,4,2,1,70,0,0
264046,-100,4,2,1,60,0,0
267228,-76.9230769230769,4,2,1,60,0,0
267682,-100,4,2,1,60,0,0
270864,-76.9230769230769,4,2,1,60,0,0
271319,-100,4,2,1,60,0,0
278137,-100,4,2,3,60,0,0
278250,-100,4,2,1,60,0,0
278591,-100,4,2,1,50,0,0
278705,-100,4,2,1,40,0,0
279046,-100,4,2,1,35,0,0
279500,-100,4,2,1,30,0,0
279955,-100,4,2,1,25,0,0
280410,-100,4,2,1,20,0,0
280864,-100,4,2,1,15,0,0
281319,-100,4,2,1,10,0,0
281773,-100,4,2,1,5,0,0

[Colours]
Combo1 : 255,128,128
Combo2 : 255,255,128
SliderBorder : 255,128,128
SliderTrackOverride : 213,213,255

[HitObjects]
180,20,410,6,0,P|192:68|180:116,1,100,12|0,1:2|0:0,0:0:0:0:
80,116,864,1,8,0:0:0:0:
80,116,978,2,0,L|80:220,1,100
80,268,1319,1,8,0:0:0:0:
80,368,1546,2,0,P|128:380|176:368,2,100,0|8|0,0:0|0:0|0:0,0:0:0:0:
80,268,2228,6,0,P|128:256|176:268,1,100,8|0,0:0|0:0,0:0:0:0:
176,368,2682,1,8,0:0:0:0:
176,368,2796,2,0,L|280:368,1,100
328,368,3137,1,8,0:0:0:0:
428,368,3364,2,0,P|440:320|428:272,2,100,0|8|0,0:0|0:0|0:0,0:0:0:0:
328,368,4046,6,0,P|316:320|328:272,1,100,8|0,0:0|0:0,0:0:0:0:
428,272,4500,1,8,0:0:0:0:
428,272,4614,2,0,L|428:168,1,100
428,120,4955,1,8,0:0:0:0:
428,20,5182,2,0,P|380:8|332:20,2,100,0|8|0,0:0|0:0|0:0,0:0:0:0:
428,120,5864,6,0,P|380:132|332:120,1,100,8|0,0:0|0:0,0:0:0:0:
332,20,6318,1,8,0:0:0:0:
332,20,6432,2,0,L|228:20,1,100
180,20,6773,1,8,0:0:0:0:
80,20,7000,2,0,P|68:68|80:116,2,100,0|8|0,0:0|0:0|0:0,0:0:0:0:
180,20,7682,6,0,L|252:92,1,100,12|0,1:2|0:0,0:0:0:0:
352,92,8137,2,0,P|340:144|308:176,1,100,8|0,1:0|0:0,0:0:0:0:
208,184,8591,2,0,L|136:256,1,100,8|0,1:0|0:0,0:0:0:0:
36,256,9046,2,0,P|48:308|80:340,1,100,8|0,1:0|0:0,0:0:0:0:
180,348,9500,6,0,L|284:348,1,100,8|0,1:0|0:0,0:0:0:0:
380,348,9955,2,0,P|392:300|380:252,1,100,8|0,1:0|0:0,0:0:0:0:
280,252,10410,2,0,P|268:204|280:156,1,100,8|0,1:0|0:0,0:0:0:0:
380,156,10864,2,0,L|480:156,1,100,8|0,1:0|0:0,0:0:0:0:
480,256,11319,5,8,1:0:0:0:
480,256,11546,1,8,1:0:0:0:
448,352,11773,1,8,1:0:0:0:
448,352,12000,1,8,1:0:0:0:
348,352,12228,1,8,1:0:0:0:
348,352,12455,1,8,1:0:0:0:
320,256,12682,1,8,1:0:0:0:
320,256,12910,1,8,1:0:0:0:
400,196,13137,6,0,P|448:172|468:132,1,100,12|0,1:2|0:0,0:0:0:0:
372,100,13591,2,0,B|304:72|256:8|256:8|208:72|140:100,1,300,2|0,0:0|0:0,0:0:0:0:
44,132,14500,2,0,P|64:172|111:195,1,100,8|0,1:2|0:0,0:0:0:0:
204,232,14955,5,0,1:0:0:0:
304,232,15182,1,0,0:0:0:0:
400,208,15410,2,0,P|442:182|467:140,1,100,0|0,1:0|0:0,0:0:0:0:
397,69,15864,2,0,P|354:94|329:136,1,100,0|0,1:0|0:0,0:0:0:0:
304,232,16319,1,0,1:0:0:0:
256,320,16546,1,0,0:0:0:0:
156,320,16773,5,0,1:0:0:0:
108,232,17000,1,0,0:0:0:0:
156,144,17228,2,0,L|256:144,1,100,0|0,1:0|0:0,0:0:0:0:
304,232,17682,2,0,L|404:232,1,100,0|0,1:0|0:0,0:0:0:0:
504,232,18137,1,0,1:0:0:0:
456,144,18364,1,0,0:0:0:0:
408,56,18591,6,0,B|376:8|320:8|320:8|224:8,1,200,0|0,1:0|1:0,0:0:0:0:
124,8,19273,1,0,0:0:0:0:
24,8,19500,2,0,P|60:88|164:102,1,200,0|0,1:0|1:0,0:0:0:0:
256,64,20182,1,0,0:0:0:0:
348,104,20410,6,0,P|388:192|348:280,1,200,0|0,1:0|1:0,0:0:0:0:
256,320,21091,1,0,0:0:0:0:
164,280,21319,2,0,P|124:192|164:104,2,200,0|0|0,1:0|1:0|1:0,0:0:0:0:
256,320,22455,5,0,0:0:0:0:
348,280,22682,2,0,P|360:232|348:184,1,100,0|0,1:0|0:0,0:0:0:0:
256,144,23137,2,0,P|244:96|256:48,1,100,0|0,1:0|0:0,0:0:0:0:
348,8,23591,1,0,1:0:0:0:
440,48,23819,1,0,0:0:0:0:
440,148,24046,5,0,1:0:0:0:
348,184,24273,1,0,0:0:0:0:
348,284,24500,2,0,L|280:356,1,100,0|0,1:0|0:0,0:0:0:0:
180,356,24955,2,0,L|112:284,1,100,0|0,1:0|0:0,0:0:0:0:
112,184,25410,1,0,1:0:0:0:
20,148,25637,1,0,0:0:0:0:
20,248,25864,6,0,B|44:300|104:300|104:300|200:300,1,200,0|0,1:0|1:0,0:0:0:0:
300,300,26546,1,0,0:0:0:0:
400,300,26773,2,0,P|356:216|260:208,1,200,0|0,1:0|1:0,0:0:0:0:
168,248,27455,1,0,0:0:0:0:
68,248,27682,6,0,P|20:148|68:88,1,200,0|0,1:0|1:0,0:0:0:0:
168,88,28364,1,0,0:0:0:0:
228,168,28591,2,0,B|320:212|332:124|420:168,2,200,0|8|2,1:0|1:2|1:0,0:0:0:0:
168,88,29728,5,0,0:0:0:0:
72,112,29955,2,0,P|30:138|5:180,1,100,0|0,1:0|0:0,0:0:0:0:
75,251,30409,2,0,P|118:226|143:184,1,100,0|0,1:0|0:0,0:0:0:0:
168,88,30864,1,0,1:0:0:0:
216,0,31091,1,0,0:0:0:0:
316,0,31318,5,2,1:0:0:0:
364,88,31545,1,0,0:0:0:0:
316,176,31773,2,0,L|216:176,1,100,0|0,1:0|0:0,0:0:0:0:
168,88,32227,2,0,L|68:88,1,100,2|0,1:0|0:0,0:0:0:0:
20,176,32682,1,0,1:0:0:0:
68,264,32910,1,0,0:0:0:0:
116,352,33137,6,0,B|208:352|208:352|268:352|304:312,1,200,2|0,1:0|1:0,0:0:0:0:
380,244,33819,1,0,0:0:0:0:
436,160,34046,2,0,P|480:224|436:328,1,200,0|0,1:0|1:0,0:0:0:0:
344,372,34728,1,0,0:0:0:0:
256,328,34955,6,0,L|256:124,1,200,2|0,1:0|1:0,0:0:0:0:
256,28,35637,1,0,0:0:0:0:
340,84,35864,2,0,P|276:128|172:84,2,200,2|2|2,1:0|1:0|1:0,0:0:0:0:
256,28,37000,5,0,0:0:0:0:
172,84,37228,2,0,P|160:132|172:180,1,100,0|0,1:0|0:0,0:0:0:0:
264,220,37683,2,0,P|276:268|264:316,1,100,0|0,1:0|0:0,0:0:0:0:
172,356,38137,1,0,1:0:0:0:
80,316,38365,1,2,0:0:0:0:
80,216,38592,5,2,1:0:0:0:
172,180,38819,1,0,0:0:0:0:
172,80,39046,2,0,L|244:12,1,100,0|0,1:0|0:0,0:0:0:0:
344,12,39500,2,0,L|416:80,1,100,0|2,1:0|0:0,0:0:0:0:
416,180,39955,1,0,1:0:0:0:
508,216,40182,1,0,0:0:0:0:
508,316,40410,6,0,B|424:316|424:316|364:316|324:264,1,200,2|0,1:0|1:0,0:0:0:0:
256,192,41091,2,0,L|256:88,1,100,0|0,0:0|1:0,0:0:0:0:
188,264,41546,2,0,L|97:316,1,100,0|0,0:0|1:0,0:0:0:0:
324,264,42000,2,0,L|414:316,1,100,0|2,0:0|1:0,0:0:0:0:
512,192,42682,5,2,1:0:0:0:
256,0,43137,1,2,1:0:0:0:
0,192,43591,1,10,1:2:0:0:
256,384,44046,6,0,L|356:384,1,100,0|0,1:0|0:0,0:0:0:0:
312,292,44500,2,0,L|412:292,1,100,0|0,1:0|0:0,0:0:0:0:
512,292,44955,2,0,B|512:228|460:192|412:192|412:192|368:192,1,200,0|2,1:0|1:0,0:0:0:0:
264,192,45637,5,0,1:0:0:0:
260,192,45750,1,0,1:0:0:0:
256,192,45864,2,0,L|156:192,1,100,0|0,1:0|0:0,0:0:0:0:
200,100,46318,2,0,L|100:100,1,100,0|0,1:0|0:0,0:0:0:0:
0,100,46773,2,0,B|0:36|52:0|100:0|100:0|144:0,1,200,0|2,1:0|1:0,0:0:0:0:
248,0,47455,5,0,1:0:0:0:
252,0,47568,1,0,1:0:0:0:
256,0,47682,2,0,L|356:0,1,100,0|0,1:0|0:0,0:0:0:0:
312,92,48136,2,0,L|412:92,1,100,0|0,1:0|0:0,0:0:0:0:
512,92,48591,2,0,B|512:156|460:192|412:192|412:192|368:192,1,200,0|2,1:0|1:0,0:0:0:0:
264,192,49273,5,0,1:0:0:0:
260,192,49386,1,0,1:0:0:0:
256,192,49500,2,0,L|156:192,1,100,0|0,1:0|0:0,0:0:0:0:
200,284,49954,2,0,L|100:284,1,100,0|0,1:0|0:0,0:0:0:0:
0,284,50409,2,0,B|0:348|52:384|100:384|100:384|144:384,1,200,0|2,1:0|1:0,0:0:0:0:
256,384,51091,5,0,1:0:0:0:
256,384,51205,1,0,1:0:0:0:
256,384,51319,1,0,1:0:0:0:
356,384,51546,1,0,1:0:0:0:
356,284,51773,1,0,1:0:0:0:
256,284,52000,1,0,1:0:0:0:
256,184,52228,1,0,1:0:0:0:
356,184,52455,1,0,1:0:0:0:
356,84,52682,1,0,1:0:0:0:
256,84,52910,5,0,1:0:0:0:
256,84,53023,1,0,1:0:0:0:
256,84,53137,1,0,1:0:0:0:
156,84,53364,1,0,1:0:0:0:
156,184,53591,1,0,1:0:0:0:
256,184,53819,1,0,1:0:0:0:
256,284,54046,1,0,1:0:0:0:
156,284,54273,1,0,1:0:0:0:
156,384,54500,1,0,1:0:0:0:
256,384,54728,5,0,1:0:0:0:
256,384,54841,1,0,1:0:0:0:
256,384,54955,2,0,L|292:348,3,50,0|0|0|0,1:0|1:0|1:0|1:0,1:0:0:0:
292,300,55410,2,0,L|256:264,3,50,0|0|0|0,1:0|1:0|1:0|1:0,1:0:0:0:
256,216,55864,2,0,L|292:180,3,50,0|0|0|0,1:0|1:0|1:0|1:0,1:0:0:0:
292,132,56319,2,0,L|256:96,3,50,0|0|0|0,1:0|1:0|1:0|1:0,1:0:0:0:
256,48,56773,5,4,1:2:0:0:
256,48,57228,2,0,P|184:48|116:84,1,150,2|0,0:0|0:0,0:0:0:0:
68,140,57682,2,0,P|24:196|12:272,1,150,2|0,0:0|1:2,0:0:0:0:
12,348,58137,1,8,1:2:0:0:
12,348,58364,1,0,1:2:0:0:
132,348,58591,6,0,P|180:296|132:212,1,179.999994506836,4|0,1:2|0:0,0:0:0:0:
108,280,59046,2,0,L|240:280,1,119.999996337891,2|0,1:0|0:0,0:0:0:0:
348,268,59500,2,0,P|300:216|348:132,1,179.999994506836,0|0,1:0|0:0,0:0:0:0:
372,200,59955,2,0,L|240:200,1,119.999996337891,2|0,1:0|0:0,0:0:0:0:
132,188,60410,6,0,P|180:136|132:52,1,179.999994506836,0|0,1:0|0:0,0:0:0:0:
108,120,60865,2,0,L|240:120,1,119.999996337891,2|0,1:0|0:0,0:0:0:0:
228,240,61319,2,0,L|348:240,1,119.999996337891,0|0,1:0|0:0,0:0:0:0:
468,240,61773,2,0,L|468:88,1,150.000005722046,2|0,1:0|0:0,0:0:0:0:
348,88,62228,6,0,P|268:124|188:88,1,179.999994506836,0|0,1:0|0:0,0:0:0:0:
188,16,62682,2,0,P|132:40|116:96,1,119.999996337891,2|0,1:0|0:0,0:0:0:0:
116,212,63137,2,0,P|196:248|276:212,1,179.999994506836,0|0,1:0|0:0,0:0:0:0:
276,140,63591,2,0,P|332:164|348:220,1,119.999996337891,2|0,1:0|0:0,0:0:0:0:
348,336,64046,6,0,P|268:372|188:336,1,179.999994506836,0|0,1:0|0:0,0:0:0:0:
188,264,64500,2,0,P|132:288|116:344,1,119.999996337891,2|0,1:0|0:0,0:0:0:0:
20,264,64955,2,0,P|76:240|92:184,1,119.999996337891,0|0,1:0|0:0,0:0:0:0:
92,68,65410,2,0,L|244:68,1,150.000005722046,2|0,1:0|1:0,0:0:0:0:
249,68,65750,1,0,0:0:0:0:
256,68,65864,5,0,1:0:0:0:
376,68,66091,1,0,0:0:0:0:
316,172,66319,1,2,1:0:0:0:
196,172,66546,1,0,0:0:0:0:
196,172,66660,1,0,0:0:0:0:
196,172,66773,1,0,1:0:0:0:
136,68,67000,1,0,0:0:0:0:
256,68,67228,2,0,L|256:196,1,119.999996337891,2|0,1:0|0:0,0:0:0:0:
256,308,67682,5,0,1:0:0:0:
376,308,67909,1,0,0:0:0:0:
316,204,68137,1,2,1:0:0:0:
196,204,68364,1,0,0:0:0:0:
196,204,68478,1,0,0:0:0:0:
196,204,68591,1,0,1:0:0:0:
136,308,68818,1,0,0:0:0:0:
256,308,69046,2,0,L|256:180,1,119.999996337891,10|0,1:2|0:0,0:0:0:0:
316,84,69500,6,0,P|376:104|396:156,1,119.999996337891,0|0,1:0|0:0,0:0:0:0:
196,84,69955,2,0,P|136:104|116:156,1,119.999996337891,2|0,1:0|0:0,0:0:0:0:
324,156,70410,2,0,P|272:204|188:156,1,179.999994506836,0|0,1:0|0:0,0:0:0:0:
256,132,70865,2,0,L|256:252,1,119.999996337891,2|0,1:0|0:0,0:0:0:0:
256,372,71319,5,0,1:0:0:0:
256,372,71546,1,0,3:0:0:0:
256,192,71773,1,2,1:0:0:0:
256,192,72000,1,0,3:0:0:0:
200,20,72228,1,0,1:0:0:0:
200,20,72341,1,0,1:0:0:0:
200,20,72455,1,8,3:0:0:0:
200,20,72569,1,8,3:0:0:0:
200,20,72682,2,0,P|256:0|312:20,1,119.999996337891,10|0,1:2|2:0,0:0:0:0:
488,56,73137,6,0,P|440:108|488:192,1,179.999994506836,4|0,1:2|0:0,0:0:0:0:
512,124,73591,2,0,L|388:124,1,119.999996337891,2|0,1:0|0:0,0:0:0:0:
272,132,74046,2,0,P|320:184|272:268,1,179.999994506836,0|0,1:0|0:0,0:0:0:0:
248,200,74500,2,0,L|372:200,1,119.999996337891,2|0,1:0|0:0,0:0:0:0:
488,208,74955,6,0,P|440:260|488:344,1,179.999994506836,0|0,1:0|0:0,0:0:0:0:
512,276,75409,2,0,L|388:276,1,119.999996337891,2|0,1:0|0:0,0:0:0:0:
392,156,75864,2,0,L|268:156,1,119.999996337891,0|0,1:0|0:0,0:0:0:0:
152,156,76319,2,0,L|152:312,1,150.000005722046,2|0,1:0|0:0,0:0:0:0:
32,308,76773,6,0,B|4:220|60:220|32:132,1,179.999994506836,0|0,1:0|0:0,0:0:0:0:
0,67,77227,2,0,P|61:64|99:104,1,119.999996337891,2|0,1:0|0:0,0:0:0:0:
220,104,77682,2,0,B|192:192|248:192|220:280,1,179.999994506836,0|0,1:0|0:0,0:0:0:0:
188,345,78136,2,0,P|249:348|287:308,1,119.999996337891,2|0,1:0|0:0,0:0:0:0:
408,308,78591,6,0,B|380:220|436:220|408:132,1,179.999994506836,0|0,1:0|0:0,0:0:0:0:
376,67,79045,2,0,P|437:64|475:104,1,119.999996337891,2|0,1:0|0:0,0:0:0:0:
432,216,79500,2,0,P|371:219|333:179,1,119.999996337891,0|0,1:0|0:0,0:0:0:0:
256,48,79955,2,0,L|256:200,1,150.000005722046,2|0,1:0|1:0,0:0:0:0:
256,205,80296,1,0,0:0:0:0:
256,212,80410,5,0,1:0:0:0:
160,140,80637,1,0,0:0:0:0:
196,24,80864,1,2,1:0:0:0:
316,24,81091,1,0,0:0:0:0:
316,24,81205,1,0,0:0:0:0:
316,24,81319,1,0,1:0:0:0:
352,140,81546,1,0,0:0:0:0:
256,212,81773,2,0,L|256:336,1,119.999996337891,2|0,1:0|0:0,0:0:0:0:
352,260,82228,5,0,1:0:0:0:
316,144,82455,1,0,0:0:0:0:
196,144,82682,1,2,1:0:0:0:
160,260,82910,1,0,0:0:0:0:
160,260,83023,1,0,0:0:0:0:
160,260,83137,1,0,1:0:0:0:
256,332,83364,1,0,0:0:0:0:
256,212,83591,2,0,L|256:88,1,119.999996337891,10|0,1:2|0:0,0:0:0:0:
328,188,84046,6,0,P|384:160|396:108,1,119.999996337891,0|0,1:0|0:0,0:0:0:0:
184,188,84500,2,0,P|128:160|116:108,1,119.999996337891,2|0,1:0|0:0,0:0:0:0:
324,116,84956,2,0,P|272:68|188:116,1,179.999994506836,0|0,1:0|0:0,0:0:0:0:
256,140,85411,2,0,L|256:264,1,119.999996337891,2|0,1:0|0:0,0:0:0:0:
356,328,85864,6,0,P|256:384|156:328,3,239.999992675781,0|2|0|10,1:0|1:0|1:0|1:2,0:0:0:0:
256,260,87455,1,0,1:0:0:0:
364,240,87682,6,0,P|416:148|364:56,1,220.000006713867,4|2,1:2|1:0,0:0:0:0:
256,36,88364,1,0,0:0:0:0:
148,56,88591,2,0,P|96:148|148:240,1,220.000006713867,0|2,1:0|1:0,0:0:0:0:
256,260,89273,1,0,0:0:0:0:
364,240,89500,6,0,P|416:148|364:56,3,220.000006713867,0|2|0|10,1:0|1:0|1:0|1:2,0:0:0:0:
256,36,91091,1,0,0:0:0:0:
148,56,91319,6,0,P|96:148|148:240,1,220.000006713867,0|2,1:0|1:0,0:0:0:0:
256,260,92001,1,0,0:0:0:0:
364,240,92228,2,0,P|416:148|364:56,1,220.000006713867,0|2,1:0|1:0,0:0:0:0:
256,36,92910,1,0,1:0:0:0:
148,56,93137,6,0,P|96:148|148:240,3,220.000006713867,0|2|0|10,1:0|1:0|1:0|1:2,0:0:0:0:
256,260,94728,1,0,0:0:0:0:
364,280,94955,6,0,P|472:240|500:148,1,220.000006713867,4|2,1:2|1:0,0:0:0:0:
500,36,95637,1,0,0:0:0:0:
392,16,95864,2,0,P|284:56|256:148,1,220.000006713867,0|2,1:0|1:0,0:0:0:0:
256,260,96546,1,0,0:0:0:0:
148,280,96773,6,0,P|40:240|12:148,1,220.000006713867,0|2,1:0|1:0,0:0:0:0:
12,36,97455,1,0,0:0:0:0:
120,16,97682,2,0,P|228:56|256:148,1,220.000006713867,0|10,1:0|1:2,0:0:0:0:
256,260,98364,1,0,1:0:0:0:
180,176,98591,6,0,P|256:148|332:176,1,165.000005035401,0|0,1:0|0:0,0:0:0:0:
332,176,99046,1,2,1:0:0:0:
256,260,99273,1,0,0:0:0:0:
180,344,99500,2,0,P|256:372|332:344,1,165.000005035401,0|0,1:0|0:0,0:0:0:0:
332,344,99955,1,2,1:0:0:0:
256,260,100182,1,0,1:0:0:0:
156,216,100410,6,0,B|176:176|212:152|256:152|256:152|300:152|348:116|348:52|316:0|256:-16|196:0|164:52|164:116|212:152|256:152|256:152|300:152|336:176|356:216,1,660.000020141602,0|10,1:0|1:2,0:0:0:0:
256,260,102000,1,0,1:0:0:0:
184,328,102228,6,0,P|136:340|88:328,1,100,4|0,1:2|0:0,0:0:0:0:
16,256,102682,1,10,1:0:0:0:
16,256,102796,2,0,P|4:208|16:160,1,100
52,124,103137,2,0,L|160:124,1,100,0|0,1:0|0:0,0:0:0:0:
252,124,103591,1,10,1:0:0:0:
204,36,103818,1,0,0:0:0:0:
152,124,104046,6,0,L|152:228,2,100,0|0|10,1:0|0:0|1:0,0:0:0:0:
204,36,104728,1,2,0:0:0:0:
204,36,104955,2,0,P|280:24|328:72,1,150,2|2,1:0|0:0,0:0:0:0:
328,124,105410,2,0,L|328:228,1,100,10|2,1:0|0:0,0:0:0:0:
328,328,105864,6,0,P|376:340|424:328,1,100,2|0,1:0|0:0,0:0:0:0:
496,256,106318,1,10,1:0:0:0:
496,256,106432,2,0,P|508:208|496:160,1,100
460,124,106773,2,0,L|352:124,1,100,0|0,1:0|0:0,0:0:0:0:
260,124,107228,1,10,1:0:0:0:
308,36,107455,1,0,0:0:0:0:
360,124,107682,6,0,L|360:228,2,100,0|0|10,1:0|0:0|1:0,0:0:0:0:
308,36,108365,1,2,0:0:0:0:
308,36,108592,2,0,P|232:24|184:72,1,150,2|2,1:0|0:0,0:0:0:0:
184,124,109047,2,0,L|184:228,1,100,10|2,1:0|0:0,0:0:0:0:
184,328,109500,5,2,1:0:0:0:
184,328,109728,1,0,1:0:0:0:
276,292,109954,1,10,1:0:0:0:
276,292,110182,1,0,1:0:0:0:
368,256,110410,1,0,1:0:0:0:
368,256,110637,1,0,1:0:0:0:
460,220,110863,1,10,1:0:0:0:
460,220,111091,1,0,1:0:0:0:
460,120,111319,5,0,1:0:0:0:
460,120,111547,1,0,1:0:0:0:
368,84,111773,1,10,1:0:0:0:
368,84,112001,1,0,1:0:0:0:
276,48,112229,1,0,1:0:0:0:
276,48,112456,1,0,1:0:0:0:
184,12,112683,1,10,1:0:0:0:
184,12,112910,1,0,1:0:0:0:
84,12,113137,6,0,L|48:48,3,50,0|0|0|0,1:0|1:0|1:0|1:0,1:0:0:0:
48,96,113591,2,0,L|84:132,3,50,10|0|0|0,1:0|1:0|1:0|1:0,1:0:0:0:
84,180,114046,2,0,L|48:216,3,50,0|0|0|0,1:0|1:0|1:0|1:0,1:0:0:0:
48,264,114500,2,0,L|84:300,3,50,10|0|0|0,1:0|1:0|1:0|1:0,1:0:0:0:
84,348,114955,6,0,P|132:360|180:348,1,100,4|0,1:2|0:0,0:0:0:0:
256,284,115410,1,2,0:0:0:0:
256,284,115523,1,0,0:0:0:0:
268,184,115750,2,0,P|336:156|404:184,1,150
416,284,116319,1,10,1:2:0:0:
356,364,116546,1,0,0:0:0:0:
256,364,116773,1,0,1:0:0:0:
256,364,117228,5,8,0:0:0:0:
156,192,118137,1,8,0:0:0:0:
356,192,119046,1,8,0:0:0:0:
456,20,119955,1,8,0:0:0:0:
256,20,120864,1,8,0:0:0:0:
56,20,121773,1,8,0:0:0:0:
100,216,122682,2,0,P|280:320|412:216,1,400,8|8,0:0|1:2,0:0:0:0:
456,20,124046,5,0,1:0:0:0:
356,20,124273,1,0,0:0:0:0:
356,120,124500,2,0,B|344:168|344:168|308:204,1,100,8|0,1:2|0:0,0:0:0:0:
204,204,124955,2,0,B|168:168|168:168|156:120,1,100,0|0,1:0|0:0,0:0:0:0:
156,20,125410,1,8,1:2:0:0:
56,20,125637,1,0,0:0:0:0:
56,120,125864,5,0,1:0:0:0:
56,220,126091,1,0,0:0:0:0:
156,220,126319,2,0,B|192:256|192:256|204:304,1,100,8|0,1:2|0:0,0:0:0:0:
308,304,126773,2,0,B|320:256|320:256|356:220,1,100,0|0,1:0|0:0,0:0:0:0:
456,220,127228,1,8,1:2:0:0:
456,120,127455,1,0,0:0:0:0:
356,120,127682,6,0,L|156:120,1,200,0|8,1:0|1:2,0:0:0:0:
84,192,128364,1,0,0:0:0:0:
156,264,128591,2,0,L|356:264,1,200,0|8,1:0|1:2,0:0:0:0:
428,192,129273,1,0,0:0:0:0:
356,120,129500,5,0,1:0:0:0:
284,192,129728,1,0,1:0:0:0:
356,264,129955,2,0,L|396:304,3,50,0|0|0|0,1:0|1:0|1:0|1:0,1:0:0:0:
440,300,130410,2,0,L|476:264,3,50,8|8|8|8,3:0|3:0|3:0|3:0,3:0:0:0:
476,216,130864,2,0,L|476:108,1,100,8|0,1:2|1:0,0:0:0:0:
476,16,131319,6,0,P|424:28|392:60,1,100,0|0,1:0|0:0,0:0:0:0:
388,160,131773,2,0,L|388:260,1,100,0|0,1:0|0:0,0:0:0:0:
352,356,132228,2,0,B|288:324|288:260|288:260|288:180,1,200,0|2,1:0|1:0,0:0:0:0:
288,80,132910,5,0,1:0:0:0:
284,76,133023,1,0,1:0:0:0:
280,72,133137,2,0,P|232:84|196:120,1,100,0|0,1:0|0:0,0:0:0:0:
192,220,133591,2,0,L|192:320,1,100,0|0,1:0|0:0,0:0:0:0:
92,300,134046,2,0,B|28:268|28:204|28:204|28:124,1,200,0|2,1:0|1:0,0:0:0:0:
28,24,134728,5,0,1:0:0:0:
32,20,134841,1,0,1:0:0:0:
36,16,134955,2,0,P|88:28|120:60,1,100,0|0,1:0|0:0,0:0:0:0:
124,160,135409,2,0,L|124:260,1,100,0|0,1:0|0:0,0:0:0:0:
160,356,135864,2,0,B|224:324|224:260|224:260|224:180,1,200,0|2,1:0|1:0,0:0:0:0:
224,80,136546,5,0,1:0:0:0:
228,76,136659,1,0,1:0:0:0:
232,72,136773,2,0,P|280:84|316:120,1,100,0|0,1:0|0:0,0:0:0:0:
320,220,137227,2,0,L|320:320,1,100,0|0,1:0|0:0,0:0:0:0:
420,300,137682,2,0,B|484:268|484:204|484:204|484:124,1,200,0|2,1:0|1:0,0:0:0:0:
484,24,138364,5,0,1:0:0:0:
484,24,138478,1,0,1:0:0:0:
484,24,138591,1,0,1:0:0:0:
408,88,138819,1,0,1:0:0:0:
332,24,139046,1,0,1:0:0:0:
256,88,139273,1,0,1:0:0:0:
180,24,139500,1,0,1:0:0:0:
104,88,139728,1,0,1:0:0:0:
28,24,139955,1,0,1:0:0:0:
28,128,140182,5,0,1:0:0:0:
28,128,140296,1,0,1:0:0:0:
28,128,140409,1,0,1:0:0:0:
104,192,140637,1,0,1:0:0:0:
180,128,140864,1,0,1:0:0:0:
256,192,141091,1,0,1:0:0:0:
332,128,141318,1,0,1:0:0:0:
408,192,141546,1,0,1:0:0:0:
484,128,141773,1,0,1:0:0:0:
484,232,142000,5,0,1:0:0:0:
484,232,142114,1,0,1:0:0:0:
484,232,142228,2,0,L|484:284,3,50,0|0|0|0,1:0|1:0|1:0|1:0,1:0:0:0:
432,284,142682,2,0,L|380:284,3,50,0|0|0|0,1:0|1:0|1:0|1:0,1:0:0:0:
332,284,143137,2,0,L|332:336,3,50,0|0|0|0,1:0|1:0|1:0|1:0,1:0:0:0:
280,336,143591,2,0,L|216:336,3,50,0|0|0|0,1:0|1:0|1:0|1:0,1:0:0:0:
180,336,144046,5,4,1:2:0:0:
180,336,144500,2,0,P|108:312|60:256,1,150,2|0,0:0|0:0,0:0:0:0:
48,184,144955,2,0,P|56:100|96:48,1,150,2|0,0:0|1:0,0:0:0:0:
156,8,145410,1,8,1:2:0:0:
156,8,145637,1,0,1:0:0:0:
268,48,145864,6,0,P|320:96|404:48,1,179.999994506836,4|0,1:2|0:0,0:0:0:0:
336,24,146319,2,0,L|336:156,1,119.999996337891,2|0,1:0|0:0,0:0:0:0:
324,264,146773,2,0,P|272:216|188:264,1,179.999994506836,0|0,1:0|0:0,0:0:0:0:
256,288,147228,2,0,L|256:156,1,119.999996337891,2|0,1:0|0:0,0:0:0:0:
244,48,147682,6,0,P|192:96|108:48,1,179.999994506836,0|0,1:0|0:0,0:0:0:0:
176,24,148137,2,0,L|176:156,1,119.999996337891,2|0,1:0|0:0,0:0:0:0:
56,144,148592,2,0,L|56:264,1,119.999996337891,0|0,1:0|0:0,0:0:0:0:
56,384,149046,2,0,L|208:384,1,150.000005722046,2|0,1:0|0:0,0:0:0:0:
324,384,149500,6,0,L|398:215,1,179.999994506836,0|0,1:0|0:0,0:0:0:0:
466,193,149955,2,0,P|427:149|369:149,1,119.999996337891,2|0,1:0|0:0,0:0:0:0:
261,102,150410,2,0,L|186:270,1,179.999994506836,0|0,1:0|0:0,0:0:0:0:
215,335,150865,2,0,P|156:335|118:291,1,119.999996337891,2|0,1:0|0:0,0:0:0:0:
9,244,151319,6,0,L|83:75,1,179.999994506836,0|0,1:0|0:0,0:0:0:0:
152,53,151774,2,0,P|113:9|55:9,1,119.999996337891,2|0,1:0|0:0,0:0:0:0:
7,120,152228,2,0,P|45:163|103:163,1,119.999996337891,0|0,1:0|0:0,0:0:0:0:
224,164,152682,2,0,L|380:164,1,150.000005722046,2|0,1:0|1:0,0:0:0:0:
381,164,153023,1,0,0:0:0:0:
388,164,153137,5,0,1:0:0:0:
316,68,153364,1,0,0:0:0:0:
436,68,153592,1,2,1:0:0:0:
508,164,153819,1,0,0:0:0:0:
508,164,153933,1,0,0:0:0:0:
508,164,154046,1,0,1:0:0:0:
436,260,154273,1,0,0:0:0:0:
316,260,154501,2,0,L|196:260,1,119.999996337891,2|0,1:0|0:0,0:0:0:0:
76,260,154955,5,0,1:0:0:0:
4,164,155182,1,0,0:0:0:0:
76,68,155410,1,2,1:0:0:0:
196,68,155637,1,0,0:0:0:0:
196,68,155751,1,0,0:0:0:0:
196,68,155864,1,0,1:0:0:0:
124,164,156092,1,0,0:0:0:0:
196,260,156319,2,0,L|316:260,1,119.999996337891,8|0,1:2|0:0,0:0:0:0:
388,164,156773,6,0,B|356:112|356:112|308:76,1,119.999996337891,0|0,1:0|0:0,0:0:0:0:
124,164,157228,2,0,B|156:112|156:112|204:76,1,119.999996337891,2|0,1:0|0:0,0:0:0:0:
256,308,157683,2,0,L|256:128,1,179.999994506836,0|0,1:0|0:0,0:0:0:0:
309,77,158137,2,0,P|256:53|203:77,1,119.999996337891,2|0,1:0|0:0,0:0:0:0:
76,208,158592,5,0,1:0:0:0:
76,208,158819,1,0,3:0:0:0:
256,208,159046,1,2,1:0:0:0:
256,208,159273,1,0,3:0:0:0:
436,208,159501,1,0,1:0:0:0:
436,208,159614,1,0,1:0:0:0:
436,208,159728,1,8,3:0:0:0:
436,208,159842,1,8,3:0:0:0:
436,208,159955,2,0,P|464:260|436:312,1,119.999996337891,10|0,1:2|2:0,0:0:0:0:
256,336,160410,6,0,P|204:288|120:336,1,179.999994506836,4|0,1:2|0:0,0:0:0:0:
188,360,160865,2,0,L|188:228,1,119.999996337891,2|0,1:0|0:0,0:0:0:0:
188,120,161319,2,0,P|240:168|324:120,1,179.999994506836,0|0,1:0|0:0,0:0:0:0:
256,96,161774,2,0,L|256:228,1,119.999996337891,2|0,1:0|0:0,0:0:0:0:
256,336,162228,6,0,P|308:288|392:336,1,179.999994506836,0|0,1:0|0:0,0:0:0:0:
324,360,162683,2,0,L|324:228,1,119.999996337891,2|0,1:0|0:0,0:0:0:0:
444,240,163138,2,0,L|444:120,1,119.999996337891,0|0,1:0|0:0,0:0:0:0:
444,0,163592,2,0,L|288:0,1,150.000005722046,2|0,1:0|0:0,0:0:0:0:
176,0,164046,6,0,P|144:84|68:124,1,179.999994506836,0|0,1:0|0:0,0:0:0:0:
68,196,164501,2,0,P|48:252|68:308,1,119.999996337891,2|0,1:0|0:0,0:0:0:0:
160,384,164955,2,0,P|236:344|268:260,1,179.999994506836,0|0,1:0|0:0,0:0:0:0:
268,188,165410,2,0,P|248:132|268:76,1,119.999996337891,2|0,1:0|0:0,0:0:0:0:
360,0,165864,6,0,P|436:40|468:124,1,179.999994506836,0|0,1:0|0:0,0:0:0:0:
468,196,166319,2,0,P|448:252|468:308,1,119.999996337891,2|0,1:0|0:0,0:0:0:0:
348,308,166773,2,0,P|368:252|348:196,1,119.999996337891,0|0,1:0|0:0,0:0:0:0:
300,88,167228,2,0,L|140:88,1,150.000005722046,2|0,1:0|1:0,0:0:0:0:
143,88,167569,1,0,0:0:0:0:
136,88,167683,5,0,1:0:0:0:
76,192,167910,1,0,0:0:0:0:
196,192,168137,1,2,1:0:0:0:
136,296,168364,1,0,0:0:0:0:
136,296,168478,1,0,0:0:0:0:
136,296,168592,1,0,1:0:0:0:
256,296,168819,1,0,0:0:0:0:
196,192,169046,2,0,L|256:88,1,119.999996337891,2|0,1:0|0:0,0:0:0:0:
376,88,169500,5,0,1:0:0:0:
436,192,169727,1,0,0:0:0:0:
316,192,169954,1,2,1:0:0:0:
376,296,170181,1,0,0:0:0:0:
376,296,170295,1,0,0:0:0:0:
376,296,170409,1,0,1:0:0:0:
256,296,170636,1,0,0:0:0:0:
316,192,170863,2,0,L|256:88,1,119.999996337891,10|0,1:2|0:0,0:0:0:0:
144,44,171319,6,0,B|160:108|160:108|204:140,1,119.999996337891,0|0,1:0|0:0,0:0:0:0:
368,44,171773,2,0,B|352:108|352:108|308:140,1,119.999996337891,2|0,1:0|0:0,0:0:0:0:
256,372,172229,2,0,L|256:192,1,179.999994506836,0|0,1:0|0:0,0:0:0:0:
203,140,172683,2,0,P|256:116|309:140,1,119.999996337891,2|0,1:0|0:0,0:0:0:0:
348,316,173137,5,0,1:0:0:0:
348,316,173364,1,0,3:0:0:0:
164,316,173591,1,2,1:0:0:0:
164,316,173819,1,0,3:0:0:0:
256,160,174046,1,0,1:0:0:0:
256,160,174160,1,0,1:0:0:0:
256,160,174273,1,8,3:0:0:0:
256,160,174387,1,8,3:0:0:0:
256,160,174500,2,0,L|256:36,1,119.999996337891,10|0,1:2|2:0,0:0:0:0:
364,168,174955,6,0,P|416:260|364:352,1,220.000006713867,4|2,1:2|1:0,0:0:0:0:
256,360,175637,1,0,0:0:0:0:
148,352,175864,2,0,P|96:260|148:168,1,220.000006713867,0|2,1:0|1:0,0:0:0:0:
256,160,176546,1,0,0:0:0:0:
348,100,176773,6,0,P|284:52|164:100,1,220.000006713867,0|2,1:0|1:0,0:0:0:0:
104,192,177455,1,0,0:0:0:0:
164,284,177682,2,0,P|228:332|348:284,1,220.000006713867,0|10,1:0|1:2,0:0:0:0:
408,192,178364,1,0,0:0:0:0:
408,80,178591,5,0,1:0:0:0:
408,80,178705,2,0,P|356:64|304:80,1,110.000003356934
256,108,179046,2,0,L|220:64,2,55.0000016784668,2|0|0,1:0|0:0|0:0,0:0:0:0:
328,192,179500,1,0,1:0:0:0:
256,276,179728,1,0,0:0:0:0:
256,276,179841,1,0,0:0:0:0:
256,276,179955,2,0,L|292:320,2,55.0000016784668,2|0|0,1:0|0:0|1:0,0:0:0:0:
184,192,180410,5,0,1:0:0:0:
184,84,180637,1,0,0:0:0:0:
184,84,180750,1,0,0:0:0:0:
184,84,180864,2,0,B|120:84|76:128|76:192|76:192|76:240,1,220.000006713867,2|0,1:0|1:0,0:0:0:0:
76,352,181546,1,0,0:0:0:0:
76,352,181660,1,0,0:0:0:0:
76,352,181773,1,10,1:2:0:0:
76,352,181887,1,0,0:0:0:0:
76,352,182000,1,0,0:0:0:0:
188,352,182228,6,0,L|268:352,1,75.0000028610231,0|0,1:0|0:0,0:0:0:0:
388,268,182569,2,0,L|480:268,1,75.0000028610231,0|2,0:0|1:0,0:0:0:0:
464,116,182910,1,0,0:0:0:0:
464,116,183137,2,0,L|380:116,1,75.0000028610231,0|0,1:0|0:0,0:0:0:0:
264,32,183478,2,0,L|172:32,1,75.0000028610231,0|2,0:0|1:0,0:0:0:0:
40,32,183819,5,0,0:0:0:0:
40,32,183932,1,0,0:0:0:0:
40,32,184046,2,0,L|40:108,1,75.0000028610231,0|0,1:0|0:0,0:0:0:0:
180,164,184387,2,0,L|180:256,1,75.0000028610231,0|2,0:0|1:0,0:0:0:0:
332,240,184728,1,0,0:0:0:0:
332,240,184955,2,0,L|332:156,1,75.0000028610231,0|0,1:0|0:0,0:0:0:0:
472,108,185296,2,0,L|472:32,1,75.0000028610231,0|10,0:0|1:2,0:0:0:0:
324,32,185637,5,0,1:0:0:0:
324,32,185864,2,0,L|244:32,1,75.0000028610231,0|0,1:0|0:0,0:0:0:0:
124,116,186205,2,0,L|32:116,1,75.0000028610231,0|2,0:0|1:0,0:0:0:0:
48,268,186546,1,0,0:0:0:0:
48,268,186773,2,0,L|132:268,1,75.0000028610231,0|0,1:0|0:0,0:0:0:0:
248,352,187114,2,0,L|340:352,1,75.0000028610231,0|2,0:0|1:0,0:0:0:0:
472,352,187455,5,0,1:0:0:0:
472,352,187568,1,0,0:0:0:0:
472,352,187682,2,0,L|472:276,1,75.0000028610231,0|0,1:0|0:0,0:0:0:0:
332,220,188023,2,0,L|332:128,1,75.0000028610231,0|2,0:0|1:0,0:0:0:0:
180,144,188364,1,0,0:0:0:0:
180,144,188591,2,0,L|180:228,1,75.0000028610231,0|0,1:0|0:0,0:0:0:0:
40,276,188932,2,0,L|40:352,1,75.0000028610231,0|10,0:0|1:2,0:0:0:0:
188,352,189273,5,0,1:0:0:0:
188,352,189500,1,0,1:0:0:0:
188,320,189955,5,2,0:0:0:0:
188,288,190410,1,2,0:0:0:0:
188,256,190864,1,2,0:0:0:0:
188,224,191319,6,0,B|156:184|156:184|120:168|120:168|84:120,2,150,6|2|2,0:0|0:0|0:0,0:0:0:0:
256,152,192228,2,0,L|256:0,2,150,2|2|2,0:0|0:0|0:0,0:0:0:0:
324,224,193137,2,0,B|356:184|356:184|392:168|392:168|428:120,2,150,2|2|2,0:0|0:0|0:0,0:0:0:0:
340,320,194046,2,0,P|276:364|172:320,1,200,2|8,0:0|0:0,0:0:0:0:
256,264,194728,1,2,0:0:0:0:
256,164,194955,6,0,L|256:12,2,150,2|2|0,0:0|0:0|0:0,0:0:0:0:
204,252,195864,2,0,P|124:244|80:192,2,150,2|2|2,0:0|0:0|0:0,0:0:0:0:
308,252,196773,2,0,P|388:244|432:192,2,150,2|2|2,0:0|0:0|0:0,0:0:0:0:
340,156,197682,2,0,P|276:112|172:156,1,200,2|8,0:0|0:0,0:0:0:0:
100,228,198364,5,2,0:0:0:0:
100,228,198478,1,0,0:0:0:0:
100,228,198591,2,0,B|56:256|56:256|8:260,2,100,2|0|8,0:0|0:0|0:0,0:0:0:0:
172,156,199273,1,2,0:0:0:0:
172,156,199387,1,0,0:0:0:0:
172,156,199500,2,0,B|180:104|180:104|204:64,1,100
308,64,199955,2,0,B|332:104|332:104|340:156,1,100,8|2,0:0|0:0,0:0:0:0:
412,228,200410,6,0,B|456:256|456:256|504:260,2,100,2|0|8,0:0|0:0|0:0,0:0:0:0:
340,156,201091,1,2,0:0:0:0:
340,156,201205,1,0,0:0:0:0:
340,156,201318,2,0,B|332:104|332:104|308:64,1,100,0|2,0:0|0:0,0:0:0:0:
204,64,201773,2,0,B|180:104|180:104|172:156,1,100,8|2,0:0|0:0,0:0:0:0:
124,248,202228,6,0,P|140:284|196:308,1,100,2|0,0:0|0:0,0:0:0:0:
388,248,202682,2,0,P|372:284|316:308,1,100,8|2,0:0|0:0,0:0:0:0:
194,236,203137,2,0,P|256:200|318:236,1,150
256,272,203591,2,0,L|256:376,2,100,8|2|2,0:0|0:0|0:0,0:0:0:0:
256,240,204500,5,10,0:0:0:0:
256,208,204955,1,2,0:0:0:0:
256,176,205410,1,10,0:0:0:0:
256,144,205864,6,0,B|280:92|336:92|336:92|384:92,1,150,8|0,0:0|0:0,0:0:0:0:
436,92,206319,2,0,P|460:136|504:156,1,100,10|0,0:0|0:0,0:0:0:0:
504,252,206773,2,0,B|480:304|424:304|424:304|376:304,1,150,8|0,0:0|0:0,0:0:0:0:
324,304,207228,2,0,P|300:260|256:240,1,100,10|0,0:0|0:0,0:0:0:0:
156,240,207682,6,0,B|156:192|156:192|156:136|208:112,1,150,8|0,0:0|0:0,0:0:0:0:
256,100,208137,2,0,P|300:72|324:32,1,100,10|0,0:0|0:0,0:0:0:0:
396,100,208591,2,0,P|352:128|328:168,1,100,8|0,0:0|0:0,0:0:0:0:
256,240,209046,1,10,0:0:0:0:
256,240,209500,6,0,B|232:292|176:292|176:292|128:292,1,150,8|0,0:0|0:0,0:0:0:0:
76,292,209955,2,0,P|52:248|8:228,1,100,10|0,0:0|0:0,0:0:0:0:
8,132,210409,2,0,B|32:80|88:80|88:80|136:80,1,150,8|0,0:0|0:0,0:0:0:0:
188,80,210864,2,0,P|212:124|256:144,1,100,10|0,0:0|0:0,0:0:0:0:
356,144,211319,6,0,B|356:192|356:192|356:248|304:272,1,150,8|0,0:0|0:0,0:0:0:0:
256,284,211773,2,0,P|212:312|188:352,1,100,10|0,0:0|0:0,0:0:0:0:
116,284,212227,2,0,P|160:256|184:216,1,100,8|0,0:0|0:0,0:0:0:0:
256,144,212682,1,10,0:0:0:0:
256,44,212910,5,0,0:0:0:0:
256,44,213023,1,0,0:0:0:0:
256,44,213137,1,0,1:0:0:0:
344,92,213364,1,0,1:0:0:0:
344,192,213591,1,2,1:0:0:0:
256,240,213819,1,0,1:0:0:0:
168,192,214046,1,0,1:0:0:0:
168,92,214273,1,0,1:0:0:0:
256,44,214500,1,2,1:0:0:0:
256,144,214728,5,0,1:0:0:0:
256,144,214841,1,0,1:0:0:0:
256,144,214955,1,0,1:0:0:0:
168,192,215182,1,0,1:0:0:0:
168,292,215409,1,2,1:0:0:0:
256,340,215637,1,0,1:0:0:0:
344,292,215864,1,0,1:0:0:0:
344,192,216091,1,0,1:0:0:0:
256,144,216318,1,10,1:2:0:0:
256,244,216546,5,0,1:0:0:0:
256,244,216660,1,0,1:0:0:0:
256,244,216773,2,0,L|212:268,3,50,0|0|0|0,1:0|1:0|1:0|1:0,1:0:0:0:
168,292,217228,2,0,L|112:292,3,50,2|0|0|0,1:0|1:0|1:0|1:0,1:0:0:0:
72,268,217682,2,0,L|28:244,3,50,0|0|0|0,1:0|1:0|1:0|1:0,1:0:0:0:
28,192,218137,2,0,L|28:140,3,50,2|0|0|0,1:0|1:0|1:0|1:0,1:0:0:0:
28,92,218591,5,4,1:2:0:0:
28,92,219046,2,0,B|116:76|116:76|128:104|160:116,1,150,2|0,0:0|0:0,0:0:0:0:
184,48,219500,2,0,P|256:28|328:48,1,150,2|0,0:0|1:0,0:0:0:0:
352,116,219955,2,0,B|384:104|396:76|396:76|484:92,1,150,8|0,1:2|0:0,0:0:0:0:
484,164,220410,6,0,P|436:216|484:300,1,179.999994506836,4|0,1:2|0:0,0:0:0:0:
508,232,220865,2,0,L|376:232,1,119.999996337891,2|0,1:0|0:0,0:0:0:0:
292,164,221319,2,0,P|244:216|292:300,1,179.999994506836,0|0,1:0|0:0,0:0:0:0:
316,232,221774,2,0,L|184:232,1,119.999996337891,2|0,1:0|0:0,0:0:0:0:
100,164,222228,6,0,P|52:216|100:300,1,179.999994506836,0|0,1:0|0:0,0:0:0:0:
124,232,222683,2,0,L|0:232,1,119.999996337891,2|0,1:0|0:0,0:0:0:0:
4,112,223138,2,0,L|136:112,1,119.999996337891,0|0,1:0|0:0,0:0:0:0:
244,112,223592,2,0,B|288:173|288:173|332:112,1,150.000005722046,2|0,1:0|0:0,0:0:0:0:
420,32,224046,6,0,P|456:112|420:192,1,179.999994506836,0|0,1:0|0:0,0:0:0:0:
472,244,224500,2,0,P|432:268|368:244,1,119.999996337891,2|0,1:0|0:0,0:0:0:0:
248,244,224955,2,0,P|284:164|248:84,1,179.999994506836,0|0,1:0|0:0,0:0:0:0:
300,32,225410,2,0,P|260:8|196:32,1,119.999996337891,2|0,1:0|0:0,0:0:0:0:
76,32,225864,6,0,P|112:112|76:192,1,179.999994506836,0|0,1:0|0:0,0:0:0:0:
128,244,226319,2,0,P|88:268|24:244,1,119.999996337891,2|0,1:0|0:0,0:0:0:0:
24,364,226773,2,0,P|64:340|128:364,1,119.999996337891,0|0,1:0|0:0,0:0:0:0:
248,364,227229,2,0,L|400:364,1,150.000005722046,2|0,1:0|1:0,0:0:0:0:
405,364,227569,1,0,0:0:0:0:
412,364,227683,5,0,1:0:0:0:
496,280,227910,1,0,0:0:0:0:
412,192,228138,1,2,1:0:0:0:
496,104,228365,1,0,0:0:0:0:
496,104,228479,1,0,0:0:0:0:
496,104,228592,1,0,1:0:0:0:
412,20,228819,1,0,0:0:0:0:
312,84,229047,2,0,P|256:103|200:84,1,119.999996337891,2|0,1:0|0:0,0:0:0:0:
100,20,229501,5,0,1:0:0:0:
16,104,229729,1,0,0:0:0:0:
100,192,229956,1,2,1:0:0:0:
16,280,230183,1,0,0:0:0:0:
16,280,230297,1,0,0:0:0:0:
16,280,230410,1,0,1:0:0:0:
100,364,230638,1,0,0:0:0:0:
200,300,230864,2,0,P|256:281|312:300,1,119.999996337891,10|0,1:2|0:0,0:0:0:0:
372,196,231319,6,0,P|327:156|316:99,1,119.999996337891,0|0,1:0|0:0,0:0:0:0:
140,196,231773,2,0,P|184:156|195:99,1,119.999996337891,2|0,1:0|0:0,0:0:0:0:
324,276,232229,2,0,P|272:324|188:276,1,179.999994506836,0|0,1:0|0:0,0:0:0:0:
256,252,232683,2,0,L|256:124,1,119.999996337891,2|0,1:0|0:0,0:0:0:0:
256,12,233138,5,0,1:0:0:0:
256,12,233365,1,0,3:0:0:0:
256,192,233592,1,2,1:0:0:0:
256,192,233819,1,0,3:0:0:0:
312,364,234046,1,0,1:0:0:0:
312,364,234159,1,0,1:0:0:0:
312,364,234273,1,8,3:0:0:0:
312,364,234387,1,8,3:0:0:0:
312,364,234500,2,0,P|256:384|200:364,1,119.999996337891,10|0,1:2|2:0,0:0:0:0:
28,312,234955,6,0,P|76:260|28:176,1,179.999994506836,4|0,1:2|0:0,0:0:0:0:
4,244,235410,2,0,L|136:244,1,119.999996337891,2|0,1:0|0:0,0:0:0:0:
220,312,235864,2,0,P|268:260|220:176,1,179.999994506836,0|0,1:0|0:0,0:0:0:0:
196,244,236319,2,0,L|328:244,1,119.999996337891,2|0,1:0|0:0,0:0:0:0:
412,312,236773,6,0,P|460:260|412:176,1,179.999994506836,0|0,1:0|0:0,0:0:0:0:
388,244,237228,2,0,L|512:244,1,119.999996337891,2|0,1:0|0:0,0:0:0:0:
508,124,237683,2,0,L|376:124,1,119.999996337891,0|0,1:0|0:0,0:0:0:0:
268,124,238137,2,0,B|224:185|224:185|180:124,1,150.000005722046,2|0,1:0|0:0,0:0:0:0:
108,28,238591,6,0,B|56:48|56:100|56:100|56:184,1,179.999994506836,0|0,1:0|0:0,0:0:0:0:
56,260,239047,2,0,P|100:296|112:356,1,119.999996337891,2|0,1:0|0:0,0:0:0:0:
232,356,239500,2,0,B|180:336|180:284|180:284|180:200,1,179.999994506836,0|0,1:0|0:0,0:0:0:0:
180,124,239956,2,0,P|224:88|236:28,1,119.999996337891,2|0,1:0|0:0,0:0:0:0:
356,28,240410,6,0,B|304:48|304:100|304:100|304:184,1,179.999994506836,0|0,1:0|0:0,0:0:0:0:
304,260,240864,2,0,P|348:296|360:356,1,119.999996337891,2|0,1:0|0:0,0:0:0:0:
240,355,241319,2,0,P|196:319|184:259,1,119.999996337891,0|0,1:0|0:0,0:0:0:0:
184,108,241774,2,0,L|344:108,1,150.000005722046,2|0,1:0|1:0,0:0:0:0:
343,108,242114,1,0,0:0:0:0:
352,108,242229,5,0,1:0:0:0:
352,228,242456,1,0,0:0:0:0:
256,300,242683,1,2,1:0:0:0:
160,228,242910,1,0,0:0:0:0:
160,228,243024,1,0,0:0:0:0:
160,228,243138,1,0,1:0:0:0:
160,108,243365,1,0,0:0:0:0:
256,36,243592,2,0,L|256:160,1,119.999996337891,2|0,1:0|0:0,0:0:0:0:
352,228,244047,5,0,1:0:0:0:
256,156,244274,1,0,0:0:0:0:
160,228,244501,1,2,1:0:0:0:
196,344,244729,1,0,0:0:0:0:
196,344,244842,1,0,0:0:0:0:
196,344,244956,1,0,1:0:0:0:
316,344,245183,1,0,0:0:0:0:
256,240,245410,2,0,L|256:116,1,119.999996337891,10|0,1:2|0:0,0:0:0:0:
184,24,245864,6,0,P|128:52|116:104,1,119.999996337891,0|0,1:0|0:0,0:0:0:0:
328,24,246318,2,0,P|384:52|396:104,1,119.999996337891,2|0,1:0|0:0,0:0:0:0:
188,96,246773,2,0,P|240:144|324:96,1,179.999994506836,0|0,1:0|0:0,0:0:0:0:
256,72,247228,2,0,L|256:192,1,119.999996337891,2|0,1:0|0:0,0:0:0:0:
164,348,247682,5,0,1:0:0:0:
164,348,247910,1,0,3:0:0:0:
348,348,248137,1,2,1:0:0:0:
348,348,248364,1,0,3:0:0:0:
256,192,248591,1,0,1:0:0:0:
256,192,248705,1,0,1:0:0:0:
256,192,248819,1,8,3:0:0:0:
256,192,248932,1,8,3:0:0:0:
256,192,249046,2,0,L|256:68,1,119.999996337891,10|0,1:2|2:0,0:0:0:0:
148,96,249501,6,0,P|104:172|148:288,1,220.000006713867,4|2,1:2|1:0,0:0:0:0:
256,312,250182,1,0,0:0:0:0:
364,288,250410,2,0,P|408:212|364:96,1,220.000006713867,0|2,1:0|1:0,0:0:0:0:
256,72,251092,1,0,0:0:0:0:
148,96,251319,6,0,L|148:208,1,110.000003356934,0|0,1:0|0:0,0:0:0:0:
256,182,251773,2,0,L|256:70,1,110.000003356934,2|0,1:0|0:0,0:0:0:0:
364,96,252228,2,0,L|364:208,1,110.000003356934,0|0,1:0|0:0,0:0:0:0:
312,304,252682,1,10,1:2:0:0:
200,304,252910,1,0,0:0:0:0:
148,208,253138,6,0,B|148:152|200:116|200:116|148:80|148:24,1,220.000006713867,0|2,1:0|1:0,0:0:0:0:
256,24,253819,1,0,0:0:0:0:
364,24,254046,2,0,B|364:80|312:116|312:116|364:152|364:208,1,220.000006713867,0|2,1:0|1:0,0:0:0:0:
256,208,254728,1,0,1:0:0:0:
204,304,254955,6,0,P|256:320|308:304,1,110.000003356934,0|0,1:0|0:0,0:0:0:0:
364,208,255410,2,0,P|352:160|312:116,1,110.000003356934,2|0,1:0|0:0,0:0:0:0:
200,116,255864,2,0,P|160:160|148:208,1,110.000003356934,0|0,1:0|0:0,0:0:0:0:
256,208,256319,1,10,1:2:0:0:
348,280,256546,5,2,0:0:0:0:
348,280,256660,1,2,0:0:0:0:
348,280,256773,2,0,P|256:332|164:280,1,220.000006713867,6|2,1:2|1:0,0:0:0:0:
256,208,257456,1,2,0:0:0:0:
330,119,257682,2,0,P|256:87|182:119,1,165.000005035401,2|2,1:0|0:0,0:0:0:0:
182,118,258137,1,2,1:0:0:0:
184,228,258364,5,2,0:0:0:0:
184,228,258478,1,2,0:0:0:0:
184,228,258591,2,0,B|184:312|184:312|200:332,1,110.000003356934,2|2,1:0|0:0,0:0:0:0:
312,332,259046,2,0,B|328:312|328:312|328:228,1,110.000003356934,2|2,1:0|0:0,0:0:0:0:
328,116,259500,2,0,B|256:156|256:156|184:116,1,165.000005035401,2|2,1:0|0:0,0:0:0:0:
208,48,259955,2,0,B|256:75|256:75|304:48,1,110.000003356934,10|2,1:2|1:0,0:0:0:0:
256,152,260410,6,0,L|256:328,1,165.000005035401,2|0,1:0|0:0,0:0:0:0:
256,317,260865,1,2,1:0:0:0:
336,232,261092,1,2,0:0:0:0:
324,116,261319,2,0,P|256:76|188:116,1,165.000005035401,2|2,1:0|0:0,0:0:0:0:
188,116,261774,1,2,1:0:0:0:
176,232,262001,1,2,0:0:0:0:
256,316,262228,6,0,P|492:168|256:68,1,660.000020141602,2|8,1:0|1:2,0:0:0:0:
168,140,263819,1,2,1:0:0:0:
168,244,264046,6,0,L|168:344,1,100,4|0,1:2|0:0,0:0:0:0:
68,344,264500,1,10,1:0:0:0:
68,344,264614,2,0,L|68:244,1,100
68,192,264955,1,0,1:0:0:0:
168,192,265182,2,0,P|216:204|252:240,2,100,0|10|0,0:0|1:0|0:0,0:0:0:0:
68,192,265864,6,0,P|20:180|-16:144,2,100,0|0|10,1:0|0:0|1:0,0:0:0:0:
68,92,266546,1,2,0:0:0:0:
68,92,266773,2,0,B|92:60|132:60|132:60|208:60,1,150,2|2,1:0|0:0,0:0:0:0:
256,60,267228,2,0,L|256:192,1,129.999994049073,10|2,1:0|0:0,0:0:0:0:
344,244,267682,6,0,L|344:344,1,100,2|0,1:0|0:0,0:0:0:0:
444,344,268136,1,10,1:0:0:0:
444,344,268250,2,0,L|444:244,1,100
444,192,268591,1,0,1:0:0:0:
344,192,268819,2,0,P|296:204|260:240,2,100,0|10|0,0:0|1:0|0:0,0:0:0:0:
444,192,269500,6,0,P|492:180|528:144,2,100,0|0|10,1:0|0:0|1:0,0:0:0:0:
444,92,270182,1,2,0:0:0:0:
444,92,270409,2,0,B|420:60|380:60|380:60|304:60,1,150,2|2,1:0|0:0,0:0:0:0:
256,60,270864,2,0,L|256:192,1,129.999994049073,10|2,1:0|0:0,0:0:0:0:
204,280,271319,5,2,1:0:0:0:
204,280,271546,1,0,1:0:0:0:
308,280,271773,1,10,1:0:0:0:
308,280,272000,1,0,1:0:0:0:
256,192,272228,1,0,1:0:0:0:
256,192,272455,1,0,1:0:0:0:
256,88,272682,1,10,1:0:0:0:
256,88,272910,1,0,1:0:0:0:
360,88,273137,5,0,1:0:0:0:
360,88,273364,1,0,1:0:0:0:
308,176,273591,1,10,1:0:0:0:
308,176,273818,1,0,1:0:0:0:
204,176,274046,1,0,1:0:0:0:
204,176,274273,1,0,1:0:0:0:
152,88,274500,1,10,1:0:0:0:
152,88,274728,1,0,1:0:0:0:
256,88,274955,6,0,L|308:88,3,50,0|0|0|0,1:0|1:0|1:0|1:0,1:0:0:0:
352,108,275410,2,0,L|396:132,3,50,10|0|0|0,1:0|1:0|1:0|1:0,1:0:0:0:
432,167,275864,2,0,L|432:219,3,50,0|0|0|0,1:0|1:0|1:0|1:0,1:0:0:0:
396,252,276319,2,0,L|352:276,3,50,10|0|0|0,1:0|1:0|1:0|1:0,1:0:0:0:
304,296,276773,6,0,P|256:308|208:296,1,100,4|0,1:2|0:0,0:0:0:0:
256,208,277228,1,2,0:0:0:0:
256,208,277341,1,0,0:0:0:0:
324,136,277569,2,0,P|256:108|188:136,1,150
188,236,278137,1,10,1:2:0:0:
256,312,278364,1,0,0:0:0:0:
324,236,278591,1,2,0:0:0:0:
256,192,278705,12,0,282228,0:0:0:0:
