osu file format v14

[General]
AudioFilename: audio.mp3
AudioLeadIn: 0
PreviewTime: 57228
Countdown: 0
SampleSet: Soft
StackLeniency: 0.2
Mode: 0
LetterboxInBreaks: 0
WidescreenStoryboard: 0

[Editor]
DistanceSpacing: 1.1
BeatDivisor: 4
GridSize: 4
TimelineZoom: 1

[Metadata]
Title:Meccha Going!!
TitleUnicode:めっちゃGoing!!
Artist:Miyashita Ai (CV: Murakami Natsumi)
ArtistUnicode:宮下 愛 (CV: 村上奈津実)
Creator:Andrea
Version:Shining Future!!
Source:ラブライブ!スクールアイドルフェスティバル ALL STARS
Tags:osuplayer111 Sure ykcarrot Full Version 虹ヶ咲学園スクールアイドル同好会 LoveLive! Love Live! School Idol Festival ALL STARS llsif sifas スクスタ Sukusuta PDP Perfect Dream Project TOKIMEKI Runners 虹ヶ咲学園スクールアイドル同好会 Nijigasaki High School Idol Club Doukoukai Dōkōkai Dokokai Club Academy High Video Game Pop JPop J-Pop Anime Japanese Solo Character Song
BeatmapID:2592588
BeatmapSetID:1247322

[Difficulty]
HPDrainRate:6.5
CircleSize:5
OverallDifficulty:8
ApproachRate:8.5
SliderMultiplier:1.8
SliderTickRate:1

[Events]
//Background and Video events
0,0,"Andrea BG.jpg",0,0
Video,230,"Video.mp4"
//Break Periods
//Storyboard Layer 0 (Background)
//Storyboard Layer 1 (Fail)
//Storyboard Layer 2 (Pass)
//Storyboard Layer 3 (Foreground)
//Storyboard Layer 4 (Overlay)
//Storyboard Sound Samples

[TimingPoints]
410,454.545454545455,4,2,1,50,1,0
410,-125,4,2,1,50,0,0
7682,-111.111111111111,4,2,1,60,0,0
13591,-83.3333333333333,4,2,1,50,0,0
14500,-83.3333333333333,4,2,3,40,0,0
14955,-100,4,2,1,50,0,0
29046,-100,4,2,3,50,0,0
29273,-100,4,2,1,50,0,0
42569,-100,4,2,1,5,0,0
42682,-100,4,2,1,50,0,0
43591,-100,4,2,3,50,0,0
43620,-100,4,2,1,50,0,0
43932,-100,4,2,1,5,0,0
44046,-90.9090909090909,4,2,1,60,0,0
45296,-90.9090909090909,4,2,1,5,0,0
45410,-90.9090909090909,4,2,1,60,0,0
47114,-90.9090909090909,4,2,1,5,0,0
47228,-90.9090909090909,4,2,1,60,0,0
48932,-90.9090909090909,4,2,1,5,0,0
49046,-90.9090909090909,4,2,1,60,0,0
50750,-90.9090909090909,4,2,1,5,0,0
50864,-90.9090909090909,4,2,1,60,0,0
56773,-90.9090909090909,4,2,1,50,0,0
57228,-125,4,2,1,50,0,0
57569,-125,4,2,1,5,0,0
57682,-125,4,2,1,50,0,0
57910,-125,4,2,1,5,0,0
58023,-125,4,2,1,50,0,0
58137,-125,4,2,3,50,0,0
58591,-83.3333333333333,4,2,1,70,0,1
61773,-66.6666666666667,4,2,3,60,0,1
61802,-66.6666666666667,4,2,1,70,0,1
62114,-66.6666666666667,4,2,1,5,0,1
62228,-83.3333333333333,4,2,1,70,0,1
65410,-66.6666666666667,4,2,3,60,0,1
65438,-66.6666666666667,4,2,1,70,0,1
65864,-83.3333333333333,4,2,1,70,0,1
69046,-83.3333333333333,4,2,3,60,0,1
69074,-83.3333333333333,4,2,1,70,0,1
72455,-83.3333333333333,4,2,1,50,0,1
72682,-83.3333333333333,4,2,3,60,0,1
73023,-83.3333333333333,4,2,1,70,0,0
73137,-83.3333333333333,4,2,1,70,0,1
76319,-66.6666666666667,4,2,3,60,0,1
76347,-66.6666666666667,4,2,1,70,0,1
76660,-66.6666666666667,4,2,1,5,0,1
76773,-83.3333333333333,4,2,1,70,0,1
79955,-66.6666666666667,4,2,3,60,0,1
79983,-66.6666666666667,4,2,1,70,0,1
80410,-83.3333333333333,4,2,1,70,0,1
83591,-83.3333333333333,4,2,3,60,0,1
83819,-83.3333333333333,4,2,1,70,0,1
87000,-83.3333333333333,4,2,1,50,0,1
87228,-83.3333333333333,4,2,3,60,0,1
87682,-100,4,2,1,60,0,0
89387,-100,4,2,1,5,0,0
89500,-100,4,2,1,60,0,0
90864,-100,4,2,3,60,0,0
91091,-100,4,2,1,60,0,0
94500,-100,4,2,3,60,0,0
94728,-100,4,2,1,60,0,0
96660,-100,4,2,1,5,0,0
96773,-100,4,2,1,60,0,0
98137,-100,4,2,3,60,0,0
98165,-100,4,2,1,60,0,0
98478,-100,4,2,1,5,0,0
98591,-100,4,2,1,60,0,0
100410,-66.6666666666667,4,2,1,60,0,0
100750,-66.6666666666667,4,2,1,5,0,0
100864,-100,4,2,1,60,0,0
101773,-100,4,2,3,60,0,0
102000,-100,4,2,1,60,0,0
102228,-111.111111111111,4,2,1,60,0,0
115182,-111.111111111111,4,2,1,50,0,0
116319,-111.111111111111,4,2,3,50,0,0
116546,-111.111111111111,4,2,1,50,0,0
116773,-111.111111111111,4,2,2,50,0,0
123591,-111.111111111111,4,2,3,50,0,0
123620,-111.111111111111,4,2,1,50,0,0
124046,-100,4,2,2,50,0,0
130864,-100,4,2,3,50,0,0
130892,-100,4,2,1,50,0,0
131205,-100,4,2,1,5,0,0
131319,-90.9090909090909,4,2,1,60,0,0
132569,-90.9090909090909,4,2,1,5,0,0
132682,-90.9090909090909,4,2,1,60,0,0
134387,-90.9090909090909,4,2,1,5,0,0
134500,-90.9090909090909,4,2,1,60,0,0
136205,-90.9090909090909,4,2,1,5,0,0
136319,-90.9090909090909,4,2,1,60,0,0
138023,-90.9090909090909,4,2,1,5,0,0
138137,-90.9090909090909,4,2,1,60,0,0
144046,-90.9090909090909,4,2,1,50,0,0
144500,-125,4,2,1,50,0,0
144841,-125,4,2,1,5,0,0
144955,-125,4,2,1,50,0,0
145182,-125,4,2,1,5,0,0
145296,-125,4,2,1,50,0,0
145410,-125,4,2,3,50,0,0
145864,-83.3333333333333,4,2,1,70,0,1
149046,-66.6666666666667,4,2,3,60,0,1
149074,-66.6666666666667,4,2,1,70,0,1
149387,-66.6666666666667,4,2,1,5,0,1
149500,-83.3333333333333,4,2,1,70,0,1
152682,-66.6666666666667,4,2,3,60,0,1
152711,-66.6666666666667,4,2,1,70,0,1
153137,-83.3333333333333,4,2,1,70,0,1
156319,-83.3333333333333,4,2,3,60,0,1
156347,-83.3333333333333,4,2,1,70,0,1
159728,-83.3333333333333,4,2,1,50,0,1
159955,-83.3333333333333,4,2,3,60,0,1
160296,-83.3333333333333,4,2,1,70,0,0
160410,-83.3333333333333,4,2,1,70,0,1
163591,-66.6666666666667,4,2,3,60,0,1
163620,-66.6666666666667,4,2,1,70,0,1
163932,-66.6666666666667,4,2,1,5,0,1
164046,-83.3333333333333,4,2,1,70,0,1
167228,-66.6666666666667,4,2,3,60,0,1
167256,-66.6666666666667,4,2,1,70,0,1
167682,-83.3333333333333,4,2,1,70,0,1
170864,-83.3333333333333,4,2,3,60,0,1
171091,-83.3333333333333,4,2,1,70,0,1
174273,-83.3333333333333,4,2,1,50,0,1
174500,-83.3333333333333,4,2,3,60,0,1
174955,-90.9090909090909,4,2,1,60,0,0
176660,-90.9090909090909,4,2,1,5,0,0
176773,-90.9090909090909,4,2,1,60,0,0
178137,-90.9090909090909,4,2,3,60,0,0
178165,-90.9090909090909,4,2,1,60,0,0
178478,-90.9090909090909,4,2,1,5,0,0
178591,-90.9090909090909,4,2,1,60,0,0
181773,-90.9090909090909,4,2,3,60,0,0
181887,-90.9090909090909,4,2,1,60,0,0
185410,-90.9090909090909,4,2,3,60,0,0
185438,-90.9090909090909,4,2,1,60,0,0
189046,-90.9090909090909,4,2,3,60,0,0
189074,-90.9090909090909,4,2,1,60,0,0
189955,-90.9090909090909,4,2,1,40,0,0
191319,-125,4,2,2,50,0,0
194500,-125,4,2,3,50,0,0
194728,-125,4,2,2,50,0,0
198137,-125,4,2,3,50,0,0
198364,-125,4,2,2,50,0,0
201773,-125,4,2,3,50,0,0
202000,-125,4,2,2,50,0,0
205410,-125,4,2,3,50,0,0
205864,-111.111111111111,4,2,1,60,0,0
209046,-111.111111111111,4,2,3,60,0,0
209500,-111.111111111111,4,2,1,60,0,0
212682,-111.111111111111,4,2,3,60,0,0
213137,-100,4,2,1,60,0,0
216319,-100,4,2,3,60,0,0
216773,-90.9090909090909,4,2,1,60,0,0
218591,-90.9090909090909,4,2,1,50,0,0
219046,-125,4,2,1,50,0,0
219387,-125,4,2,1,5,0,0
219500,-125,4,2,1,50,0,0
219728,-125,4,2,1,5,0,0
219841,-125,4,2,1,50,0,0
219955,-125,4,2,3,50,0,0
219983,-125,4,2,1,50,0,0
220296,-125,4,2,1,5,0,0
220410,-83.3333333333333,4,2,1,70,0,1
223591,-66.6666666666667,4,2,3,60,0,1
223620,-66.6666666666667,4,2,1,70,0,1
223932,-66.6666666666667,4,2,1,5,0,1
224046,-83.3333333333333,4,2,1,70,0,1
227228,-66.6666666666667,4,2,3,60,0,1
227256,-66.6666666666667,4,2,1,70,0,1
227682,-83.3333333333333,4,2,1,70,0,1
229387,-83.3333333333333,4,2,1,5,0,1
229500,-83.3333333333333,4,2,1,70,0,1
230864,-83.3333333333333,4,2,3,60,0,1
230892,-83.3333333333333,4,2,1,70,0,1
231205,-83.3333333333333,4,2,1,5,0,1
231319,-83.3333333333333,4,2,1,70,0,1
234273,-83.3333333333333,4,2,1,50,0,1
234500,-83.3333333333333,4,2,3,60,0,1
234529,-83.3333333333333,4,2,1,70,0,1
234841,-83.3333333333333,4,2,1,70,0,0
234955,-83.3333333333333,4,2,1,70,0,1
238137,-66.6666666666667,4,2,3,60,0,1
238165,-66.6666666666667,4,2,1,70,0,1
238478,-83.3333333333333,4,2,1,5,0,1
238591,-83.3333333333333,4,2,1,70,0,1
241773,-66.6666666666667,4,2,3,60,0,1
241802,-66.6666666666667,4,2,1,70,0,1
242228,-83.3333333333333,4,2,1,70,0,1
243932,-83.3333333333333,4,2,1,5,0,1
244046,-83.3333333333333,4,2,1,70,0,1
245410,-83.3333333333333,4,2,3,60,0,1
245750,-83.3333333333333,4,2,1,5,0,1
245864,-83.3333333333333,4,2,1,70,0,1
248819,-83.3333333333333,4,2,1,50,0,1
249046,-83.3333333333333,4,2,3,60,0,1
249500,-90.9090909090909,4,2,1,60,0,0
251205,-90.9090909090909,4,2,1,5,0,0
251319,-90.9090909090909,4,2,1,60,0,0
252682,-90.9090909090909,4,2,3,60,0,0
252711,-90.9090909090909,4,2,1,60,0,0
256319,-90.9090909090909,4,2,3,60,0,0
256546,-90.9090909090909,4,2,1,60,0,0
259955,-90.9090909090909,4,2,3,60,0,0
259983,-90.9090909090909,4,2,1,60,0,0
262228,-66.6666666666667,4,2,1,60,0,0
263591,-66.6666666666667,4,2,3,60,0,0
263819,-66.6666666666667,4,2,1,60,0,0
264046,-100,4,2,1,50,0,0
267228,-100,4,2,3,50,0,0
267256,-100,4,2,1,50,0,0
270864,-100,4,2,3,50,0,0
270892,-100,4,2,1,50,0,0
271319,-100,4,2,1,60,0,0
276773,-111.111111111111,4,2,1,60,0,0
277000,-111.111111111111,4,2,1,50,0,0
278137,-111.111111111111,4,2,3,50,0,0
278364,-111.111111111111,4,2,1,50,0,0
279500,-111.111111111111,4,2,1,40,0,0
280410,-111.111111111111,4,2,1,30,0,0
281319,-111.111111111111,4,2,1,20,0,0
281773,-111.111111111111,4,2,1,10,0,0
282228,-111.111111111111,4,2,1,5,0,0

[Colours]
Combo1 : 255,128,128
Combo2 : 255,255,128
SliderBorder : 255,128,128
SliderTrackOverride : 213,213,255

[HitObjects]
224,48,410,6,0,P|256:34|288:48,1,72,12|0,1:2|0:0,0:0:0:0:
360,112,864,1,10,0:0:0:0:
360,112,978,2,0,P|392:126|424:112,1,72,0|2,0:0|0:0,0:0:0:0:
464,88,1319,2,0,L|508:152,1,72,8|2,0:0|0:0,0:0:0:0:
488,272,1773,2,0,L|444:208,1,72,8|2,0:0|0:0,0:0:0:0:
336,280,2228,5,10,0:0:0:0:
256,328,2455,1,0,0:0:0:0:
176,280,2682,1,10,0:0:0:0:
176,280,2796,2,0,P|144:266|112:280,1,72,0|2,0:0|0:0,0:0:0:0:
68,296,3137,2,0,L|32:228,1,72,8|2,0:0|0:0,0:0:0:0:
80,120,3591,2,0,L|116:188,1,72,8|2,0:0|0:0,0:0:0:0:
188,76,4046,5,10,0:0:0:0:
256,12,4273,1,0,0:0:0:0:
324,76,4500,1,10,0:0:0:0:
324,76,4614,2,0,P|364:76|388:100,1,72,0|2,0:0|0:0,0:0:0:0:
412,136,4955,2,0,L|368:196,1,72,8|2,0:0|0:0,0:0:0:0:
256,212,5410,2,0,L|300:152,1,72,8|2,0:0|0:0,0:0:0:0:
324,260,5864,5,10,0:0:0:0:
256,324,6091,1,0,0:0:0:0:
188,260,6319,1,10,0:0:0:0:
188,260,6432,2,0,P|152:260|120:232,1,72,0|2,0:0|0:0,0:0:0:0:
88,208,6773,2,0,L|116:136,1,72,8|2,0:0|0:0,0:0:0:0:
60,44,7228,2,0,L|32:116,1,72,8|2,0:0|0:0,0:0:0:0:
188,24,7682,5,12,1:2:0:0:
256,104,7910,1,0,0:0:0:0:
324,24,8137,1,10,1:2:0:0:
324,24,8250,2,0,B|360:6|360:6|396:24,1,80.9999975280763,0|2,0:0|0:0,0:0:0:0:
444,48,8591,2,0,L|404:120,1,80.9999975280763,8|2,1:0|0:0,0:0:0:0:
436,232,9046,2,0,L|476:160,1,80.9999975280763,8|2,1:0|0:0,0:0:0:0:
392,308,9500,5,10,1:2:0:0:
300,256,9728,1,0,0:0:0:0:
208,308,9955,1,10,1:2:0:0:
208,308,10069,2,0,P|168:308|136:280,1,80.9999975280763,0|2,0:0|0:0,0:0:0:0:
104,244,10410,2,0,L|140:168,1,80.9999975280763,8|2,1:0|0:0,0:0:0:0:
88,64,10864,2,0,L|52:140,1,80.9999975280763,8|2,1:0|0:0,0:0:0:0:
207,10,11319,5,8,1:2:0:0:
207,10,11546,1,8,1:0:0:0:
256,160,11773,1,8,1:0:0:0:
256,160,12000,1,8,1:0:0:0:
304,10,12228,1,8,1:0:0:0:
304,10,12455,1,8,1:0:0:0:
177,102,12682,1,8,1:0:0:0:
177,102,12910,1,8,1:0:0:0:
334,102,13137,1,4,1:2:0:0:
334,102,13591,6,0,P|256:258|176:102,1,431.999986816407,2|10,0:0|1:2,0:0:0:0:
176,101,14955,5,0,1:0:0:0:
96,16,15182,1,2,0:0:0:0:
12,100,15410,1,0,1:0:0:0:
96,180,15637,1,0,0:0:0:0:
96,180,15750,2,0,P|70:240|96:300,1,135,2|0,0:0|0:0,0:0:0:0:
200,356,16319,2,0,P|240:373|280:356,1,90,2|0,1:0|0:0,0:0:0:0:
424,248,16773,6,0,P|384:231|344:248,1,90,0|0,1:0|0:0,0:0:0:0:
384,360,17228,1,2,1:0:0:0:
349,252,17455,1,0,0:0:0:0:
349,252,17569,2,0,L|298:116,1,135,2|0,0:0|0:0,0:0:0:0:
368,28,18137,2,0,L|401:115,1,90,2|0,1:0|0:0,0:0:0:0:
217,121,18591,6,0,B|153:121|153:121|99:145|99:145|41:145,1,180,0|2,1:0|1:0,0:0:0:0:
176,196,19273,1,0,0:0:0:0:
176,196,19500,2,0,B|220:196|220:196|260:224,1,90,0|0,1:0|0:0,0:0:0:0:
176,44,19955,2,0,B|220:44|220:44|260:16,1,90,2|0,1:0|0:0,0:0:0:0:
296,121,20410,6,0,B|388:149|388:93|472:121,1,180,0|2,1:0|1:0,0:0:0:0:
340,52,21091,1,0,0:0:0:0:
432,192,21319,2,0,P|485:256|432:320,1,180,0|2,1:0|1:0,0:0:0:0:
336,256,22000,1,0,0:0:0:0:
296,148,22228,6,0,P|256:131|216:148,1,90,0|0,1:0|0:0,0:0:0:0:
176,256,22682,1,2,1:0:0:0:
336,256,22910,1,0,0:0:0:0:
336,256,23023,2,0,P|396:282|456:256,1,135,2|0,0:0|0:0,0:0:0:0:
396,156,23591,1,2,1:0:0:0:
351,17,23819,1,0,0:0:0:0:
468,103,24046,5,0,1:0:0:0:
323,103,24273,1,0,0:0:0:0:
441,17,24500,1,2,1:0:0:0:
396,156,24728,1,0,0:0:0:0:
396,156,24841,2,0,B|396:212|396:212|392:216|392:216|400:216|400:216|396:220|396:220|396:284,1,135,2|0,0:0|0:0,0:0:0:0:
324,376,25410,1,2,1:0:0:0:
324,376,25637,1,0,0:0:0:0:
188,376,25864,6,0,B|142:310|142:310|136:309|136:309|143:304|143:304|137:303|137:303|89:235,1,180,0|2,1:0|1:0,0:0:0:0:
24,140,26546,1,0,0:0:0:0:
116,68,26773,2,0,P|156:50|196:67,1,90,0|0,1:0|0:0,0:0:0:0:
296,168,27228,2,0,P|255:185|215:167,1,90,2|0,1:0|0:0,0:0:0:0:
316,67,27682,2,0,B|376:67|396:35|396:35|416:67|476:67,1,180,0|2,1:0|1:0,0:0:0:0:
296,168,28364,1,0,0:0:0:0:
296,168,28591,2,0,B|236:168|216:200|216:200|196:168|136:168,1,180,0|10,1:0|1:2,0:0:0:0:
20,168,29273,1,0,0:0:0:0:
96,320,29500,6,0,B|140:320|140:320|180:352,1,90,0|0,1:0|0:0,0:0:0:0:
256,264,29955,1,2,1:0:0:0:
337,348,30182,1,0,0:0:0:0:
337,348,30296,2,0,B|401:370|401:370|465:348,1,135,2|0,0:0|0:0,0:0:0:0:
484,232,30864,2,0,B|504:192|504:192|484:152,1,90,2|0,1:0|0:0,0:0:0:0:
348,16,31319,6,0,B|328:56|328:56|348:96,1,90,0|0,1:0|0:0,0:0:0:0:
460,56,31773,1,2,1:0:0:0:
348,96,32000,1,0,0:0:0:0:
348,96,32114,2,0,B|304:96|304:96|260:116|260:116|212:116,1,135,2|0,0:0|0:0,0:0:0:0:
100,116,32682,1,2,1:0:0:0:
100,116,32910,1,0,0:0:0:0:
12,232,33137,6,0,P|96:232|156:304,1,180,0|2,1:0|1:0,0:0:0:0:
256,360,33819,1,0,0:0:0:0:
357,300,34046,2,0,P|397:317|437:300,1,90,0|0,1:0|0:0,0:0:0:0:
336,192,34500,2,0,P|295:174|255:191,1,90,2|0,1:0|0:0,0:0:0:0:
357,300,34955,2,0,L|392:112,1,180,0|2,1:0|1:0,0:0:0:0:
389,123,35637,1,0,0:0:0:0:
453,212,35864,2,0,L|437:300,1,90,2|0,1:0|0:0,0:0:0:0:
280,272,36319,2,0,L|296:184,1,90,2|0,1:0|0:0,0:0:0:0:
324,24,36773,6,0,P|280:24|240:52,1,90,2|0,1:0|0:0,0:0:0:0:
152,124,37228,1,2,1:0:0:0:
64,200,37455,1,0,0:0:0:0:
64,200,37569,2,0,P|38:260|64:320,1,135,2|0,0:0|0:0,0:0:0:0:
176,360,38137,2,0,P|216:377|256:360,1,90,2|0,1:0|0:0,0:0:0:0:
256,184,38591,6,0,P|215:166|175:184,1,90,0|0,1:0|0:0,0:0:0:0:
256,272,39046,1,2,1:0:0:0:
372,272,39273,1,0,0:0:0:0:
372,272,39387,2,0,B|404:226|404:226|409:225|409:225|403:220|403:220|408:219|408:219|445:167,1,135,2|0,0:0|0:0,0:0:0:0:
504,72,39955,1,2,1:0:0:0:
504,72,40182,1,0,0:0:0:0:
320,72,40410,6,0,P|255:19|192:72,1,180,0|2,1:0|1:0,0:0:0:0:
352,172,41091,1,0,0:0:0:0:
352,172,41319,2,0,P|369:212|352:252,1,90,0|0,1:0|0:0,0:0:0:0:
159,252,41773,2,0,P|142:212|160:172,1,90,2|0,1:0|0:0,0:0:0:0:
256,324,42228,2,0,B|228:256|280:256|256:192,1,135,0|0,1:0|0:0,0:0:0:0:
255,147,42682,5,2,1:0:0:0:
140,120,42910,1,0,0:0:0:0:
312,20,43137,1,2,1:0:0:0:
200,20,43364,1,0,0:0:0:0:
372,120,43591,2,0,P|440:120|488:168,1,135,8|0,1:2|0:0,0:0:0:0:
504,212,44046,6,0,L|452:304,1,99.0000030212403,4|0,1:2|0:0,0:0:0:0:
304,348,44500,2,0,L|356:256,1,99.0000030212403,0|0,1:0|0:0,0:0:0:0:
372,120,44955,2,0,P|284:120|233:85,1,148.50000453186,0|0,1:0|0:0,0:0:0:0:
199,55,45410,1,2,1:0:0:0:
44,148,45637,1,0,1:0:0:0:
44,148,45750,1,0,1:0:0:0:
44,148,45864,6,0,P|24:192|44:236,1,99.0000030212403,0|0,1:0|0:0,0:0:0:0:
160,332,46319,2,0,P|180:288|160:244,1,99.0000030212403,0|0,1:0|0:0,0:0:0:0:
44,148,46773,2,0,B|80:111|80:111|126:99|126:99|162:63,1,148.50000453186,0|0,1:0|0:0,0:0:0:0:
195,30,47228,1,2,1:0:0:0:
344,128,47455,1,0,1:0:0:0:
344,128,47569,1,0,1:0:0:0:
344,128,47682,6,0,P|388:108|432:128,1,99.0000030212403,0|0,1:0|0:0,0:0:0:0:
431,256,48137,2,0,P|387:275|344:256,1,99.0000030212403,0|0,1:0|0:0,0:0:0:0:
256,192,48591,2,0,B|180:168|180:220|112:192,1,148.50000453186,0|0,1:0|0:0,0:0:0:0:
63,191,49046,1,2,1:0:0:0:
204,276,49273,1,0,1:0:0:0:
204,276,49387,1,0,1:0:0:0:
204,276,49500,6,0,P|184:320|204:364,1,99.0000030212403,0|0,1:0|0:0,0:0:0:0:
308,276,49955,2,0,P|328:320|308:364,1,99.0000030212403,0|0,1:0|0:0,0:0:0:0:
256,192,50410,2,0,B|280:116|228:116|256:48,1,148.50000453186,0|0,1:0|0:0,0:0:0:0:
256,0,50864,1,2,1:0:0:0:
180,152,51091,1,0,1:0:0:0:
180,152,51205,1,0,1:0:0:0:
180,152,51319,6,0,P|136:132|92:151,1,99.0000030212403,0|0,1:0|1:0,0:0:0:0:
212,292,51773,2,0,P|255:311|299:292,1,99.0000030212403,0|0,1:0|1:0,0:0:0:0:
419,153,52228,2,0,P|376:133|332:152,1,99.0000030212403,0|0,1:0|1:0,0:0:0:0:
256,236,52682,1,0,1:0:0:0:
180,152,52910,1,0,1:0:0:0:
180,152,53023,1,0,1:0:0:0:
180,152,53137,5,0,1:0:0:0:
48,60,53364,1,0,1:0:0:0:
100,211,53591,1,0,1:0:0:0:
148,59,53819,1,0,1:0:0:0:
19,154,54046,1,0,1:0:0:0:
148,59,54273,2,0,P|191:39|235:59,1,99.0000030212403,0|0,1:0|1:0,0:0:0:0:
328,120,54728,5,0,1:0:0:0:
360,144,54841,1,0,1:0:0:0:
392,164,54955,2,0,L|436:196,3,49.5000015106202,0|0|0|0,1:0|1:0|1:0|1:0,0:0:0:0:
464,216,55410,2,0,L|508:248,3,49.5000015106202,0|0|0|0,1:0|1:0|1:0|1:0,0:0:0:0:
488,284,55864,1,0,1:0:0:0:
468,318,55978,1,0,1:0:0:0:
439,345,56091,1,0,1:0:0:0:
404,362,56205,1,0,1:0:0:0:
365,369,56319,1,0,1:0:0:0:
326,364,56432,1,0,1:0:0:0:
290,347,56546,1,0,1:0:0:0:
260,321,56660,1,0,1:0:0:0:
232,292,56773,1,4,1:2:0:0:
232,292,57228,6,0,P|192:292|136:252,1,108,2|0,0:0|0:0,0:0:0:0:
96,200,57682,2,0,L|96:120,1,72,2|0,0:0|0:0,0:0:0:0:
96,128,58023,1,0,1:0:0:0:
96,128,58137,1,8,1:2:0:0:
180,36,58364,1,0,1:0:0:0:
332,36,58591,6,0,P|388:36|428:72,1,107.999996704102,4|0,1:2|0:0,0:0:0:0:
456,112,58932,1,0,0:0:0:0:
456,112,59046,2,0,L|408:212,1,107.999996704102,2|0,1:0|0:0,0:0:0:0:
340,348,59500,1,0,1:0:0:0:
232,348,59728,1,0,0:0:0:0:
232,348,59841,1,0,0:0:0:0:
232,348,59955,2,0,P|176:348|132:312,1,107.999996704102,2|0,1:0|0:0,0:0:0:0:
28,196,60410,5,0,1:0:0:0:
92,108,60637,1,0,0:0:0:0:
92,108,60750,1,0,0:0:0:0:
92,108,60864,2,0,P|148:108|192:144,1,107.999996704102,2|0,1:0|0:0,0:0:0:0:
256,224,61319,1,0,1:0:0:0:
324,138,61546,1,0,0:0:0:0:
332,292,61773,2,0,P|256:348|179:292,1,202.500007724762,10|0,1:2|0:0,0:0:0:0:
164,252,62228,5,0,1:0:0:0:
136,148,62455,1,0,0:0:0:0:
136,148,62569,1,0,0:0:0:0:
136,148,62682,2,0,P|115:100|136:52,1,107.999996704102,2|0,1:0|0:0,0:0:0:0:
256,0,63137,1,0,1:0:0:0:
375,51,63364,1,0,0:0:0:0:
375,51,63478,1,0,0:0:0:0:
375,51,63591,2,0,P|396:99|376:148,1,107.999996704102,2|0,1:0|0:0,0:0:0:0:
256,196,64046,5,0,1:0:0:0:
184,284,64273,1,0,0:0:0:0:
184,284,64387,1,0,0:0:0:0:
184,284,64500,2,0,B|144:284|144:284|116:300|116:300|76:300,1,107.999996704102,2|0,1:0|0:0,0:0:0:0:
328,284,64955,2,0,B|368:284|368:284|396:300|396:300|436:300,1,107.999996704102,0|0,1:0|0:0,0:0:0:0:
256,364,65410,2,0,B|256:304|256:304|252:300|252:300|260:300|260:300|256:296|256:296|256:228,1,135.000005149842,10|0,1:2|1:0,0:0:0:0:
256,196,65750,1,0,0:0:0:0:
256,196,65864,6,0,B|256:152|256:152|252:148|252:148|260:148|260:148|256:144|256:144|256:96,1,107.999996704102,0|0,1:0|0:0,0:0:0:0:
176,24,66319,1,2,1:0:0:0:
336,24,66546,1,0,0:0:0:0:
336,24,66660,2,0,P|392:24|436:56,1,107.999996704102,2|0,0:0|0:0,0:0:0:0:
464,96,67000,1,0,0:0:0:0:
468,204,67228,2,0,B|468:260|468:260|432:304,1,107.999996704102,2|0,1:0|0:0,0:0:0:0:
312,376,67682,5,0,1:0:0:0:
256,284,67910,1,0,0:0:0:0:
200,376,68137,1,2,1:0:0:0:
144,284,68364,1,0,0:0:0:0:
144,284,68478,2,0,P|88:284|48:248,1,107.999996704102,2|0,0:0|0:0,0:0:0:0:
24,204,68819,1,0,0:0:0:0:
24,96,69046,2,0,B|72:68|72:68|124:68,1,107.999996704102,10|0,1:2|0:0,0:0:0:0:
256,172,69500,5,0,1:0:0:0:
213,39,69728,1,0,0:0:0:0:
326,121,69955,1,2,1:0:0:0:
186,121,70182,1,0,0:0:0:0:
299,39,70410,2,0,P|380:56|412:124,1,161.999995056153,0|0,1:0|0:0,0:0:0:0:
411,122,70864,1,2,1:0:0:0:
380,224,71091,1,0,0:0:0:0:
352,328,71319,6,0,B|308:328|288:360|288:360|256:344|224:360|224:360|200:328|160:328,1,215.999993408203,0|2,1:0|1:0,0:0:0:0:
132,224,72000,1,0,0:0:0:0:
188,132,72228,1,0,1:0:0:0:
217,160,72341,1,0,1:0:0:0:
256,172,72455,1,8,3:0:0:0:
295,160,72569,1,8,3:0:0:0:
324,132,72682,1,10,1:2:0:0:
380,224,72910,1,0,0:0:0:0:
256,88,73137,5,4,1:2:0:0:
160,36,73364,1,0,0:0:0:0:
160,36,73478,1,0,0:0:0:0:
160,36,73591,2,0,P|104:36|60:72,1,107.999996704102,2|0,1:0|0:0,0:0:0:0:
24,224,74046,1,0,1:0:0:0:
75,318,74273,1,0,0:0:0:0:
75,318,74387,1,0,0:0:0:0:
75,318,74500,2,0,P|118:349|171:348,1,107.999996704102,2|0,1:0|0:0,0:0:0:0:
312,252,74955,5,0,1:0:0:0:
400,188,75182,1,0,0:0:0:0:
400,188,75296,1,0,0:0:0:0:
400,188,75410,2,0,L|468:272,1,107.999996704102,2|0,1:0|0:0,0:0:0:0:
488,128,75864,1,0,1:0:0:0:
416,48,76091,1,0,0:0:0:0:
332,128,76319,2,0,P|256:184|179:128,1,202.500007724762,10|0,1:2|0:0,0:0:0:0:
256,112,76773,5,0,1:0:0:0:
172,248,77000,1,0,0:0:0:0:
172,248,77114,1,0,0:0:0:0:
172,248,77228,2,0,B|148:296|148:296|172:344,1,107.999996704102,2|0,1:0|0:0,0:0:0:0:
256,184,77682,1,0,1:0:0:0:
340,344,77910,1,0,0:0:0:0:
340,344,78023,1,0,0:0:0:0:
340,344,78137,2,0,B|364:296|364:296|340:248,1,107.999996704102,2|0,1:0|0:0,0:0:0:0:
256,112,78591,5,0,1:0:0:0:
196,20,78819,1,0,0:0:0:0:
196,20,78932,1,0,0:0:0:0:
196,20,79046,2,0,P|140:20|100:56,1,107.999996704102,2|0,1:0|0:0,0:0:0:0:
162,144,79500,2,0,P|218:144|258:108,1,107.999996704102,0|0,1:0|0:0,0:0:0:0:
316,20,79955,2,0,P|384:20|436:64,1,135.000005149842,10|0,1:2|1:0,0:0:0:0:
464,96,80296,1,0,0:0:0:0:
464,96,80410,6,0,P|485:144|464:192,1,107.999996704102,0|0,1:0|0:0,0:0:0:0:
392,272,80864,1,2,1:0:0:0:
320,352,81091,1,0,0:0:0:0:
320,352,81205,2,0,P|264:352|224:320,1,107.999996704102,2|0,0:0|0:0,0:0:0:0:
192,280,81546,1,0,0:0:0:0:
96,328,81773,1,2,1:0:0:0:
44,232,82000,1,0,0:0:0:0:
140,184,82228,6,0,B|118:145|118:145|112:144|112:144|119:140|119:140|113:138|113:138|89:97,1,107.999996704102,0|0,1:0|0:0,0:0:0:0:
188,52,82682,1,2,1:0:0:0:
324,52,82910,1,0,0:0:0:0:
324,52,83023,2,0,P|380:52|416:88,1,107.999996704102,2|0,0:0|0:0,0:0:0:0:
436,136,83364,1,0,0:0:0:0:
480,236,83591,1,10,1:2:0:0:
480,236,83819,1,0,0:0:0:0:
396,364,84046,6,0,P|348:385|300:364,1,107.999996704102,0|0,1:0|0:0,0:0:0:0:
208,208,84500,2,0,P|256:186|304:207,1,107.999996704102,2|0,1:0|0:0,0:0:0:0:
213,363,84955,2,0,P|153:363|77:291,1,161.999995056153,0|0,1:0|0:0,0:0:0:0:
79,298,85410,1,2,1:0:0:0:
24,204,85637,1,0,0:0:0:0:
91,55,85864,6,0,B|139:31|139:31|187:55,1,107.999996704102,0|0,1:0|0:0,0:0:0:0:
304,168,86319,2,0,B|256:192|256:192|208:168,1,107.999996704102,2|0,1:0|0:0,0:0:0:0:
324,56,86773,1,0,1:2:0:0:
295,84,86886,1,0,1:0:0:0:
256,96,87000,1,8,3:0:0:0:
217,84,87114,1,8,3:0:0:0:
188,56,87227,1,10,1:2:0:0:
188,56,87455,1,0,0:0:0:0:
305,167,87682,6,0,P|349:167|385:195,1,90,4|0,1:2|0:0,0:0:0:0:
352,288,88137,2,0,P|308:288|272:260,1,90,2|0,1:0|0:0,0:0:0:0:
212,184,88591,1,0,1:0:0:0:
305,167,88819,1,0,0:0:0:0:
272,260,89046,2,0,B|252:304|204:304|204:304|152:304,1,135,2|0,1:0|0:0,0:0:0:0:
104,300,89500,5,0,1:0:0:0:
32,232,89728,1,0,0:0:0:0:
32,232,89841,1,0,0:0:0:0:
32,232,89955,2,0,P|15:191|33:151,1,90,2|0,1:0|0:0,0:0:0:0:
104,84,90410,2,0,P|145:67|185:85,1,90,0|0,1:0|0:0,0:0:0:0:
308,176,90864,1,10,1:2:0:0:
204,176,91091,1,0,0:0:0:0:
328,84,91319,6,0,P|388:57|448:83,1,135,0|0,1:0|0:0,0:0:0:0:
476,124,91773,2,0,B|496:164|496:164|476:204,1,90,2|0,1:0|0:0,0:0:0:0:
376,288,92228,2,0,B|356:248|356:248|376:208,1,90,0|0,1:0|0:0,0:0:0:0:
475,204,92682,1,2,1:0:0:0:
376,288,92910,1,0,1:0:0:0:
280,376,93137,5,0,1:0:0:0:
180,376,93364,1,0,0:0:0:0:
180,376,93478,1,0,0:0:0:0:
180,376,93591,2,0,P|136:376|100:348,1,90,2|0,1:0|0:0,0:0:0:0:
48,264,94046,1,0,1:0:0:0:
48,264,94273,1,0,0:0:0:0:
48,120,94500,1,10,1:2:0:0:
116,192,94728,1,0,0:0:0:0:
196,88,94955,6,0,P|256:61|316:87,1,135,4|0,1:2|0:0,0:0:0:0:
376,128,95410,2,0,P|420:128|456:156,1,90,2|0,1:0|0:0,0:0:0:0:
455,229,95750,2,0,P|420:255|376:256,1,90,2|0,0:0|0:0,0:0:0:0:
340,192,96091,1,2,0:0:0:0:
316,344,96319,2,0,P|255:370|195:343,1,135,2|0,1:2|0:0,0:0:0:0:
195,343,96773,5,0,1:0:0:0:
256,260,97000,1,0,0:0:0:0:
136,284,97228,2,0,P|95:301|55:283,1,90,2|0,1:0|0:0,0:0:0:0:
8,232,97569,2,0,P|-9:191|9:151,1,90,2|0,0:0|0:0,0:0:0:0:
55,101,97910,1,2,0:0:0:0:
196,68,98137,6,0,P|256:41|316:67,1,135,10|0,1:2|0:0,0:0:0:0:
316,67,98591,1,0,1:0:0:0:
368,152,98819,1,0,0:0:0:0:
368,152,98932,1,0,0:0:0:0:
368,152,99046,2,0,P|385:193|367:233,1,90,2|0,1:0|0:0,0:0:0:0:
256,304,99500,1,0,1:0:0:0:
144,232,99728,1,0,0:0:0:0:
144,232,99841,1,0,0:0:0:0:
144,232,99955,2,0,P|126:192|144:152,1,90,2|0,1:0|1:0,0:0:0:0:
332,60,100410,6,0,P|256:3|179:59,1,202.500007724762,0|0,1:0|0:0,0:0:0:0:
179,59,100864,1,2,1:0:0:0:
136,148,101091,1,0,0:0:0:0:
136,148,101205,1,0,0:0:0:0:
136,148,101319,2,0,B|120:180|120:180|115:182|115:182|122:185|122:185|117:187|117:187|100:224,1,90,0|0,1:0|0:0,0:0:0:0:
56,308,101773,1,10,1:2:0:0:
220,360,102000,1,0,1:0:0:0:
220,360,102114,1,0,0:0:0:0:
220,360,102228,6,0,B|256:378|256:378|292:360,1,80.9999975280763,4|0,1:2|0:0,0:0:0:0:
368,312,102682,1,10,1:2:0:0:
368,312,102796,2,0,B|404:294|404:294|440:312,1,80.9999975280763
480,332,103137,2,0,L|512:256,1,80.9999975280763,0|0,1:0|0:0,0:0:0:0:
464,132,103591,2,0,L|432:208,1,80.9999975280763,10|0,1:0|0:0,0:0:0:0:
320,176,104046,5,0,1:0:0:0:
256,112,104273,1,0,0:0:0:0:
192,176,104500,1,10,1:0:0:0:
192,176,104614,2,0,P|152:176|120:148,1,80.9999975280763
88,124,104955,2,0,L|16:160,1,80.9999975280763,0|0,1:0|0:0,0:0:0:0:
8,276,105410,2,0,L|80:240,1,80.9999975280763,10|0,1:0|0:0,0:0:0:0:
172,336,105864,5,0,1:0:0:0:
256,368,106091,1,0,0:0:0:0:
340,336,106319,1,10,1:0:0:0:
340,336,106432,2,0,P|376:352|412:336,1,80.9999975280763
452,312,106773,2,0,L|416:236,1,80.9999975280763,0|0,1:0|0:0,0:0:0:0:
468,120,107228,2,0,L|504:196,1,80.9999975280763,10|0,1:0|0:0,0:0:0:0:
424,44,107682,5,0,1:0:0:0:
348,92,107910,1,0,0:0:0:0:
272,140,108137,1,10,1:0:0:0:
272,140,108250,2,0,P|232:140|200:164,1,80.9999975280763
164,192,108591,2,0,L|116:116,1,80.9999975280763,0|0,1:0|0:0,0:0:0:0:
60,224,109046,2,0,L|108:300,1,80.9999975280763,10|0,1:0|0:0,0:0:0:0:
168,380,109500,5,0,1:0:0:0:
168,380,109728,1,0,1:0:0:0:
256,264,109955,1,10,1:0:0:0:
256,264,110182,1,0,1:0:0:0:
344,380,110410,1,0,1:0:0:0:
344,380,110637,1,0,1:0:0:0:
428,264,110864,1,10,1:0:0:0:
428,264,111091,1,0,1:0:0:0:
344,144,111319,5,0,1:0:0:0:
344,144,111546,1,0,1:0:0:0:
256,28,111773,1,10,1:0:0:0:
256,28,112000,1,0,1:0:0:0:
168,144,112228,1,0,1:0:0:0:
168,144,112455,1,0,1:0:0:0:
256,260,112682,1,10,1:0:0:0:
256,260,112910,1,0,1:0:0:0:
344,144,113137,5,0,1:0:0:0:
344,144,113250,1,0,1:0:0:0:
344,144,113364,2,0,L|388:144,1,40.4999987640381,0|0,1:0|1:0,0:0:0:0:
476,192,113591,2,0,L|436:192,1,40.4999987640381,10|0,1:0|1:0,0:0:0:0:
384,240,113819,1,0,1:0:0:0:
384,240,113932,1,0,1:0:0:0:
384,240,114046,2,0,L|344:240,1,40.4999987640381,0|0,1:0|1:0,0:0:0:0:
292,280,114273,2,0,L|292:324,1,40.4999987640381,0|0,1:0|1:0,0:0:0:0:
220,320,114500,1,10,1:0:0:0:
220,320,114614,1,0,1:0:0:0:
220,320,114728,2,0,L|220:280,1,40.4999987640381,0|0,1:0|1:0,0:0:0:0:
168,240,114955,6,0,P|128:240|96:216,1,80.9999975280763,4|0,1:2|0:0,0:0:0:0:
48,140,115410,1,2,0:0:0:0:
48,140,115523,1,0,0:0:0:0:
128,104,115750,2,0,P|188:104|228:148,1,121.499996292114
268,228,116319,1,10,1:2:0:0:
352,200,116546,1,0,0:0:0:0:
312,120,116773,6,0,L|388:88,1,80.9999975280763,2|0,0:0|0:0,0:0:0:0:
472,56,117228,1,8,0:0:0:0:
360,12,117455,1,0,0:0:0:0:
360,12,117569,2,0,L|244:60,1,121.499996292114,2|0,0:0|0:0,0:0:0:0:
164,92,118137,2,0,P|124:92|88:120,1,80.9999975280763,8|0,0:0|0:0,0:0:0:0:
92,236,118591,6,0,P|124:258|164:258,1,80.9999975280763,2|0,0:0|0:0,0:0:0:0:
256,292,119046,1,8,0:0:0:0:
348,258,119273,1,0,0:0:0:0:
348,258,119387,2,0,P|408:258|452:218,1,121.499996292114,2|0,0:0|0:0,0:0:0:0:
372,176,119955,1,8,0:0:0:0:
372,176,120182,1,0,0:0:0:0:
328,48,120410,6,0,P|256:16|184:48,1,161.999995056153,2|8,0:0|0:0,0:0:0:0:
124,116,121091,1,0,0:0:0:0:
124,116,121319,2,0,P|108:152|124:188,1,80.9999975280763,2|0,0:0|0:0,0:0:0:0:
216,260,121773,2,0,P|232:224|216:188,1,80.9999975280763,8|0,0:0|0:0,0:0:0:0:
124,116,122228,2,0,L|57:268,1,161.999995056153,2|8,0:0|0:0,0:0:0:0:
58,264,122910,1,0,0:0:0:0:
148,256,123137,2,0,L|180:180,1,80.9999975280763,2|0,0:0|0:0,0:0:0:0:
32,128,123591,2,0,L|0:204,1,80.9999975280763,10|0,1:2|0:0,0:0:0:0:
56,364,124046,6,0,P|100:364|140:336,1,90,2|0,1:2|0:0,0:0:0:0:
228,280,124500,1,8,1:2:0:0:
316,216,124728,1,0,0:0:0:0:
316,216,124841,2,0,P|342:156|316:96,1,135,2|0,0:0|0:0,0:0:0:0:
228,32,125410,2,0,P|188:15|148:32,1,90,8|0,1:2|0:0,0:0:0:0:
24,132,125864,6,0,P|65:150|105:132,1,90,2|0,1:2|0:0,0:0:0:0:
147,32,126319,1,8,1:2:0:0:
104,132,126546,1,0,0:0:0:0:
104,132,126660,2,0,B|136:178|136:178|141:179|141:179|135:184|135:184|140:185|140:185|177:237,1,135,2|0,0:0|0:0,0:0:0:0:
240,320,127228,1,8,1:2:0:0:
240,320,127455,1,0,0:0:0:0:
360,256,127682,6,0,P|412:191|359:128,1,180,2|8,1:2|1:2,0:0:0:0:
256,92,128364,1,0,0:0:0:0:
160,131,128591,2,0,P|143:171|160:212,1,90,2|0,1:2|0:0,0:0:0:0:
351,212,129046,2,0,P|369:172|353:132,1,90,8|0,1:2|0:0,0:0:0:0:
256,92,129500,6,0,B|284:184|228:184|256:268,1,180,2|0,1:2|1:2,0:0:0:0:
256,308,130069,1,0,1:0:0:0:
236,344,130182,1,0,1:0:0:0:
208,372,130296,1,0,1:0:0:0:
168,384,130410,1,0,1:0:0:0:
128,372,130523,1,0,1:0:0:0:
100,344,130637,1,0,1:0:0:0:
80,308,130750,1,0,1:0:0:0:
64,272,130864,2,0,P|64:204|112:156,1,135,8|0,1:2|0:0,0:0:0:0:
152,140,131319,6,0,L|240:200,1,99.0000030212403,4|0,1:2|0:0,0:0:0:0:
150,320,131773,2,0,L|58:268,1,99.0000030212403,0|0,1:0|0:0,0:0:0:0:
233,195,132228,2,0,P|321:195|372:160,1,148.50000453186,0|0,1:0|0:0,0:0:0:0:
405,130,132682,1,2,1:0:0:0:
256,32,132910,1,0,1:0:0:0:
256,32,133023,1,0,1:0:0:0:
256,32,133137,6,0,P|212:12|168:32,1,99.0000030212403,0|0,1:0|0:0,0:0:0:0:
84,104,133591,2,0,P|64:148|84:192,1,99.0000030212403,0|0,1:0|0:0,0:0:0:0:
156,272,134046,2,0,B|192:235|192:235|238:223|238:223|274:187,1,148.50000453186,0|0,1:0|0:0,0:0:0:0:
308,156,134500,1,2,1:0:0:0:
448,264,134728,1,0,1:0:0:0:
448,264,134841,1,0,1:0:0:0:
448,264,134955,6,0,P|467:307|447:351,1,99.0000030212403,0|0,1:0|0:0,0:0:0:0:
310,243,135410,2,0,P|289:199|308:155,1,99.0000030212403,0|0,1:0|0:0,0:0:0:0:
360,48,135864,2,0,B|284:24|284:76|216:48,1,148.50000453186,0|0,1:0|0:0,0:0:0:0:
167,47,136319,1,2,1:0:0:0:
56,192,136546,1,0,1:0:0:0:
56,192,136660,1,0,1:0:0:0:
56,192,136773,6,0,P|36:235|56:279,1,99.0000030212403,0|0,1:0|0:0,0:0:0:0:
184,340,137228,2,0,P|204:296|184:252,1,99.0000030212403,0|0,1:0|0:0,0:0:0:0:
272,176,137682,2,0,B|348:200|348:148|416:176,1,148.50000453186,0|0,1:0|0:0,0:0:0:0:
464,176,138137,1,2,1:0:0:0:
308,104,138364,1,0,1:0:0:0:
308,104,138478,1,0,1:0:0:0:
308,104,138591,6,0,P|328:60|309:16,1,99.0000030212403,0|0,1:0|1:0,0:0:0:0:
160,148,139046,2,0,P|139:191|158:235,1,99.0000030212403,0|0,1:0|1:0,0:0:0:0:
308,368,139500,2,0,P|327:324|307:281,1,99.0000030212403,0|0,1:0|1:0,0:0:0:0:
220,192,139955,1,0,1:0:0:0:
308,104,140182,1,0,1:0:0:0:
308,104,140296,1,0,1:0:0:0:
308,104,140410,5,0,1:0:0:0:
420,48,140637,1,0,1:0:0:0:
308,104,140864,1,0,1:0:0:0:
448,36,141091,1,0,1:0:0:0:
308,104,141319,1,0,1:0:0:0:
480,24,141546,2,0,P|500:67|480:111,1,99.0000030212403,0|0,1:0|1:0,0:0:0:0:
396,212,142000,5,0,1:0:0:0:
368,241,142114,1,0,1:0:0:0:
340,266,142228,2,0,L|302:305,3,49.5000015106202,0|0|0|0,1:0|1:0|1:0|1:0,0:0:0:0:
278,330,142682,2,0,L|240:369,3,49.5000015106202,0|0|0|0,1:0|1:0|1:0|1:0,0:0:0:0:
204,360,143137,1,0,1:0:0:0:
164,352,143250,1,0,1:0:0:0:
125,342,143364,1,0,1:0:0:0:
90,323,143478,1,0,1:0:0:0:
64,294,143591,1,0,1:0:0:0:
47,258,143705,1,0,1:0:0:0:
42,220,143819,1,0,1:0:0:0:
46,180,143932,1,0,1:0:0:0:
63,144,144046,1,4,1:2:0:0:
63,144,144500,6,0,P|103:144|159:104,1,108,2|0,0:0|0:0,0:0:0:0:
212,68,144955,2,0,L|272:120,1,72,2|0,0:0|0:0,0:0:0:0:
266,115,145296,1,0,1:0:0:0:
266,115,145410,1,8,1:2:0:0:
344,184,145637,1,0,1:0:0:0:
256,352,145864,6,0,P|200:352|160:316,1,107.999996704102,4|0,1:2|0:0,0:0:0:0:
132,276,146205,1,0,0:0:0:0:
132,276,146319,2,0,L|180:176,1,107.999996704102,2|0,1:0|0:0,0:0:0:0:
232,16,146773,1,0,1:0:0:0:
340,16,147000,1,0,0:0:0:0:
340,16,147114,1,0,0:0:0:0:
340,16,147228,2,0,P|396:16|440:52,1,107.999996704102,2|0,1:0|0:0,0:0:0:0:
472,208,147682,5,0,1:0:0:0:
408,296,147910,1,0,0:0:0:0:
408,296,148023,1,0,0:0:0:0:
408,296,148137,2,0,P|352:296|308:260,1,107.999996704102,2|0,1:0|0:0,0:0:0:0:
256,160,148591,1,0,1:0:0:0:
201,265,148819,1,0,0:0:0:0:
180,92,149046,2,0,P|256:36|333:92,1,202.500007724762,10|0,1:2|0:0,0:0:0:0:
348,132,149501,5,0,1:0:0:0:
376,236,149728,1,0,0:0:0:0:
376,236,149842,1,0,0:0:0:0:
376,236,149955,2,0,P|397:284|376:332,1,107.999996704102,2|0,1:0|0:0,0:0:0:0:
256,384,150410,1,0,1:0:0:0:
137,333,150637,1,0,0:0:0:0:
137,333,150751,1,0,0:0:0:0:
137,333,150864,2,0,P|116:285|136:236,1,107.999996704102,2|0,1:0|0:0,0:0:0:0:
256,188,151319,5,0,1:0:0:0:
328,100,151546,1,0,0:0:0:0:
328,100,151660,1,0,0:0:0:0:
328,100,151773,2,0,B|368:100|368:100|396:84|396:84|436:84,1,107.999996704102,2|0,1:0|0:0,0:0:0:0:
184,100,152228,2,0,B|144:100|144:100|116:84|116:84|76:84,1,107.999996704102,0|0,1:0|0:0,0:0:0:0:
256,20,152683,2,0,B|256:80|256:80|260:84|260:84|252:84|252:84|256:88|256:88|256:156,1,135.000005149842,10|0,1:2|1:0,0:0:0:0:
256,188,153023,1,0,0:0:0:0:
256,188,153137,6,0,B|256:232|256:232|260:236|260:236|252:236|252:236|256:240|256:240|256:288,1,107.999996704102,0|0,1:0|0:0,0:0:0:0:
336,360,153592,1,2,1:0:0:0:
176,360,153819,1,0,0:0:0:0:
176,360,153933,2,0,P|120:360|76:328,1,107.999996704102,2|0,0:0|0:0,0:0:0:0:
48,288,154273,1,0,0:0:0:0:
44,180,154501,2,0,B|44:124|44:124|80:80,1,107.999996704102,2|0,1:0|0:0,0:0:0:0:
200,8,154955,5,0,1:0:0:0:
256,100,155183,1,0,0:0:0:0:
312,8,155410,1,2,1:0:0:0:
368,100,155637,1,0,0:0:0:0:
368,100,155751,2,0,P|424:100|464:136,1,107.999996704102,2|0,0:0|0:0,0:0:0:0:
488,180,156092,1,0,0:0:0:0:
488,288,156319,2,0,B|440:316|440:316|388:316,1,107.999996704102,10|0,1:2|0:0,0:0:0:0:
256,212,156773,5,0,1:0:0:0:
299,345,157001,1,0,0:0:0:0:
186,263,157228,1,2,1:0:0:0:
326,263,157455,1,0,0:0:0:0:
213,345,157683,2,0,P|132:328|100:260,1,161.999995056153,0|0,1:0|0:0,0:0:0:0:
101,262,158137,1,2,1:0:0:0:
132,160,158364,1,0,0:0:0:0:
160,56,158592,6,0,B|204:56|224:24|224:24|256:40|288:24|288:24|312:56|352:56,1,215.999993408203,0|2,1:0|1:0,0:0:0:0:
380,160,159273,1,0,0:0:0:0:
324,252,159501,1,0,1:0:0:0:
295,224,159614,1,0,1:0:0:0:
256,212,159728,1,8,3:0:0:0:
217,224,159842,1,8,3:0:0:0:
188,252,159955,1,10,1:2:0:0:
132,160,160183,1,0,0:0:0:0:
256,296,160410,5,4,1:2:0:0:
352,348,160637,1,0,0:0:0:0:
352,348,160751,1,0,0:0:0:0:
352,348,160864,2,0,P|408:348|452:312,1,107.999996704102,2|0,1:0|0:0,0:0:0:0:
488,160,161319,1,0,1:0:0:0:
437,66,161546,1,0,0:0:0:0:
437,66,161660,1,0,0:0:0:0:
437,66,161773,2,0,P|394:35|341:36,1,107.999996704102,2|0,1:0|0:0,0:0:0:0:
200,132,162228,5,0,1:0:0:0:
112,196,162455,1,0,0:0:0:0:
112,196,162569,1,0,0:0:0:0:
112,196,162683,2,0,L|44:112,1,107.999996704102,2|0,1:0|0:0,0:0:0:0:
24,256,163137,1,0,1:0:0:0:
96,336,163364,1,0,0:0:0:0:
180,256,163592,2,0,P|256:200|333:256,1,202.500007724762,10|0,1:2|0:0,0:0:0:0:
256,272,164046,5,0,1:0:0:0:
340,136,164273,1,0,0:0:0:0:
340,136,164387,1,0,0:0:0:0:
340,136,164501,2,0,B|364:88|364:88|340:40,1,107.999996704102,2|0,1:0|0:0,0:0:0:0:
256,200,164955,1,0,1:0:0:0:
172,40,165183,1,0,0:0:0:0:
172,40,165296,1,0,0:0:0:0:
172,40,165410,2,0,B|148:88|148:88|172:136,1,107.999996704102,2|0,1:0|0:0,0:0:0:0:
256,272,165864,5,0,1:0:0:0:
316,364,166092,1,0,0:0:0:0:
316,364,166205,1,0,0:0:0:0:
316,364,166319,2,0,P|372:364|412:328,1,107.999996704102,2|0,1:0|0:0,0:0:0:0:
350,240,166773,2,0,P|294:240|254:276,1,107.999996704102,0|0,1:0|0:0,0:0:0:0:
196,364,167228,2,0,P|128:364|76:320,1,135.000005149842,10|0,1:2|1:0,0:0:0:0:
48,288,167569,1,0,0:0:0:0:
48,288,167683,6,0,P|27:240|48:192,1,107.999996704102,0|0,1:0|0:0,0:0:0:0:
120,112,168137,1,2,1:0:0:0:
192,32,168364,1,0,0:0:0:0:
192,32,168478,2,0,P|248:32|288:64,1,107.999996704102,2|0,0:0|0:0,0:0:0:0:
320,104,168819,1,0,0:0:0:0:
416,56,169046,1,2,1:0:0:0:
468,152,169273,1,0,0:0:0:0:
372,200,169501,6,0,B|394:239|394:239|400:240|400:240|393:244|393:244|399:246|399:246|423:287,1,107.999996704102,0|0,1:0|0:0,0:0:0:0:
324,332,169955,1,2,1:0:0:0:
188,332,170183,1,0,0:0:0:0:
188,332,170296,2,0,P|132:332|96:296,1,107.999996704102,2|0,0:0|0:0,0:0:0:0:
76,248,170637,1,0,0:0:0:0:
32,148,170864,1,10,1:2:0:0:
32,148,171092,1,0,0:0:0:0:
116,20,171319,6,0,P|164:-1|212:20,1,107.999996704102,0|0,1:0|0:0,0:0:0:0:
304,176,171773,2,0,P|256:198|208:177,1,107.999996704102,2|0,1:0|0:0,0:0:0:0:
299,21,172228,2,0,P|359:21|435:93,1,161.999995056153,0|0,1:0|0:0,0:0:0:0:
432,85,172683,1,2,1:0:0:0:
488,180,172910,1,0,0:0:0:0:
421,329,173137,6,0,B|373:353|373:353|325:329,1,107.999996704102,0|0,1:0|0:0,0:0:0:0:
208,216,173592,2,0,B|256:192|256:192|304:216,1,107.999996704102,2|0,1:0|0:0,0:0:0:0:
188,328,174046,1,0,1:2:0:0:
217,300,174159,1,0,1:0:0:0:
256,288,174273,1,8,3:0:0:0:
295,300,174387,1,8,3:0:0:0:
324,328,174500,1,10,1:2:0:0:
324,328,174728,1,0,0:0:0:0:
207,217,174955,6,0,P|147:217|83:157,1,148.50000453186,4|0,1:2|0:0,0:0:0:0:
52,124,175410,2,0,P|32:80|52:36,1,99.0000030212403,2|0,1:0|0:0,0:0:0:0:
160,32,175864,1,0,1:0:0:0:
256,80,176091,1,0,0:0:0:0:
352,32,176319,2,0,B|385:71|385:71|398:118|398:118|429:155,1,148.50000453186,2|0,1:0|0:0,0:0:0:0:
460,192,176773,5,0,1:0:0:0:
364,240,177000,1,0,0:0:0:0:
364,240,177114,1,0,0:0:0:0:
364,240,177228,2,0,P|383:283|363:327,1,99.0000030212403,2|0,1:0|0:0,0:0:0:0:
148,327,177682,2,0,P|128:283|148:240,1,99.0000030212403,0|0,1:0|0:0,0:0:0:0:
320,152,178137,6,0,P|256:120|192:152,1,148.50000453186,10|0,1:2|0:0,0:0:0:0:
192,152,178591,1,0,1:0:0:0:
192,152,178705,1,0,0:0:0:0:
88,116,178932,2,0,L|32:92,3,49.5000015106202,0|2|0|0,0:0|1:0|0:0|0:0,0:0:0:0:
128,28,179500,1,0,1:0:0:0:
184,120,179728,1,0,0:0:0:0:
215,151,179841,1,0,0:0:0:0:
256,168,179955,1,2,1:0:0:0:
297,151,180069,1,0,0:0:0:0:
328,120,180182,1,0,0:0:0:0:
384,28,180410,5,0,1:0:0:0:
470,96,180637,1,0,0:0:0:0:
470,96,180750,1,0,0:0:0:0:
470,96,180864,2,0,B|470:140|526:172|526:172|470:208|470:248,1,198.000006042481,2|0,1:0|1:0,0:0:0:0:
332,364,181546,1,0,0:0:0:0:
298,332,181660,1,0,0:0:0:0:
256,316,181773,1,10,1:2:0:0:
214,332,181887,1,0,0:0:0:0:
180,364,182000,1,0,0:0:0:0:
96,252,182228,5,0,1:0:0:0:
96,252,182341,2,0,L|32:172,1,99.0000030212403
96,128,182682,2,0,L|160:208,1,99.0000030212403,2|0,1:0|0:0,0:0:0:0:
256,332,183137,5,0,1:0:0:0:
256,332,183250,2,0,P|308:332|340:300,1,99.0000030212403
340,224,183591,2,0,P|304:191|256:192,1,99.0000030212403,2|0,1:0|0:0,0:0:0:0:
256,16,184046,5,0,1:0:0:0:
256,16,184160,2,0,B|308:16|308:16|344:48,1,99.0000030212403
400,96,184500,2,0,B|435:127|435:127|487:127,1,99.0000030212403,2|0,1:0|0:0,0:0:0:0:
424,312,184955,5,0,1:0:0:0:
424,312,185069,2,0,B|388:312|388:312|360:300|360:300|328:300,1,99.0000030212403
256,280,185410,2,0,B|220:280|220:280|192:268|192:268|160:268,1,99.0000030212403,10|0,1:2|0:0,0:0:0:0:
48,68,185864,5,0,1:0:0:0:
48,68,185978,2,0,P|88:40|140:56,1,99.0000030212403
152,124,186319,2,0,P|112:151|65:141,1,99.0000030212403,2|0,1:0|0:0,0:0:0:0:
256,24,186773,5,0,1:0:0:0:
256,24,186887,2,0,B|300:48|300:48|320:96,1,99.0000030212403
344,164,187228,2,0,B|362:209|362:209|406:233,1,99.0000030212403,2|0,1:0|0:0,0:0:0:0:
224,368,187682,5,0,1:0:0:0:
224,368,187796,2,0,B|184:368|160:348|160:348|124:348,1,99.0000030212403
68,304,188137,2,0,B|68:264|88:240|88:240|88:204,1,99.0000030212403,2|0,1:0|0:0,0:0:0:0:
200,24,188591,1,0,1:0:0:0:
200,24,188705,2,0,P|192:72|220:112,1,99.0000030212403
292,111,189046,2,0,P|320:71|312:24,1,99.0000030212403,10|0,1:2|1:0,0:0:0:0:
256,196,189500,1,0,1:0:0:0:
256,224,189955,5,2,0:0:0:0:
256,252,190410,1,2,0:0:0:0:
256,280,190864,1,2,0:0:0:0:
256,308,191319,6,0,P|312:308|348:272,1,108,4|0,0:0|0:0,0:0:0:0:
364,236,191773,2,0,L|432:272,1,72,8|0,0:0|0:0,0:0:0:0:
468,200,192228,2,0,P|503:161|502:108,1,108,2|0,0:0|0:0,0:0:0:0:
468,88,192682,2,0,L|400:52,1,72,8|0,0:0|0:0,0:0:0:0:
324,64,193137,2,0,P|285:28|232:29,1,108,2|0,0:0|0:0,0:0:0:0:
208,60,193591,2,0,L|172:128,1,72,8|0,0:0|0:0,0:0:0:0:
132,192,194046,1,2,0:0:0:0:
256,288,194500,1,8,0:0:0:0:
380,192,194955,6,0,P|412:232|400:288,1,108,2|0,0:0|0:0,0:0:0:0:
376,316,195410,2,0,L|328:380,1,72,8|0,0:0|0:0,0:0:0:0:
264,336,195864,2,0,P|224:368|168:356,1,108,2|0,0:0|0:0,0:0:0:0:
140,336,196319,2,0,L|76:288,1,72,8|0,0:0|0:0,0:0:0:0:
24,236,196773,2,0,P|-8:196|4:140,1,108,2|0,0:0|0:0,0:0:0:0:
24,112,197228,2,0,L|72:48,1,72,8|0,0:0|0:0,0:0:0:0:
136,96,197682,1,2,0:0:0:0:
256,200,198137,1,8,0:0:0:0:
312,144,198364,5,0,0:0:0:0:
312,144,198478,1,0,0:0:0:0:
312,144,198591,2,0,P|344:130|376:144,1,72,2|0,0:0|0:0,0:0:0:0:
436,200,199046,1,8,0:0:0:0:
356,212,199273,1,0,0:0:0:0:
356,212,199387,2,0,L|392:104,1,108,2|0,0:0|0:0,0:0:0:0:
416,36,199955,1,8,0:0:0:0:
436,200,200410,6,0,L|412:268,1,72,2|0,0:0|0:0,0:0:0:0:
348,312,200864,1,8,0:0:0:0:
280,356,201091,1,0,0:0:0:0:
280,356,201205,2,0,P|228:356|184:312,1,108,2|0,0:0|0:0,0:0:0:0:
140,256,201773,1,8,0:0:0:0:
216,116,202228,6,0,P|202:84|216:52,1,72,2|0,0:0|0:0,0:0:0:0:
295,51,202682,2,0,P|309:83|296:116,1,72,8|0,0:0|0:0,0:0:0:0:
216,116,203137,2,0,B|164:100|164:136|104:116,1,108,2|0,0:0|0:0,0:0:0:0:
80,144,203591,2,0,P|66:176|80:208,1,72,8|0,0:0|0:0,0:0:0:0:
124,272,204046,1,2,0:0:0:0:
256,360,204500,5,8,0:0:0:0:
288,360,204955,1,2,0:0:0:0:
320,360,205410,1,8,0:0:0:0:
352,360,205864,5,8,0:0:0:0:
416,284,206091,1,0,0:0:0:0:
416,284,206205,1,0,0:0:0:0:
416,284,206319,2,0,P|432:248|416:212,1,80.9999975280763,10|0,0:0|0:0,0:0:0:0:
348,144,206773,1,8,0:0:0:0:
292,64,207000,1,0,0:0:0:0:
292,64,207114,1,0,0:0:0:0:
292,64,207228,2,0,P|256:48|220:64,1,80.9999975280763,10|0,0:0|0:0,0:0:0:0:
164,144,207682,5,8,0:0:0:0:
95,212,207910,1,0,0:0:0:0:
95,212,208023,1,0,0:0:0:0:
95,212,208137,2,0,P|80:248|96:284,1,80.9999975280763,10|0,0:0|0:0,0:0:0:0:
160,360,208591,1,8,0:0:0:0:
256,192,209046,1,10,0:0:0:0:
352,360,209500,5,8,0:0:0:0:
292,284,209728,1,0,0:0:0:0:
292,284,209841,1,0,0:0:0:0:
291,284,209955,2,0,P|255:268|219:284,1,80.9999975280763,10|0,0:0|0:0,0:0:0:0:
160,360,210410,1,8,0:0:0:0:
104,280,210637,1,0,0:0:0:0:
104,280,210750,1,0,0:0:0:0:
104,280,210864,2,0,L|52:212,1,80.9999975280763,10|0,0:0|0:0,0:0:0:0:
136,164,211319,5,8,0:0:0:0:
220,116,211546,1,0,0:0:0:0:
220,116,211660,1,0,0:0:0:0:
220,116,211773,2,0,P|255:100|291:115,1,80.9999975280763,10|0,0:0|0:0,0:0:0:0:
376,164,212228,1,8,0:0:0:0:
436,348,212682,1,10,0:0:0:0:
484,264,212910,1,0,0:0:0:0:
484,264,213023,1,0,0:0:0:0:
484,264,213137,6,0,P|502:223|485:183,1,90,0|0,1:0|1:0,0:0:0:0:
392,105,213591,1,2,1:0:0:0:
296,28,213819,1,0,1:0:0:0:
296,28,213932,1,0,1:0:0:0:
296,28,214046,2,0,P|255:10|215:27,1,90,0|0,1:0|1:0,0:0:0:0:
120,105,214500,1,2,1:0:0:0:
26,183,214728,1,0,1:0:0:0:
26,183,214841,1,0,1:0:0:0:
26,183,214955,6,0,P|10:224|28:264,1,90,0|0,1:0|1:0,0:0:0:0:
120,368,215410,1,2,1:0:0:0:
216,268,215637,1,0,1:0:0:0:
216,268,215750,1,0,1:0:0:0:
216,268,215864,2,0,P|256:251|296:269,1,90,0|0,1:0|1:0,0:0:0:0:
392,368,216319,1,10,1:2:0:0:
485,263,216546,1,0,1:0:0:0:
485,263,216660,1,0,1:0:0:0:
485,263,216773,6,0,L|452:220,3,49.5000015106202,0|0|0|0,1:0|1:0|1:0|1:0,0:0:0:0:
416,224,217228,2,0,L|383:181,3,49.5000015106202,2|0|0|0,1:0|1:0|1:0|1:0,0:0:0:0:
360,156,217682,1,0,1:0:0:0:
332,127,217796,1,0,1:0:0:0:
298,108,217910,1,0,1:0:0:0:
259,99,218023,1,0,1:0:0:0:
220,103,218137,1,2,1:0:0:0:
183,118,218250,1,0,1:0:0:0:
153,142,218364,1,0,1:0:0:0:
131,175,218478,1,0,1:0:0:0:
113,210,218591,1,4,1:2:0:0:
113,210,219046,6,0,P|87:254|113:298,1,108,2|0,0:0|0:0,0:0:0:0:
168,340,219500,2,0,L|224:388,1,72,2|0,0:0|0:0,0:0:0:0:
272,336,219841,1,0,1:0:0:0:
272,336,219955,2,0,L|186:260,1,108,8|0,1:2|0:0,0:0:0:0:
191,264,220410,5,4,1:2:0:0:
108,192,220637,1,0,0:0:0:0:
108,192,220750,1,0,0:0:0:0:
108,192,220864,2,0,P|48:192|16:160,1,107.999996704102,2|0,1:0|0:0,0:0:0:0:
148,16,221319,1,0,1:0:0:0:
208,104,221546,1,0,0:0:0:0:
208,104,221660,1,0,0:0:0:0:
208,104,221773,2,0,P|256:125|304:104,1,107.999996704102,2|0,1:0|0:0,0:0:0:0:
444,244,222228,5,0,1:0:0:0:
384,332,222455,1,0,0:0:0:0:
384,332,222569,1,0,0:0:0:0:
384,332,222682,2,0,B|360:360|328:360|328:360|284:360,1,107.999996704102,2|0,1:0|0:0,0:0:0:0:
204,288,223137,1,0,1:0:0:0:
124,216,223364,1,0,0:0:0:0:
180,92,223591,2,0,P|256:36|333:92,1,202.500007724762,10|0,1:2|0:0,0:0:0:0:
344,136,224046,5,0,1:0:0:0:
256,200,224273,1,0,0:0:0:0:
256,200,224387,1,0,0:0:0:0:
256,200,224500,2,0,P|200:200|160:232,1,107.999996704102,2|0,1:0|0:0,0:0:0:0:
116,328,224955,1,0,1:0:0:0:
216,364,225182,1,0,0:0:0:0:
216,364,225296,1,0,0:0:0:0:
216,364,225410,2,0,P|272:364|312:332,1,107.999996704102,2|0,1:0|0:0,0:0:0:0:
348,232,225864,5,0,1:0:0:0:
376,128,226091,1,0,0:0:0:0:
376,128,226205,1,0,0:0:0:0:
376,128,226319,2,0,P|397:79|376:31,1,107.999996704102,2|0,1:0|0:0,0:0:0:0:
256,80,226773,1,0,1:0:0:0:
256,80,227000,1,0,0:0:0:0:
136,31,227228,2,0,P|64:31|16:79,1,135.000005149842,10|0,1:2|1:0,0:0:0:0:
24,116,227569,1,0,0:0:0:0:
24,116,227682,6,0,L|68:216,1,107.999996704102,0|0,1:0|0:0,0:0:0:0:
108,316,228137,1,2,1:0:0:0:
208,272,228364,1,0,0:0:0:0:
208,272,228478,2,0,P|264:272|300:308,1,107.999996704102,2|0,0:0|0:0,0:0:0:0:
324,340,228819,1,0,0:0:0:0:
416,284,229046,2,0,P|468:232|452:152,1,161.999995056153,2|0,1:0|0:0,0:0:0:0:
420,120,229500,5,0,1:0:0:0:
336,48,229728,1,0,0:0:0:0:
256,120,229955,1,2,1:0:0:0:
176,48,230182,1,0,0:0:0:0:
176,48,230296,2,0,P|120:48|76:84,1,107.999996704102,2|0,0:0|0:0,0:0:0:0:
56,116,230637,1,0,0:0:0:0:
16,216,230864,2,0,B|48:264|100:264|100:264|168:264,1,161.999995056153,10|0,1:2|0:0,0:0:0:0:
204,264,231319,5,0,1:0:0:0:
256,356,231546,1,0,0:0:0:0:
308,264,231773,1,2,1:0:0:0:
256,380,232000,1,0,0:0:0:0:
204,264,232228,2,0,P|123:247|91:179,1,161.999995056153,0|0,1:0|0:0,0:0:0:0:
91,180,232682,1,2,1:0:0:0:
196,157,232910,1,0,0:0:0:0:
204,264,233137,6,0,B|204:324|256:352|256:352|308:324|308:264,1,215.999993408203,0|2,1:0|1:0,0:0:0:0:
352,144,233819,1,0,0:0:0:0:
256,16,234046,1,0,1:0:0:0:
232,48,234160,1,0,1:0:0:0:
208,80,234273,1,8,3:0:0:0:
184,112,234387,1,8,3:0:0:0:
160,144,234500,2,0,P|104:143|68:107,1,107.999996704102,10|0,1:2|0:0,0:0:0:0:
256,16,234955,5,4,1:2:0:0:
336,88,235182,1,0,0:0:0:0:
336,88,235296,1,0,0:0:0:0:
336,88,235410,2,0,P|392:88|432:120,1,107.999996704102,2|0,1:0|0:0,0:0:0:0:
352,272,235864,1,0,1:0:0:0:
300,368,236091,1,0,0:0:0:0:
300,368,236205,1,0,0:0:0:0:
300,368,236319,2,0,P|244:368|204:336,1,107.999996704102,2|0,1:0|0:0,0:0:0:0:
88,172,236773,5,0,1:0:0:0:
24,88,237000,1,0,0:0:0:0:
24,88,237114,1,0,0:0:0:0:
24,88,237228,2,0,B|68:52|68:52|120:52,1,107.999996704102,2|0,1:0|0:0,0:0:0:0:
200,124,237682,1,0,1:0:0:0:
312,124,237910,1,0,0:0:0:0:
332,280,238137,2,0,P|255:335|179:279,1,202.500007724762,10|0,1:2|0:0,0:0:0:0:
256,260,238591,5,0,1:0:0:0:
324,176,238819,1,0,0:0:0:0:
324,176,238932,1,0,0:0:0:0:
324,176,239046,2,0,B|364:176|364:176|388:188|388:188|432:188,1,107.999996704102,2|0,1:0|0:0,0:0:0:0:
256,80,239500,1,0,1:0:0:0:
188,176,239728,1,0,0:0:0:0:
188,176,239841,1,0,0:0:0:0:
188,176,239955,2,0,B|148:176|148:176|124:188|124:188|80:188,1,107.999996704102,2|0,1:0|0:0,0:0:0:0:
256,260,240410,5,0,1:0:0:0:
304,356,240637,1,0,0:0:0:0:
304,356,240750,1,0,0:0:0:0:
304,356,240864,2,0,P|255:377|207:356,1,107.999996704102,2|0,1:0|0:0,0:0:0:0:
172,256,241319,1,0,1:0:0:0:
340,256,241546,1,0,0:0:0:0:
256,160,241773,2,0,B|256:100|256:100|252:96|252:96|260:96|260:96|256:92|256:92|256:24,1,135.000005149842,10|0,1:2|1:0,0:0:0:0:
216,12,242114,1,0,0:0:0:0:
216,12,242228,6,0,B|172:12|172:12|168:16|168:16|168:8|168:8|164:12|164:12|116:12,1,107.999996704102,0|0,1:0|0:0,0:0:0:0:
40,84,242682,1,2,1:0:0:0:
112,164,242910,1,0,0:0:0:0:
112,164,243023,2,0,P|91:213|112:261,1,107.999996704102,2|0,0:0|0:0,0:0:0:0:
144,292,243364,1,0,0:0:0:0:
232,352,243591,2,0,P|304:384|376:352,1,161.999995056153,2|0,1:0|0:0,0:0:0:0:
412,324,244046,5,0,1:0:0:0:
500,264,244273,1,0,0:0:0:0:
412,204,244500,1,2,1:0:0:0:
500,140,244728,1,0,0:0:0:0:
500,140,244841,2,0,P|500:84|464:48,1,107.999996704102,2|0,0:0|0:0,0:0:0:0:
428,28,245182,1,0,0:0:0:0:
328,72,245410,2,0,P|256:103|184:71,1,161.999995056153,10|0,1:2|0:0,0:0:0:0:
152,44,245864,5,0,1:0:0:0:
44,44,246091,1,0,0:0:0:0:
100,136,246319,2,0,P|79:185|100:233,1,107.999996704102,2|0,1:0|0:0,0:0:0:0:
184,300,246773,2,0,P|255:331|327:300,1,161.999995056153,0|0,1:0|0:0,0:0:0:0:
360,272,247228,1,2,1:0:0:0:
436,348,247455,1,0,0:0:0:0:
512,272,247682,6,0,B|536:224|536:224|512:176,1,107.999996704102,0|0,1:0|0:0,0:0:0:0:
388,68,248137,2,0,B|364:116|364:116|388:164,1,107.999996704102,2|0,1:0|0:0,0:0:0:0:
324,252,248591,1,0,1:0:0:0:
295,280,248704,1,0,1:0:0:0:
256,292,248818,1,8,3:0:0:0:
217,280,248932,1,8,3:0:0:0:
188,252,249045,1,10,1:2:0:0:
188,252,249273,1,0,0:0:0:0:
256,96,249500,6,0,B|216:48|172:48|172:48|120:48,1,148.50000453186,4|0,1:2|0:0,0:0:0:0:
84,48,249955,1,2,1:0:0:0:
16,120,250182,1,0,0:0:0:0:
84,192,250410,2,0,P|64:235|84:279,1,99.0000030212403,0|0,1:0|0:0,0:0:0:0:
160,344,250864,2,0,B|216:344|216:344|252:328|252:328|308:328,1,148.50000453186,2|0,1:0|0:0,0:0:0:0:
344,328,251319,5,0,1:0:0:0:
384,236,251546,1,0,0:0:0:0:
384,236,251660,1,0,0:0:0:0:
384,236,251773,2,0,P|403:192|384:148,1,99.0000030212403,2|0,1:0|0:0,0:0:0:0:
300,32,252228,2,0,P|256:12|212:31,1,99.0000030212403,0|0,1:0|0:0,0:0:0:0:
127,148,252682,2,0,P|108:192|128:236,1,99.0000030212403,10|0,1:2|0:0,0:0:0:0:
256,308,253137,6,0,B|256:244|256:244|252:240|252:240|260:240|260:240|256:236|256:236|256:168,1,148.50000453186,0|0,1:0|0:0,0:0:0:0:
256,132,253591,1,2,1:0:0:0:
212,31,253819,1,0,0:0:0:0:
172,176,254046,1,0,1:0:0:0:
300,31,254273,1,0,0:0:0:0:
340,176,254500,1,2,1:0:0:0:
340,176,254728,1,0,1:0:0:0:
172,176,254955,5,0,1:0:0:0:
92,232,255182,1,0,0:0:0:0:
92,232,255296,1,0,0:0:0:0:
92,232,255410,2,0,P|40:232|4:264,1,99.0000030212403,2|0,1:0|0:0,0:0:0:0:
108,368,255864,2,0,P|160:368|196:336,1,99.0000030212403,0|0,1:0|0:0,0:0:0:0:
256,192,256319,1,10,1:2:0:0:
318,338,256546,1,0,0:0:0:0:
318,338,256660,1,0,0:0:0:0:
318,338,256773,6,0,P|416:336|480:264,1,198.000006042481,4|2,1:2|1:0,0:0:0:0:
416,192,257455,1,0,0:0:0:0:
479,118,257682,2,0,P|414:47|368:48,1,148.50000453186,0|0,1:0|0:0,0:0:0:0:
332,64,258137,1,2,1:0:0:0:
192,132,258364,1,0,0:0:0:0:
192,132,258478,1,0,0:0:0:0:
192,132,258591,6,0,P|148:112|104:132,1,99.0000030212403,0|0,1:0|0:0,0:0:0:0:
211,256,259046,2,0,P|255:275|299:255,1,99.0000030212403,2|0,1:0|0:0,0:0:0:0:
407,132,259500,2,0,P|363:112|320:131,1,99.0000030212403,0|0,1:0|0:0,0:0:0:0:
256,116,259841,1,0,0:0:0:0:
256,116,259955,2,0,B|256:72|256:72|252:68|252:68|260:68|260:68|256:64|256:64|256:28,1,99.0000030212403,10|0,1:2|1:0,0:0:0:0:
88,68,260410,5,0,1:0:0:0:
32,148,260637,1,0,0:0:0:0:
32,148,260750,1,0,0:0:0:0:
32,148,260864,2,0,P|12:191|32:235,1,99.0000030212403,2|0,1:0|0:0,0:0:0:0:
128,376,261319,1,0,1:0:0:0:
212,320,261546,1,0,0:0:0:0:
212,320,261660,1,0,0:0:0:0:
212,320,261773,2,0,P|255:300|299:319,1,99.0000030212403,2|0,1:0|0:0,0:0:0:0:
368,192,262228,6,0,P|256:128|144:192,2,270.000010299683,0|2|0,1:0|1:0|1:0,0:0:0:0:
384,292,263364,1,0,0:0:0:0:
384,292,263478,1,0,0:0:0:0:
384,292,263591,1,10,1:2:0:0:
256,216,263819,1,0,1:0:0:0:
128,292,264046,5,4,1:2:0:0:
56,240,264273,1,0,0:0:0:0:
128,184,264500,1,10,1:0:0:0:
128,184,264614,2,0,P|88:164|72:120,1,90
68,80,264955,2,0,L|136:8,1,90,0|0,1:0|0:0,0:0:0:0:
280,28,265410,2,0,L|212:100,1,90,10|0,1:0|0:0,0:0:0:0:
128,184,265864,5,0,1:0:0:0:
56,240,266091,1,0,0:0:0:0:
128,292,266319,1,10,1:0:0:0:
128,292,266432,2,0,P|176:292|208:320,1,90
236,352,266773,2,0,L|328:352,1,90,0|0,1:0|0:0,0:0:0:0:
452,264,267228,2,0,L|360:264,1,90,10|0,1:2|0:0,0:0:0:0:
328,132,267682,5,0,1:0:0:0:
256,80,267910,1,0,0:0:0:0:
184,132,268137,1,10,1:0:0:0:
184,132,268250,2,0,P|140:132|104:104,1,90
76,72,268591,2,0,L|4:128,1,90,0|0,1:0|0:0,0:0:0:0:
16,264,269046,2,0,L|88:208,1,90,10|0,1:0|0:0,0:0:0:0:
184,132,269500,5,0,1:0:0:0:
256,188,269728,1,0,0:0:0:0:
328,132,269955,1,10,1:0:0:0:
328,132,270069,2,0,P|376:132|408:160,1,90
436,192,270410,2,0,L|384:268,1,90,0|0,1:0|0:0,0:0:0:0:
448,372,270864,2,0,L|500:296,1,90,10|0,1:2|0:0,0:0:0:0:
385,266,271319,5,0,1:0:0:0:
385,266,271546,1,0,1:0:0:0:
247,330,271773,1,10,1:0:0:0:
247,330,272000,1,0,1:0:0:0:
179,185,272228,1,0,1:0:0:0:
179,185,272455,1,0,1:0:0:0:
317,120,272682,1,10,1:0:0:0:
317,120,272910,1,0,1:0:0:0:
408,276,273137,5,0,1:0:0:0:
408,276,273364,1,0,1:0:0:0:
233,357,273591,1,10,1:0:0:0:
233,357,273819,1,0,1:0:0:0:
152,183,274046,1,0,1:0:0:0:
152,183,274273,1,0,1:0:0:0:
326,101,274500,1,10,1:0:0:0:
326,101,274728,1,0,1:0:0:0:
408,276,274955,5,0,1:0:0:0:
408,276,275069,1,0,1:0:0:0:
408,276,275182,2,0,L|456:276,1,45,0|0,1:0|1:0,0:0:0:0:
504,192,275410,2,0,L|459:192,1,45,10|0,1:0|1:0,0:0:0:0:
453,108,275637,1,0,1:0:0:0:
453,108,275750,1,0,1:0:0:0:
453,108,275864,2,0,L|405:108,1,45,0|0,1:0|1:0,0:0:0:0:
344,52,276091,2,0,L|292:52,1,45,0|0,1:0|1:0,0:0:0:0:
213,52,276319,1,10,1:0:0:0:
213,52,276432,1,0,1:0:0:0:
213,52,276546,2,0,L|160:52,1,45,0|0,1:0|1:0,0:0:0:0:
92,52,276773,6,0,P|52:52|24:80,1,80.9999975280763,4|0,1:2|0:0,0:0:0:0:
20,168,277228,1,2,0:0:0:0:
20,168,277341,1,0,0:0:0:0:
72,240,277569,2,0,P|132:240|176:200,1,121.499996292114
220,124,278137,1,10,1:2:0:0:
300,160,278364,1,0,0:0:0:0:
256,236,278591,1,2,0:0:0:0:
256,192,278705,12,0,282228,0:0:0:0:
