osu file format v14

[General]
AudioFilename: sugar.mp3
AudioLeadIn: 0
PreviewTime: 47568
Countdown: 0
SampleSet: Normal
StackLeniency: 0.4
Mode: 0
LetterboxInBreaks: 0
WidescreenStoryboard: 1

[Editor]
DistanceSpacing: 3.2
BeatDivisor: 6
GridSize: 8
TimelineZoom: 2

[Metadata]
Title:Sugar, Sugar
TitleUnicode:Sugar, Sugar
Artist:Miyano Mamoru
ArtistUnicode:宮野真守
Creator:Yahuri
Version:Overdose
Source:
Tags:テンペスト tempest mixing japanese pop jpop male vocals
BeatmapID:2025275
BeatmapSetID:967807

[Difficulty]
HPDrainRate:5
CircleSize:4.2
OverallDifficulty:7
ApproachRate:8.5
SliderMultiplier:1.4
SliderTickRate:1

[Events]
//Background and Video events
0,0,"sugar.jpg",0,0
//Break Periods
2,163864,174989
//Storyboard Layer 0 (Background)
//Storyboard Layer 1 (Fail)
//Storyboard Layer 2 (Pass)
//Storyboard Layer 3 (Foreground)
//Storyboard Layer 4 (Overlay)
//Storyboard Sound Samples

[TimingPoints]
5442,444.444444444444,4,1,1,80,1,0
19219,-66.6666666666667,4,1,1,80,0,0
19553,-66.6666666666667,4,1,1,5,0,0
19664,-100,4,1,1,60,0,0
22664,-100,4,1,1,5,0,0
22775,-66.6666666666667,4,1,1,60,0,0
23219,-100,4,1,1,60,0,0
33441,-66.6666666666667,4,1,1,60,0,0
33886,-100,4,1,1,70,0,0
46219,-100,4,1,1,5,0,0
46330,-100,4,1,1,70,0,0
47664,-66.6666666666667,4,1,1,80,0,0
47997,-66.6666666666667,4,1,1,5,0,0
48108,-83.3333333333333,4,1,1,80,0,1
51553,-83.3333333333333,4,1,1,5,0,1
51664,-83.3333333333333,4,1,1,80,0,1
55108,-83.3333333333333,4,1,1,5,0,1
55219,-83.3333333333333,4,1,1,80,0,1
58664,-83.3333333333333,4,1,1,5,0,1
58775,-83.3333333333333,4,1,1,80,0,1
60441,-83.3333333333333,4,1,1,5,0,1
60553,-83.3333333333333,4,1,1,80,0,1
60886,-83.3333333333333,4,1,1,5,0,1
60997,-83.3333333333333,4,1,1,80,0,1
61330,-83.3333333333333,4,1,1,5,0,1
61441,-83.3333333333333,4,1,1,80,0,1
61775,-83.3333333333333,4,1,1,5,0,1
61886,-83.3333333333333,4,1,1,80,0,1
62219,-83.3333333333333,4,1,1,80,0,0
62330,-83.3333333333333,4,1,1,80,0,1
67441,-83.3333333333333,4,1,1,5,0,1
67664,-83.3333333333333,4,1,1,80,0,1
68997,-66.6666666666667,4,1,1,80,0,0
69330,-66.6666666666667,4,1,1,5,0,0
69442,-100,4,1,1,60,0,0
76108,-66.6666666666667,4,1,1,60,0,0
76441,-66.6666666666667,4,1,1,5,0,0
76553,-100,4,1,1,60,0,0
81330,-100,4,1,1,5,0,0
81441,-100,4,1,1,60,0,0
81775,-100,4,1,1,5,0,0
81886,-100,4,1,1,60,0,0
83108,-100,4,1,1,5,0,0
83219,-100,4,1,1,60,0,0
83664,-200,4,1,1,60,0,0
84997,-100,4,1,1,60,0,0
90330,-66.6666666666667,4,1,1,60,0,0
90775,-100,4,1,1,70,0,0
103108,-100,4,1,1,5,0,0
103219,-100,4,1,1,70,0,0
104553,-66.6666666666667,4,1,1,80,0,0
104886,-66.6666666666667,4,1,1,5,0,0
104997,-83.3333333333333,4,1,1,80,0,1
108441,-83.3333333333333,4,1,1,5,0,1
108553,-83.3333333333333,4,1,1,80,0,1
111997,-83.3333333333333,4,1,1,5,0,1
112108,-83.3333333333333,4,1,1,80,0,1
117330,-83.3333333333333,4,1,1,5,0,1
117441,-83.3333333333333,4,1,1,80,0,1
118775,-66.6666666666667,4,1,1,80,0,1
119108,-66.6666666666667,4,1,1,5,0,0
119219,-83.3333333333333,4,1,1,80,0,1
122664,-83.3333333333333,4,1,1,5,0,1
122775,-83.3333333333333,4,1,1,80,0,1
126219,-83.3333333333333,4,1,1,5,0,1
126330,-83.3333333333333,4,1,1,80,0,1
131997,-83.3333333333333,4,1,1,5,0,1
132108,-90.9090909090909,4,1,1,80,0,1
132441,-90.9090909090909,4,1,1,5,0,1
132553,-100,4,1,1,80,0,1
132886,-100,4,1,1,5,0,1
132997,-111.111111111111,4,1,1,80,0,1
133330,-111.111111111111,4,1,1,5,0,1
133441,-125,4,1,1,60,0,0
147219,-66.6666666666667,4,1,1,60,0,0
147275,-66.6666666666667,4,1,1,50,0,0
147330,-66.6666666666667,4,1,1,40,0,0
147386,-66.6666666666667,4,1,1,30,0,0
147441,-66.6666666666667,4,1,1,20,0,0
147497,-66.6666666666667,4,1,1,15,0,0
147553,-66.6666666666667,4,1,1,10,0,0
147664,-66.6666666666667,4,1,2,60,0,0
147997,-66.6666666666667,4,1,1,5,0,0
148108,-100,4,1,1,60,0,0
151108,-100,4,1,1,5,0,0
151219,-66.6666666666667,4,1,2,60,0,0
151441,-66.6666666666667,4,1,1,60,0,0
151664,-66.6666666666667,4,1,2,60,0,0
151886,-66.6666666666667,4,1,1,60,0,0
152108,-100,4,1,1,60,0,0
160182,-100,4,1,1,25,0,0
160553,-100,4,1,1,50,0,0
160627,-100,4,1,1,25,0,0
160997,-100,4,1,1,50,0,0
161071,-100,4,1,1,25,0,0
161441,-100,4,1,1,60,0,0
161775,-100,4,1,1,5,0,0
161886,-66.6666666666667,4,1,1,60,0,0
162108,-100,4,1,1,60,0,0
177775,-100,4,1,1,5,0,0
177886,-100,4,1,1,70,0,0
179219,-66.6666666666667,4,1,1,80,0,0
179553,-66.6666666666667,4,1,1,5,0,0
179664,-83.3333333333333,4,1,1,80,0,1
183108,-83.3333333333333,4,1,1,5,0,1
183219,-83.3333333333333,4,1,1,80,0,1
186664,-83.3333333333333,4,1,1,5,0,1
186775,-83.3333333333333,4,1,1,80,0,1
191997,-83.3333333333333,4,1,1,5,0,1
192108,-83.3333333333333,4,1,1,80,0,1
193775,-83.3333333333333,4,1,1,80,0,0
193886,-83.3333333333333,4,1,1,80,0,1
199219,-83.3333333333333,4,1,3,80,0,1
199441,-83.3333333333333,4,1,1,80,0,1
199664,-83.3333333333333,4,1,2,80,0,1
199886,-83.3333333333333,4,1,1,80,0,1
206108,-83.3333333333333,4,1,1,5,0,1
206330,-83.3333333333333,4,1,2,80,0,1
206997,-83.3333333333333,4,1,1,80,0,1
207664,-66.6666666666667,4,1,1,80,0,0
208553,-66.6666666666667,4,1,1,5,0,0

[Colours]
Combo1 : 255,43,149
Combo2 : 237,237,61
Combo3 : 255,149,43
Combo4 : 255,43,43

[HitObjects]
216,92,19219,6,0,P|255:37|288:105,1,157.500006008148,2|0,0:3|2:0,0:0:0:0:
258,152,19664,5,4,0:0:0:0:
266,187,19886,1,0,2:0:0:0:
377,144,20108,1,8,0:0:0:0:
342,152,20330,1,0,2:0:0:0:
385,263,20553,1,0,0:0:0:0:
377,228,20775,1,0,2:0:0:0:
266,271,20997,1,8,0:0:0:0:
301,263,21219,1,0,2:0:0:0:
182,271,21441,5,0,0:0:0:0:
190,306,21664,1,0,2:0:0:0:
97,231,21886,1,8,0:0:0:0:
89,266,22108,1,0,2:0:0:0:
182,190,22330,2,0,L|282:164,1,105,0|0,0:0|2:0,0:0:0:0:
314,62,22775,5,2,0:3:0:0:
182,190,22997,1,8,0:0:0:0:
352,276,23219,5,0,0:0:0:0:
360,241,23441,1,0,2:0:0:0:
276,129,23664,1,8,0:0:0:0:
284,164,23886,1,0,2:0:0:0:
233,276,24108,1,0,0:0:0:0:
241,241,24330,1,0,2:0:0:0:
157,129,24553,1,8,0:0:0:0:
165,164,24775,1,0,2:0:0:0:
155,38,24997,5,0,0:0:0:0:
120,46,25219,1,0,2:0:0:0:
234,81,25441,2,0,B|307:87|293:36|380:38,1,140,8|0,0:0|0:0,0:0:0:0:
464,71,26108,1,0,2:0:0:0:
406,158,26330,1,4,0:3:0:0:
465,245,26553,1,8,0:0:0:0:
462,262,26664,1,8,0:0:0:0:
459,279,26775,5,0,0:0:0:0:
424,289,26997,1,0,2:0:0:0:
298,224,27219,1,8,0:0:0:0:
332,213,27441,1,0,2:0:0:0:
350,331,27664,1,0,0:0:0:0:
340,297,27886,1,0,2:0:0:0:
405,171,28108,1,8,0:0:0:0:
416,205,28330,1,0,2:0:0:0:
299,138,28553,5,0,0:0:0:0:
333,129,28775,1,0,2:0:0:0:
220,88,28997,1,8,0:0:0:0:
186,77,29219,1,0,2:0:0:0:
217,182,29441,1,0,0:0:0:0:
302,44,29664,2,0,L|339:33,1,35,0|0,2:0|2:0,2:0:0:0:
299,138,29886,2,0,L|336:127,1,35,8|0,0:0|2:0,2:0:0:0:
296,232,30108,2,0,L|333:221,1,35,8|0,0:0|2:0,2:0:0:0:
217,182,30330,6,0,P|184:167|138:166,1,70,0|0,0:0|2:0,0:0:0:0:
120,280,30775,2,0,P|152:294|198:295,1,70,8|0,0:0|2:3,0:3:0:0:
295,182,31219,1,0,0:0:0:0:
392,280,31441,1,0,2:0:0:0:
361,164,31664,1,8,0:0:0:0:
325,297,31886,1,0,2:0:0:0:
256,115,32108,6,0,P|231:89|213:45,1,70,0|0,0:0|2:0,0:0:0:0:
297,2,32553,2,0,P|321:27|339:71,1,70,0|0,2:0|2:0,0:0:0:0:
326,192,32997,1,0,0:3:0:0:
291,192,33108,1,0,0:0:0:0:
256,192,33219,1,4,0:3:0:0:
221,192,33330,1,8,0:3:0:0:
186,192,33441,6,0,L|78:192,1,105.000004005432,2|0,0:3|2:0,0:0:0:0:
189,71,33886,6,0,B|256:50|256:50|324:72,1,140,4|0,0:0|0:0,0:0:0:0:
436,108,34553,2,0,L|436:37,1,70,0|0,2:0|0:0,0:0:0:0:
323,71,34997,2,0,L|323:142,1,70,0|0,2:0|0:0,0:0:0:0:
140,108,35441,6,0,L|211:108,1,70,8|0,0:0|0:0,0:0:0:0:
323,141,35886,1,0,2:0:0:0:
237,221,36108,1,0,0:0:0:0:
350,254,36330,2,0,L|421:254,1,70,0|0,2:0|0:0,0:0:0:0:
274,334,36775,1,0,2:0:0:0:
237,221,36997,1,8,0:0:0:0:
205,205,37108,1,0,0:0:0:0:
171,200,37219,1,8,0:3:0:0:
136,205,37330,1,4,0:3:0:0:
105,220,37441,5,4,0:0:0:0:
170,319,37664,1,0,2:0:0:0:
237,221,37886,1,0,0:0:0:0:
170,123,38108,2,0,L|170:53,1,70,0|0,2:0|0:0,0:0:0:0:
283,20,38553,2,0,L|283:90,1,70,0|0,2:0|0:0,0:0:0:0:
466,53,38997,6,0,L|395:53,2,70,8|0|0,0:0|0:0|2:0,0:0:0:0:
430,167,39664,1,0,0:0:0:0:
283,20,39886,2,0,L|213:20,2,70,8|0|0,0:0|0:0|2:0,0:0:0:0:
396,53,40553,1,8,0:0:0:0:
311,135,40775,1,8,0:0:0:0:
396,270,40997,6,0,B|410:288|410:288|288:288,1,140,4|0,0:0|0:0,0:0:0:0:
179,251,41664,2,0,L|179:321,1,70,0|0,2:0|0:0,0:0:0:0:
293,358,42108,2,0,L|293:288,1,70,0|0,2:0|0:0,0:0:0:0:
476,321,42553,6,0,L|405:321,1,70,8|0,0:0|0:0,0:0:0:0:
293,288,42997,1,0,2:0:0:0:
379,208,43219,1,0,0:0:0:0:
266,175,43441,2,0,L|195:175,1,70,0|0,2:0|0:0,0:0:0:0:
342,95,43886,1,0,2:0:0:0:
293,288,44108,1,8,0:0:0:0:
379,208,44330,1,0,2:0:0:0:
229,62,44553,6,0,B|175:37|126:43|126:43|144:73,1,140,4|8,0:0|0:0,0:0:0:0:
309,175,45219,2,0,B|356:140|376:94|376:94|340:95,1,140,4|0,0:0|0:0,0:0:0:0:
171,187,45886,2,0,B|176:244|205:284|205:284,1,105,4|0,0:0|2:0,0:0:0:0:
256,361,46330,5,4,0:3:0:0:
331,229,46553,1,8,0:0:0:0:
180,229,46775,1,8,0:0:0:0:
331,317,46997,1,8,0:0:0:0:
256,186,47219,1,8,0:0:0:0:
180,317,47441,1,8,0:3:0:0:
108,133,47664,6,0,B|172:87|186:141|255:94,1,157.500006008148,8|0,0:0|2:0,0:0:0:0:
286,13,48108,5,6,0:2:0:0:
448,56,48330,1,0,2:0:0:0:
256,93,48553,1,10,0:2:0:0:
418,136,48775,1,0,0:2:0:0:
307,194,48997,2,0,L|225:172,1,83.9999974365235,2|0,2:0|0:0,0:0:0:0:
57,195,49441,1,8,0:0:0:0:
57,195,49553,2,0,P|46:238|58:278,1,83.9999974365235,0|2,2:0|2:0,0:0:0:0:
85,306,49886,5,0,0:0:0:0:
130,235,50108,1,0,2:0:0:0:
215,340,50330,1,10,0:2:0:0:
138,370,50553,1,0,0:0:0:0:
213,256,50775,2,0,P|256:265|287:294,1,83.9999974365235,2|0,2:0|0:0,0:0:0:0:
130,235,51219,2,0,P|174:180|227:172,1,125.999996154785,10|0,0:2|2:0,0:0:0:0:
213,256,51664,5,6,0:2:0:0:
51,213,51886,1,0,2:0:0:0:
226,172,52108,1,10,0:2:0:0:
64,129,52330,1,0,0:2:0:0:
158,66,52553,2,0,L|239:87,1,83.9999974365235,2|0,2:0|0:0,0:0:0:0:
397,233,52997,1,8,0:0:0:0:
397,233,53108,2,0,P|407:189|395:149,1,83.9999974365235,0|2,2:0|2:0,0:0:0:0:
369,122,53441,5,0,0:0:0:0:
324,193,53664,1,0,2:0:0:0:
239,87,53886,1,10,0:2:0:0:
316,61,54108,1,0,0:0:0:0:
241,172,54330,2,0,P|197:162|166:133,1,83.9999974365235,2|0,2:0|0:0,0:0:0:0:
324,193,54775,2,0,P|279:247|226:255,1,125.999996154785,10|0,0:2|2:0,0:0:0:0:
151,220,55219,5,6,0:2:0:0:
108,61,55441,1,0,2:0:0:0:
71,250,55664,1,10,0:2:0:0:
28,88,55886,1,0,0:2:0:0:
130,139,56108,2,0,L|151:220,1,83.9999974365235,0|0,2:0|0:0,0:0:0:0:
294,133,56553,1,8,0:0:0:0:
294,133,56664,2,0,P|337:122|377:134,1,83.9999974365235,0|2,2:0|2:0,0:0:0:0:
405,161,56997,5,0,0:0:0:0:
334,206,57219,1,0,2:0:0:0:
439,291,57441,1,10,0:2:0:0:
469,214,57664,1,0,0:0:0:0:
355,289,57886,2,0,P|364:332|393:363,1,83.9999974365235,2|0,2:0|0:0,0:0:0:0:
334,206,58330,2,0,P|279:250|271:303,1,125.999996154785,10|0,0:2|2:0,0:0:0:0:
355,289,58775,6,0,L|485:323,1,125.999996154785,6|8,0:2|0:0,0:0:0:0:
504,353,59219,1,8,0:0:0:0:
334,206,59441,6,0,L|203:240,1,125.999996154785,6|8,0:2|0:0,0:0:0:0:
185,270,59886,1,4,0:3:0:0:
355,123,60108,6,0,L|485:157,1,125.999996154785,14|0,0:2|2:0,0:0:0:0:
504,187,60553,6,0,P|453:222|463:279,1,125.999996154785,8|0,0:0|2:0,0:0:0:0:
481,315,60997,2,0,P|425:288|380:326,1,125.999996154785,8|0,0:3|2:0,0:0:0:0:
356,361,61441,2,0,P|350:299|296:279,1,125.999996154785,8|0,0:3|2:0,0:0:0:0:
256,298,61886,5,8,0:0:0:0:
256,298,61997,2,0,L|256:202,1,83.9999974365235,0|2,2:0|2:0,0:0:0:0:
224,114,62330,5,12,0:0:0:0:
62,166,62553,1,0,0:0:0:0:
162,29,62775,1,8,0:0:0:0:
162,198,62997,1,0,0:0:0:0:
62,61,63219,2,0,P|12:73|-23:106,1,83.9999974365235,10|0,0:2|0:0,0:0:0:0:
40,247,63664,1,8,0:0:0:0:
40,247,63775,2,0,L|61:165,1,83.9999974365235,0|2,2:0|2:0,0:0:0:0:
162,198,64108,5,8,0:0:0:0:
324,146,64330,1,0,0:0:0:0:
224,283,64553,1,8,0:0:0:0:
224,114,64775,1,0,0:0:0:0:
324,251,64997,2,0,P|374:239|409:206,1,83.9999974365235,10|0,0:2|0:0,0:0:0:0:
162,198,65441,1,8,0:0:0:0:
224,283,65664,1,0,0:0:0:0:
224,114,65886,6,0,P|212:64|179:29,1,83.9999974365235,14|0,0:2|2:0,0:0:0:0:
156,16,66219,1,8,0:0:0:0:
114,16,66330,1,8,0:0:0:0:
324,146,66553,6,0,P|374:134|409:101,1,83.9999974365235,14|0,0:2|2:0,0:0:0:0:
422,78,66886,1,8,0:0:0:0:
422,36,66997,1,0,0:0:0:0:
246,216,67219,6,0,P|231:265|242:312,1,83.9999974365235,14|0,0:2|2:0,0:0:0:0:
456,267,67664,5,2,0:2:0:0:
393,73,67886,1,0,0:0:0:0:
330,267,68108,1,2,0:2:0:0:
494,147,68330,1,0,0:0:0:0:
291,147,68553,1,8,0:0:0:0:
250,137,68664,1,8,3:0:0:0:
216,112,68775,1,4,0:3:0:0:
183,86,68886,1,4,0:3:0:0:
143,76,68997,6,0,P|56:93|51:172,1,157.500006008148,2|0,0:3|2:0,0:0:0:0:
64,217,69441,5,0,0:0:0:0:
199,250,69886,1,8,0:0:0:0:
64,217,70330,1,0,0:0:0:0:
199,250,70775,1,8,0:0:0:0:
64,217,71219,5,0,0:0:0:0:
199,250,71664,1,8,0:0:0:0:
143,183,71886,2,0,L|162:104,1,70,0|0,2:0|0:0,0:0:0:0:
105,49,72330,1,0,2:0:0:0:
256,184,72553,5,2,3:0:0:0:
326,63,72775,1,8,0:0:0:0:
396,184,72997,5,0,0:0:0:0:
326,63,73441,1,8,0:0:0:0:
396,184,73886,1,0,0:0:0:0:
326,63,74330,1,8,0:0:0:0:
396,184,74775,5,0,0:0:0:0:
413,184,74886,1,0,2:0:0:0:
430,184,74997,2,0,L|469:180,1,35,0|0,2:0|2:0,2:0:0:0:
490,263,75219,2,0,L|456:260,1,35,0|0,2:3|2:3,2:0:0:0:
430,342,75441,2,0,L|464:339,1,35,0|0,2:0|2:0,2:0:0:0:
347,371,75664,2,0,L|344:337,1,35,0|0,0:0|2:0,2:0:0:0:
310,255,75886,1,4,0:3:0:0:
289,271,75997,1,8,0:3:0:0:
268,287,76108,6,0,P|229:342|196:274,1,157.500006008148,8|0,0:0|2:0,0:0:0:0:
228,225,76553,5,4,0:0:0:0:
220,190,76775,1,0,2:0:0:0:
109,233,76997,1,8,0:0:0:0:
144,225,77219,1,0,2:0:0:0:
101,114,77441,1,0,0:0:0:0:
109,149,77664,1,0,2:0:0:0:
220,106,77886,1,8,0:0:0:0:
185,114,78108,1,0,2:0:0:0:
306,105,78330,5,0,0:0:0:0:
298,70,78553,1,0,2:0:0:0:
391,145,78775,1,8,0:0:0:0:
399,110,78997,1,0,2:0:0:0:
314,221,79219,5,0,0:0:0:0:
306,186,79441,1,0,2:0:0:0:
136,213,79664,1,8,0:0:0:0:
236,255,79886,1,8,0:0:0:0:
160,108,80108,5,0,0:0:0:0:
152,143,80330,1,0,2:0:0:0:
236,255,80553,1,8,0:0:0:0:
228,220,80775,1,0,2:0:0:0:
279,108,80997,2,0,P|318:136|350:211,1,105,0|0,0:0|2:0,0:0:0:0:
431,188,81441,2,0,P|386:213|355:255,1,105,8|0,0:0|2:0,0:0:0:0:
357,346,81886,5,0,0:0:0:0:
392,338,82108,1,0,2:0:0:0:
278,303,82330,1,8,0:0:0:0:
270,268,82553,1,0,2:0:0:0:
146,341,82775,2,0,P|100:323|50:259,1,105,0|0,0:0|2:0,0:0:0:0:
35,191,83219,2,0,P|32:156|42:123,1,70,0|8,0:0|0:0,0:0:0:0:
56,112,83553,1,8,0:0:0:0:
69,100,83664,6,0,L|107:91,1,35,0|0,2:0|2:0,0:0:0:0:
179,58,84108,2,0,L|186:92,1,35,0|0,2:0|2:0,0:0:0:0:
187,175,84553,2,0,L|221:167,1,35,0|0,2:0|2:0,0:0:0:0:
112,211,84997,1,8,0:0:0:0:
104,176,85219,1,0,2:0:0:0:
213,246,85441,5,0,0:0:0:0:
179,255,85664,1,0,2:0:0:0:
292,296,85886,1,8,0:0:0:0:
326,307,86108,1,0,2:0:0:0:
295,202,86330,1,0,0:0:0:0:
210,340,86553,2,0,L|183:368,1,35,0|0,2:3|2:3,2:3:0:0:
213,246,86775,2,0,L|179:255,1,35,8|0,0:0|2:0,2:0:0:0:
216,152,86997,2,0,L|178:143,1,35,8|0,0:0|2:0,2:0:0:0:
295,202,87219,5,0,0:0:0:0:
392,104,87441,1,0,2:0:0:0:
361,220,87664,1,8,0:0:0:0:
325,87,87886,1,0,2:0:0:0:
217,202,88108,1,0,0:0:0:0:
120,104,88330,1,0,2:0:0:0:
151,220,88553,1,8,0:0:0:0:
187,87,88775,1,0,2:0:0:0:
203,279,88997,6,0,L|240:285,1,35,4|0,0:3|0:0,0:0:0:0:
327,338,89219,2,0,L|292:344,1,35
327,245,89441,2,0,L|364:251,1,35,4|0,0:3|0:0,0:0:0:0:
451,304,89664,2,0,L|416:310,1,35,0|0,2:0|0:0,0:0:0:0:
451,211,89886,5,4,0:3:0:0:
459,177,89997,1,0,0:0:0:0:
455,142,90108,1,0,2:0:0:0:
438,112,90219,1,0,0:0:0:0:
412,89,90330,6,0,P|357:80|304:91,1,105.000004005432,2|0,0:3|2:0,0:0:0:0:
321,313,90775,6,0,B|286:329|254:335|254:335|222:329|188:312,1,140,4|0,0:0|0:0,0:0:0:0:
76,276,91441,2,0,L|76:346,1,70,0|0,2:0|0:0,0:0:0:0:
189,243,91886,2,0,L|189:313,1,70,0|0,2:0|0:0,0:0:0:0:
372,276,92330,6,0,L|301:276,1,70,8|0,0:0|0:0,0:0:0:0:
189,243,92775,1,0,2:0:0:0:
275,163,92997,1,0,0:0:0:0:
162,130,93219,2,0,P|127:136|89:128,1,70,0|0,2:0|0:0,0:0:0:0:
238,50,93664,1,0,2:0:0:0:
275,163,93886,1,8,0:0:0:0:
307,179,93997,1,0,0:0:0:0:
341,184,94108,1,8,0:3:0:0:
376,179,94219,1,4,0:3:0:0:
407,164,94330,5,4,0:0:0:0:
342,65,94553,1,0,2:0:0:0:
275,163,94775,1,0,0:0:0:0:
342,261,94997,2,0,L|342:331,1,70,0|0,2:0|0:0,0:0:0:0:
229,294,95441,2,0,L|229:364,1,70,0|0,2:0|0:0,0:0:0:0:
46,331,95886,6,0,L|117:331,2,70,8|0|0,0:0|0:0|2:0,0:0:0:0:
82,217,96553,1,0,0:0:0:0:
229,364,96775,2,0,L|299:364,2,70,8|0|0,0:0|0:0|2:0,0:0:0:0:
116,331,97441,1,8,0:0:0:0:
201,249,97664,1,8,0:0:0:0:
87,96,97886,6,0,B|121:79|153:73|153:73|185:79|219:96,1,140,4|0,0:0|0:0,0:0:0:0:
332,64,98553,2,0,P|339:98|333:133,1,70,0|0,2:0|0:0,0:0:0:0:
219,26,98997,2,0,L|219:96,1,70,0|0,2:0|0:0,0:0:0:0:
36,63,99441,6,0,L|107:63,1,70,8|0,0:0|0:0,0:0:0:0:
219,96,99886,1,0,2:0:0:0:
133,176,100108,1,0,0:0:0:0:
246,209,100330,2,0,P|281:203|319:211,1,70,0|0,2:0|0:0,0:0:0:0:
170,289,100775,1,0,2:0:0:0:
219,96,100997,1,8,0:0:0:0:
133,176,101219,1,0,2:0:0:0:
283,322,101441,6,0,B|337:347|386:341|386:341|353:319,1,140,4|8,0:0|0:0,0:0:0:0:
203,209,102108,2,0,B|154:243|135:288|135:288|170:271,1,140,12|0,0:0|0:0,0:0:0:0:
341,197,102775,2,0,B|336:140|307:100|307:100,1,105,4|0,0:0|2:0,0:0:0:0:
256,23,103219,5,4,0:3:0:0:
181,155,103441,1,8,0:0:0:0:
332,155,103664,1,8,0:0:0:0:
181,67,103886,1,8,0:0:0:0:
256,198,104108,1,8,0:0:0:0:
332,67,104330,1,8,0:3:0:0:
404,244,104553,6,0,B|340:290|326:236|257:283,1,157.500006008148,8|0,0:0|2:0,0:0:0:0:
185,330,104997,5,6,0:2:0:0:
76,200,105219,1,0,2:0:0:0:
119,362,105441,1,10,0:2:0:0:
142,168,105664,1,0,0:0:0:0:
261,223,105886,2,0,L|179:245,1,83.9999974365235,2|0,2:0|0:0,0:0:0:0:
334,183,106330,1,8,0:0:0:0:
334,183,106441,2,0,P|345:226|333:266,1,83.9999974365235,0|2,2:0|2:0,0:0:0:0:
306,294,106775,5,0,0:0:0:0:
261,223,106997,1,0,2:0:0:0:
176,328,107219,1,8,0:0:0:0:
253,358,107441,1,0,0:0:0:0:
178,244,107664,2,0,P|135:253|104:282,1,83.9999974365235,2|0,2:0|0:0,0:0:0:0:
261,223,108108,2,0,P|243:155|188:176,1,125.999996154785,10|0,0:2|2:0,0:0:0:0:
178,244,108553,5,6,0:2:0:0:
11,273,108775,1,0,2:0:0:0:
172,317,108997,1,10,0:2:0:0:
16,200,109219,1,0,0:0:0:0:
123,124,109441,2,0,L|101:206,1,83.9999974365235,2|0,2:0|0:0,0:0:0:0:
247,289,109886,1,8,0:0:0:0:
247,289,109997,2,0,P|290:300|330:288,1,83.9999974365235,0|2,2:0|2:0,0:0:0:0:
358,261,110330,5,0,0:0:0:0:
287,216,110553,1,0,2:0:0:0:
392,131,110775,1,8,0:0:0:0:
422,208,110997,1,0,0:0:0:0:
308,133,111219,2,0,P|317:90|346:59,1,83.9999974365235,2|0,2:0|0:0,0:0:0:0:
287,216,111664,2,0,P|219:198|240:143,1,125.999996154785,10|0,0:2|2:0,0:0:0:0:
308,133,112108,5,6,0:2:0:0:
417,263,112330,1,0,2:0:0:0:
374,101,112553,1,10,0:2:0:0:
351,295,112775,1,0,0:0:0:0:
232,240,112997,2,0,L|314:218,1,83.9999974365235,0|0,2:0|0:0,0:0:0:0:
159,200,113441,1,8,0:0:0:0:
159,200,113553,2,0,P|148:243|160:283,1,83.9999974365235,0|2,2:0|2:0,0:0:0:0:
187,311,113886,5,0,0:0:0:0:
232,240,114108,1,0,2:0:0:0:
317,345,114330,1,8,0:0:0:0:
240,375,114553,1,0,0:0:0:0:
315,261,114775,2,0,P|358:270|389:299,1,83.9999974365235,2|0,2:0|0:0,0:0:0:0:
232,240,115219,1,10,0:2:0:0:
317,345,115441,1,4,0:3:0:0:
259,131,115664,6,0,P|229:92|276:47,1,125.999996154785,6|8,0:2|0:0,3:0:0:0:
303,16,116108,1,8,0:0:0:0:
158,189,116330,6,0,P|128:229|175:274,1,125.999996154785,6|8,0:2|0:0,3:0:0:0:
202,304,116775,1,4,0:3:0:0:
57,131,116997,6,0,P|27:91|74:46,1,125.999996154785,14|0,0:2|2:0,0:0:0:0:
101,16,117441,5,8,0:0:0:0:
256,81,117664,1,8,0:0:0:0:
103,229,117886,5,8,0:0:0:0:
168,74,118109,1,8,0:0:0:0:
316,227,118330,5,8,0:1:0:0:
161,162,118553,1,4,0:3:0:0:
408,80,118775,6,0,B|332:58|337:114|256:93,1,157.500006008148,8|0,0:0|2:0,0:0:0:0:
185,47,119219,5,6,0:2:0:0:
76,177,119441,1,0,2:0:0:0:
119,15,119664,1,10,0:2:0:0:
142,209,119886,1,0,0:0:0:0:
261,154,120108,2,0,L|179:132,1,83.9999974365235,2|0,2:0|0:0,0:0:0:0:
334,194,120553,1,8,0:0:0:0:
334,194,120664,2,0,P|345:151|333:111,1,83.9999974365235,0|2,2:0|2:0,0:0:0:0:
306,83,120997,5,0,0:0:0:0:
261,154,121219,1,0,2:0:0:0:
176,49,121441,1,8,0:0:0:0:
253,19,121664,1,0,0:0:0:0:
178,133,121886,2,0,P|135:124|104:95,1,83.9999974365235,2|0,2:0|0:0,0:0:0:0:
261,154,122330,2,0,P|243:222|188:201,1,125.999996154785,10|0,0:2|2:0,0:0:0:0:
178,133,122775,5,6,0:2:0:0:
24,17,122997,1,0,2:0:0:0:
183,59,123219,1,10,0:2:0:0:
16,89,123441,1,0,0:0:0:0:
70,208,123664,2,0,L|91:125,1,83.9999974365235,2|0,2:0|0:0,0:0:0:0:
257,99,124108,1,8,0:0:0:0:
257,99,124219,2,0,P|300:88|340:100,1,83.9999974365235,0|2,2:0|2:0,0:0:0:0:
368,127,124553,5,0,0:0:0:0:
297,172,124775,1,0,2:0:0:0:
402,257,124997,1,8,0:0:0:0:
432,180,125219,1,0,0:0:0:0:
318,255,125441,2,0,P|327:298|356:329,1,83.9999974365235,2|0,2:0|0:0,0:0:0:0:
297,172,125886,2,0,P|229:190|250:245,1,125.999996154785,10|0,0:2|2:0,0:0:0:0:
318,255,126330,5,6,0:2:0:0:
427,125,126553,1,0,2:0:0:0:
384,287,126775,1,10,0:2:0:0:
361,93,126997,1,0,0:0:0:0:
242,148,127219,2,0,L|324:170,1,83.9999974365235,0|0,2:0|0:0,0:0:0:0:
321,337,127664,1,8,0:0:0:0:
321,337,127775,2,0,P|278:348|238:336,1,83.9999974365235,0|2,2:0|2:0,0:0:0:0:
210,309,128108,5,0,0:0:0:0:
281,264,128330,1,0,2:0:0:0:
176,179,128553,1,8,0:0:0:0:
146,256,128775,1,0,0:0:0:0:
260,181,128997,2,0,P|251:138|222:107,1,83.9999974365235,2|0,2:0|0:0,0:0:0:0:
281,264,129441,1,10,0:2:0:0:
176,179,129664,1,4,0:3:0:0:
83,305,129886,5,10,0:2:0:0:
19,156,130108,1,0,0:0:0:0:
176,179,130330,1,8,0:0:0:0:
39,287,130553,5,2,0:2:0:0:
58,126,130775,1,8,0:0:0:0:
183,225,130997,1,0,0:0:0:0:
9,250,131220,5,10,0:2:0:0:
106,120,131442,1,0,0:0:0:0:
164,268,131664,6,0,P|220:296|290:284,1,125.999996154785,8|0,0:0|2:0,0:0:0:0:
318,298,132108,2,0,P|346:243|338:180,1,115.50000352478,4|0,0:3|2:0,0:0:0:0:
351,156,132553,2,0,P|301:129|252:130,1,105,4|0,0:3|2:0,0:0:0:0:
223,121,132997,2,0,P|196:171|195:209,1,94.499997116089,8|0,0:0|2:0,0:0:0:0:
256,257,133441,6,0,P|309:272|362:256,1,112,4|0,0:0|2:0,0:0:0:0:
401,195,134108,1,0,0:0:0:0:
434,312,134330,2,0,P|438:284|435:257,2,56,8|0|0,0:0|2:0|2:0,0:0:0:0:
401,195,134997,1,0,0:0:0:0:
401,195,135219,6,0,P|416:140|401:89,1,112,0|0,0:0|2:0,0:0:0:0:
365,25,135886,1,0,0:0:0:0:
272,87,136108,2,0,P|300:91|328:88,2,56,8|0|0,0:0|2:0|2:0,0:0:0:0:
130,116,136997,6,0,P|126:143|129:171,2,56,4|0|0,0:0|2:0|2:0,0:0:0:0:
162,50,137664,1,0,0:0:0:0:
202,172,137886,2,0,P|257:187|308:172,1,112,8|0,0:0|2:0,0:0:0:0:
256,291,138553,1,0,0:0:0:0:
256,291,138775,6,0,L|256:396,2,84
148,263,139664,1,8,0:0:0:0:
148,263,139886,2,0,P|133:208|148:157,1,112,0|0,2:0|0:0,0:0:0:0:
107,51,140553,6,0,B|189:26|189:75|271:51,1,168,4|0,0:0|0:0,0:0:0:0:
392,17,141441,2,0,P|364:14|337:18,2,56,8|0|0,0:0|2:0|2:0,0:0:0:0:
363,126,142108,1,0,0:0:0:0:
363,126,142330,6,0,B|338:208|387:208|363:290,1,168
280,358,143219,2,0,P|308:362|336:359,2,56,8|0|0,0:0|2:0|2:0,0:0:0:0:
186,296,143886,1,0,0:0:0:0:
186,296,144108,6,0,P|189:268|186:240,2,56,0|0|0,0:0|2:0|2:0,0:0:0:0:
155,368,144775,1,0,0:0:0:0:
57,295,144997,2,0,P|85:292|113:296,2,56,8|0|0,0:0|2:0|2:0,0:0:0:0:
187,241,145664,1,0,0:0:0:0:
305,261,145886,5,8,0:0:0:0:
325,143,146108,1,8,0:0:0:0:
207,123,146330,1,8,0:0:0:0:
334,234,146553,5,8,0:0:0:0:
354,116,146775,1,8,0:0:0:0:
236,96,146997,1,4,0:3:0:0:
363,207,147219,6,0,L|365:235,6,26.2500010013581,10|2|2|2|2|2|2,0:2|2:0|2:0|2:0|2:0|2:0|2:0,0:0:0:0:
354,116,147664,6,0,B|273:137|279:79|202:100,1,157.500006008148,10|0,0:3|2:0,0:0:0:0:
131,131,148108,1,10,0:2:0:0:
129,144,148553,1,0,2:0:0:0:
99,237,148775,1,0,2:0:0:0:
262,228,148997,2,0,P|229:216|195:216,1,70,8|2,0:0|2:0,0:0:0:0:
176,262,149330,6,0,L|196:378,1,105,2|0,2:0|2:0,0:0:0:0:
288,337,149886,1,8,0:0:0:0:
262,228,150108,1,2,0:2:0:0:
353,263,150330,2,0,L|421:250,1,70,2|0,2:0|0:0,0:0:0:0:
288,337,150775,2,0,L|392:356,1,105,10|0,0:2|2:0,0:0:0:0:
512,286,151219,6,0,P|517:234|495:187,1,105.000004005432,10|0,0:3|2:0,0:0:0:0:
498,384,151664,6,0,P|475:337|481:285,1,105.000004005432,10|0,0:3|2:0,0:0:0:0:
495,187,152108,6,0,L|399:170,1,70,0|0,2:0|2:0,0:0:0:0:
285,229,152553,2,0,P|318:241|352:241,1,70,8|2,0:0|2:0,0:0:0:0:
234,145,152997,5,4,0:3:0:0:
220,156,153108,1,0,0:0:0:0:
191,249,153330,1,0,0:0:0:0:
174,242,153441,1,4,0:3:0:0:
159,232,153553,1,0,0:0:0:0:
123,140,153775,5,0,0:0:0:0:
107,148,153886,1,4,0:3:0:0:
93,159,153997,2,0,L|89:141,1,17.5
82,172,154108,1,0,0:0:0:0:
72,186,154219,1,4,0:3:0:0:
66,202,154330,1,8,0:0:0:0:
86,298,154553,1,2,2:0:0:0:
191,249,154775,5,6,2:0:0:0:
284,277,154997,1,0,2:0:0:0:
273,112,155219,2,0,L|261:181,1,70,2|0,2:0|2:0,0:0:0:0:
265,194,155886,1,0,2:0:0:0:
339,39,156108,5,2,0:3:0:0:
205,100,156330,2,0,L|288:114,1,70,2|0,2:0|2:0,2:0:0:0:
71,161,156775,2,0,L|154:175,1,70,2|8,2:0|0:0,2:0:0:0:
0,95,157219,2,0,P|-27:158|0:229,1,140,2|2,0:2|2:0,2:0:0:0:
152,270,157886,2,0,P|119:258|84:259,1,70,10|2,0:2|2:0,0:0:0:0:
207,353,158330,5,10,0:2:0:0:
232,212,158553,1,8,0:0:0:0:
261,192,158664,1,8,0:0:0:0:
293,180,158775,1,8,0:0:0:0:
328,180,158886,2,0,L|325:155,1,17.5,8|8,0:0|0:0,0:0:0:0:
362,189,158997,1,8,0:0:0:0:
396,198,159108,1,8,0:0:0:0:
431,197,159219,1,8,0:0:0:0:
463,185,159330,1,8,0:0:0:0:
493,166,159441,6,8,L|507:192,2,17.5
494,88,159664,2,8,L|524:93,2,17.5
433,40,159886,1,8,0:0:0:0:
398,34,159997,1,8,0:0:0:0:
367,50,160108,6,0,P|377:23|377:-5,2,46.6666666666667,10|0|0,0:2|2:0|2:0,0:0:0:0:
268,89,160553,2,0,P|268:60|258:33,2,46.6666666666667,0|0|0,2:0|2:0|2:0,0:0:0:0:
188,159,160997,2,0,P|178:131|161:109,2,46.6666666666667,0|0|0,2:0|2:0|2:0,0:0:0:0:
0,211,161441,6,0,P|41:180|93:178,1,105,4|0,0:3|2:0,2:0:0:0:
171,293,161886,5,2,0:3:0:0:
256,244,162108,1,8,0:0:0:0:
341,293,162330,1,8,0:0:0:0:
341,195,162553,1,8,0:0:0:0:
341,195,162664,1,8,0:0:0:0:
341,195,162775,1,8,0:0:0:0:
256,342,162997,1,4,0:3:0:0:
166,196,163219,6,0,P|159:161|168:124,1,70,8|4,0:0|0:3,0:0:0:0:
256,42,163664,1,6,2:0:0:0:
256,192,175664,12,0,177775,2:0:0:0:
55,229,177886,5,8,0:0:0:0:
72,236,177997,1,8,0:3:0:0:
98,359,178219,5,8,0:3:0:0:
115,352,178330,1,8,0:0:0:0:
132,345,178441,1,4,0:3:0:0:
255,373,178664,1,4,0:3:0:0:
259,356,178775,1,8,0:0:0:0:
261,338,178886,2,0,L|286:335,1,17.5,4|0,0:3|0:0,0:0:0:0:
261,321,178997,1,4,0:3:0:0:
260,303,179108,1,4,0:3:0:0:
256,286,179219,6,0,B|228:212|283:212|256:133,1,157.500006008148,8|0,0:0|2:0,0:0:0:0:
226,53,179664,5,6,0:2:0:0:
64,96,179886,1,0,2:0:0:0:
256,26,180108,1,10,0:2:0:0:
94,69,180330,1,0,0:0:0:0:
256,132,180553,2,0,P|267:175|255:215,1,83.9999974365235,2|0,2:0|2:0,0:0:0:0:
174,69,180997,1,8,0:0:0:0:
174,69,181108,2,0,P|131:58|91:70,1,83.9999974365235,0|2,2:0|2:0,0:0:0:0:
63,97,181441,5,0,0:0:0:0:
134,142,181664,1,0,2:0:0:0:
29,227,181886,1,8,0:0:0:0:
0,150,182108,1,0,0:0:0:0:
113,225,182330,2,0,P|104:268|75:299,1,83.9999974365235,2|0,2:0|0:0,0:0:0:0:
134,142,182775,2,0,B|172:124|172:124|257:143,1,125.999996154785,10|0,0:2|2:0,0:0:0:0:
328,104,183219,5,6,0:2:0:0:
371,266,183441,1,0,2:0:0:0:
301,74,183664,1,10,0:2:0:0:
344,236,183886,1,0,0:0:0:0:
407,74,184108,2,0,P|450:63|490:75,1,83.9999974365235,2|0,2:0|2:0,0:0:0:0:
424,235,184553,1,8,0:0:0:0:
424,235,184664,2,0,P|381:246|341:234,1,83.9999974365235,0|2,2:0|2:0,0:0:0:0:
313,207,184997,5,0,0:0:0:0:
384,162,185219,1,0,2:0:0:0:
279,77,185441,1,8,0:0:0:0:
250,154,185664,1,0,0:0:0:0:
363,79,185886,2,0,P|354:36|325:5,1,83.9999974365235,2|0,2:0|0:0,0:0:0:0:
384,162,186330,2,0,B|422:180|422:180|460:162|460:162|497:180,1,125.999996154785,10|0,0:2|2:0,0:0:0:0:
468,259,186775,5,6,0:2:0:0:
306,216,186997,1,0,2:0:0:0:
498,286,187219,1,10,0:2:0:0:
336,243,187441,1,0,0:0:0:0:
498,180,187664,2,0,P|509:137|497:97,1,83.9999974365235,0|0,2:0|2:0,0:0:0:0:
335,61,188108,1,8,0:0:0:0:
335,61,188219,2,0,P|346:104|334:144,1,83.9999974365235,0|2,2:0|2:0,0:0:0:0:
307,172,188553,5,0,0:0:0:0:
262,101,188775,1,0,2:0:0:0:
177,206,188997,1,8,0:0:0:0:
254,235,189219,1,0,0:0:0:0:
179,122,189441,2,0,P|136:131|105:160,1,83.9999974365235,2|0,2:0|0:0,0:0:0:0:
262,101,189886,1,10,0:2:0:0:
103,246,190108,1,4,0:3:0:0:
312,169,190330,6,0,P|346:107|324:44,1,125.999996154785,6|8,0:2|0:0,0:0:0:0:
301,30,190775,1,8,0:0:0:0:
374,228,190997,6,8,P|410:288|475:301,1,125.999996154785,6|8,0:2|0:0,0:0:0:0:
498,288,191441,1,4,0:3:0:0:
292,252,191664,6,0,P|221:253|177:304,1,125.999996154785,14|0,0:2|2:0,0:0:0:0:
177,331,192107,5,8,0:0:0:0:
292,252,192330,1,8,0:0:0:0:
134,224,192553,5,8,0:0:0:0:
309,161,192775,1,8,0:0:0:0:
91,117,192997,5,8,0:0:0:0:
324,70,193219,1,4,0:3:0:0:
256,298,193441,5,8,0:0:0:0:
256,298,193553,2,0,L|256:202,1,83.9999974365235,0|2,2:0|2:0,0:0:0:0:
288,114,193886,5,12,0:0:0:0:
450,166,194108,1,0,0:0:0:0:
350,29,194330,1,8,0:0:0:0:
350,198,194553,1,0,0:0:0:0:
450,61,194775,2,0,P|500:73|535:106,1,83.9999974365235,10|0,0:2|0:0,0:0:0:0:
472,247,195219,1,8,0:0:0:0:
472,247,195330,2,0,L|451:165,1,83.9999974365235,0|2,2:0|2:0,0:0:0:0:
350,198,195664,5,8,0:0:0:0:
188,146,195886,1,0,0:0:0:0:
288,283,196108,1,8,0:0:0:0:
288,114,196330,1,0,0:0:0:0:
188,251,196553,2,0,P|138:239|103:206,1,83.9999974365235,10|0,0:2|0:0,0:0:0:0:
350,198,196997,1,8,0:0:0:0:
288,283,197219,1,0,0:0:0:0:
288,114,197441,6,0,P|335:94|383:100,1,83.9999974365235,10|0,0:2|0:0,0:0:0:0:
288,283,197886,1,8,0:0:0:0:
188,146,198108,2,0,P|183:94|204:51,1,83.9999974365235,2|8,0:2|0:0,0:0:0:0:
350,198,198553,1,0,0:0:0:0:
188,251,198775,2,0,P|138:239|103:206,1,83.9999974365235,8|0,0:2|0:0,0:0:0:0:
288,114,199219,6,0,L|264:200,1,83.9999974365235,10|0,0:3|2:0,0:0:0:0:
210,332,199664,2,0,L|186:245,1,83.9999974365235,6|0,0:3|2:0,0:0:0:0:
91,135,200108,1,8,3:0:0:0:
174,29,200330,2,0,L|212:51,1,41.9999987182618,4|4,0:3|0:3,0:0:0:0:
247,70,200553,5,8,0:0:0:0:
247,70,200664,2,0,P|290:60|342:77,1,83.9999974365235,0|2,2:0|2:0,0:0:0:0:
423,112,200997,5,12,0:0:0:0:
475,274,201219,1,0,2:0:0:0:
338,174,201441,1,8,0:0:0:0:
507,174,201664,1,0,0:0:0:0:
370,274,201886,2,0,P|382:324|415:359,1,83.9999974365235,2|0,2:0|0:0,0:0:0:0:
507,174,202330,1,8,0:0:0:0:
507,174,202441,2,0,L|425:195,1,83.9999974365235,0|2,2:0|2:0,0:0:0:0:
322,169,202775,5,0,0:0:0:0:
160,221,202997,1,0,2:0:0:0:
260,84,203219,1,8,0:0:0:0:
260,253,203441,1,0,0:0:0:0:
160,116,203664,2,0,P|110:128|75:161,1,83.9999974365235,2|0,2:0|0:0,0:0:0:0:
260,253,204108,1,8,0:0:0:0:
322,169,204330,1,0,0:0:0:0:
160,221,204553,6,0,P|156:272|178:315,1,83.9999974365235,14|0,0:2|2:0,0:0:0:0:
195,334,204886,1,8,0:0:0:0:
231,353,204997,1,8,0:0:0:0:
160,116,205219,6,0,P|117:87|69:84,1,83.9999974365235,6|0,0:2|2:0,0:0:0:0:
44,89,205553,1,8,0:0:0:0:
10,111,205664,1,4,0:3:0:0:
250,168,205886,6,0,P|296:145|322:105,1,83.9999974365235,14|0,0:2|2:0,0:0:0:0:
510,57,206330,5,6,0:3:0:0:
390,222,206553,1,4,0:3:0:0:
390,19,206775,1,6,0:3:0:0:
510,183,206997,1,4,0:3:0:0:
316,120,207219,1,8,0:0:0:0:
510,57,207441,1,4,0:3:0:0:
455,296,207664,6,0,B|256:393|256:199|55:296,1,420.000016021729,2|0,0:3|0:0,0:0:0:0:
