osu file format v14

[General]
AudioFilename: BLACKorWHITE.mp3
AudioLeadIn: 0
PreviewTime: 20718
Countdown: 0
SampleSet: Normal
StackLeniency: 0.7
Mode: 0
LetterboxInBreaks: 0
WidescreenStoryboard: 0

[Editor]
Bookmarks: 61209
DistanceSpacing: 3.5
BeatDivisor: 12
GridSize: 8
TimelineZoom: 2.199999

[Metadata]
Title:BLACK OR WHITE
TitleUnicode:BLACK OR WHITE
Artist:Miyano Mamoru
ArtistUnicode:宮野真守
Creator:Yahuri
Version:YES OR NO
Source:
Tags:how close you are japanese jpop pop
BeatmapID:2153739
BeatmapSetID:1030005

[Difficulty]
HPDrainRate:5
CircleSize:4.2
OverallDifficulty:7
ApproachRate:8.5
SliderMultiplier:2.4
SliderTickRate:1

[Events]
//Background and Video events
0,0,"blackandwhite4edit.png",0,0
//Break Periods
//Storyboard Layer 0 (Background)
//Storyboard Layer 1 (Fail)
//Storyboard Layer 2 (Pass)
//Storyboard Layer 3 (Foreground)
//Storyboard Layer 4 (Overlay)
//Storyboard Sound Samples

[TimingPoints]
613,631.578947368421,4,1,1,50,1,0
613,-125,4,1,1,50,0,0
10718,-125,4,1,1,55,0,0
18297,-111.111111111111,4,1,1,60,0,0
20823,-100,4,1,1,70,0,1
26297,-100,4,1,1,5,0,1
26402,-100,4,1,1,70,0,1
26928,-100,4,1,1,5,0,1
27034,-100,4,1,1,70,0,1
27560,-100,4,1,1,5,0,1
27665,-100,4,1,1,70,0,1
28823,-100,4,1,1,5,0,1
28928,-100,4,1,1,70,0,1
29455,-100,4,1,1,5,0,1
29560,-100,4,1,1,70,0,1
30086,-100,4,1,1,5,0,1
30191,-100,4,1,1,70,0,1
36402,-100,4,1,1,5,0,1
36507,-100,4,1,1,70,0,1
37034,-100,4,1,1,5,0,1
37139,-100,4,1,1,70,0,1
37665,-100,4,1,1,5,0,1
37770,-100,4,1,1,70,0,1
38928,-100,4,1,1,5,0,1
39034,-100,4,1,1,70,0,1
39560,-100,4,1,1,5,0,1
39665,-100,4,1,1,70,0,1
41034,-111.111111111111,4,1,1,50,0,0
47244,-111.111111111111,4,1,1,5,0,0
47349,-111.111111111111,4,1,1,50,0,0
51665,-111.111111111111,4,1,1,5,0,0
51770,-111.111111111111,4,1,1,50,0,0
52297,-111.111111111111,4,1,1,5,0,0
52402,-111.111111111111,4,1,1,50,0,0
57349,-111.111111111111,4,1,1,5,0,0
57455,-111.111111111111,4,1,1,50,0,0
62402,-111.111111111111,4,1,1,5,0,0
62507,-111.111111111111,4,1,1,50,0,0
67455,-111.111111111111,4,1,1,5,0,0
67560,-111.111111111111,4,1,1,50,0,0
72507,-111.111111111111,4,1,1,5,0,0
72612,-111.111111111111,4,1,1,50,0,0
77560,-111.111111111111,4,1,1,5,0,0
77665,-111.111111111111,4,1,1,50,0,0
78191,-111.111111111111,4,1,1,5,0,0
78297,-111.111111111111,4,1,1,50,0,0
81455,-125,4,1,1,50,0,0
91560,-125,4,1,1,55,0,0
97981,-125,4,1,1,5,0,0
98086,-125,4,1,1,55,0,0
99139,-111.111111111111,4,1,1,60,0,0
101349,-200,4,1,1,60,0,0
101560,-200,4,1,1,5,0,0
101665,-100,4,1,1,70,0,1
107139,-100,4,1,1,5,0,1
107244,-100,4,1,1,70,0,1
107770,-100,4,1,1,5,0,1
107876,-100,4,1,1,70,0,1
108402,-100,4,1,1,5,0,1
108507,-100,4,1,1,70,0,1
109665,-100,4,1,1,5,0,1
109770,-100,4,1,1,70,0,1
110297,-100,4,1,1,5,0,1
110402,-100,4,1,1,70,0,1
110928,-100,4,1,1,5,0,1
111034,-100,4,1,1,70,0,1
117244,-100,4,1,1,5,0,1
117349,-100,4,1,1,70,0,1
117876,-100,4,1,1,5,0,1
117981,-100,4,1,1,70,0,1
118507,-100,4,1,1,5,0,1
118612,-100,4,1,1,70,0,1
119770,-100,4,1,1,5,0,1
119876,-100,4,1,1,70,0,1
120402,-100,4,1,1,5,0,1
120507,-100,4,1,1,70,0,1
121876,-111.111111111111,4,1,1,60,0,0
133139,-111.111111111111,4,1,1,5,0,0
133244,-111.111111111111,4,1,1,60,0,0
138191,-111.111111111111,4,1,1,5,0,0
138297,-111.111111111111,4,1,1,60,0,0
138823,-111.111111111111,4,1,1,5,0,0
138928,-111.111111111111,4,1,1,60,0,0
142086,-125,4,1,1,50,0,0
152191,-125,4,1,1,55,0,0
159770,-111.111111111111,4,1,1,60,0,0
161981,-200,4,1,1,60,0,0
162191,-200,4,1,1,5,0,0
162297,-100,4,1,1,70,0,1
167770,-100,4,1,1,5,0,1
167876,-100,4,1,1,70,0,1
168402,-100,4,1,1,5,0,1
168507,-100,4,1,1,70,0,1
169034,-100,4,1,1,5,0,1
169139,-100,4,1,1,70,0,1
170297,-100,4,1,1,5,0,1
170402,-100,4,1,1,70,0,1
170928,-100,4,1,1,5,0,1
171034,-100,4,1,1,70,0,1
171560,-100,4,1,1,5,0,1
171665,-100,4,1,1,70,0,1
177876,-100,4,1,1,5,0,1
177981,-100,4,1,1,70,0,1
178507,-100,4,1,1,5,0,1
178612,-100,4,1,1,70,0,1
179139,-100,4,1,1,5,0,1
179244,-100,4,1,1,70,0,1
181034,-100,4,1,1,5,0,1
181139,-100,4,1,1,70,0,1
182507,-111.111111111111,4,1,1,60,0,0
183034,-111.111111111111,4,1,1,5,0,0
183139,-111.111111111111,4,1,1,60,0,0
189981,-111.111111111111,4,1,1,5,0,0
190086,-111.111111111111,4,1,1,60,0,0
192507,-111.111111111111,4,1,1,5,0,0
192612,-111.111111111111,4,1,1,65,0,0
202718,-125,4,1,1,60,0,0
205244,-125,4,1,1,45,0,0
206402,-125,4,1,1,5,0,0
206507,-125,4,1,1,45,0,0
207770,-125,4,1,1,30,0,0
210297,-125,4,1,1,20,0,0
212823,-125,4,1,1,15,0,0
215349,-125,4,1,1,10,0,0
217876,-125,4,1,1,5,0,0

[Colours]
Combo1 : 223,223,223
Combo2 : 63,63,63

[HitObjects]
256,174,613,5,4,0:0:0:0:
256,174,1139,1,0,2:0:0:0:
256,174,1244,2,0,L|248:254,1,64,0|0,0:0|2:0,0:0:0:0:
182,274,1560,2,0,L|176:210,1,64,0|0,2:0|2:0,0:0:0:0:
145,139,1876,2,0,L|49:130,1,96,0|0,0:0|2:0,0:0:0:0:
177,43,2402,1,0,2:0:0:0:
177,43,2507,2,0,P|234:90|316:90,1,160,0|0,0:0|2:0,0:0:0:0:
356,23,3139,6,0,L|338:218,1,192
339,214,4402,2,0,P|291:211|240:224,1,96,0|0,0:0|2:0,0:0:0:0:
124,318,4928,1,0,2:0:0:0:
124,318,5034,2,0,B|80:228|152:222|107:132,1,192
108,133,6191,5,0,2:0:0:0:
108,133,6297,2,0,P|140:135|171:126,1,64,0|0,0:0|2:0,0:0:0:0:
239,91,6613,2,0,P|271:88|302:97,1,64,0|0,2:0|2:0,0:0:0:0:
328,168,6928,2,0,L|319:263,1,96,0|0,0:0|2:0,0:0:0:0:
453,75,7560,2,0,L|467:236,1,160,0|0,0:0|2:0,0:0:0:0:
474,311,8191,6,0,P|442:275|396:264,1,96,0|0,0:0|2:0,0:0:0:0:
168,227,8823,2,0,P|199:191|245:180,1,96,0|0,0:0|2:0,0:0:0:0:
474,143,9455,2,0,P|442:107|396:96,1,96,0|0,0:0|2:0,0:0:0:0:
168,59,10086,2,0,P|199:23|231:14,1,64,0|0,0:0|2:0,0:0:0:0:
265,75,10402,2,0,P|233:110|202:120,1,64,0|0,2:0|2:0,0:0:0:0:
126,147,10718,6,0,P|138:219|97:290,1,160,0|0,0:0|2:0,0:0:0:0:
149,346,11349,2,0,L|229:338,1,64,0|0,0:0|2:0,0:0:0:0:
267,285,11665,2,0,L|330:290,1,64,0|0,2:0|2:0,0:0:0:0:
402,261,11981,2,0,L|393:164,1,96,0|0,0:0|2:0,0:0:0:0:
299,42,12507,1,0,2:0:0:0:
299,42,12613,2,0,P|251:39|200:52,1,96,0|0,0:0|2:0,0:0:0:0:
56,227,13244,6,0,L|151:235,1,96,0|0,0:0|2:0,0:0:0:0:
360,334,13876,2,0,L|264:342,1,96,0|0,0:0|2:0,0:0:0:0:
323,119,14507,2,0,L|314:214,1,96,0|0,0:0|2:0,0:0:0:0:
462,169,15034,1,0,2:0:0:0:
462,169,15139,2,0,L|456:105,1,64,0|0,0:0|2:0,0:0:0:0:
425,34,15455,2,0,P|394:42|362:40,1,64,0|0,2:0|2:0,0:0:0:0:
291,10,15770,6,0,P|244:21|196:18,1,96,0|0,0:0|2:0,0:0:0:0:
75,113,16297,1,8,2:0:0:0:
75,113,16402,2,0,P|122:110|169:121,1,96,0|0,0:0|2:0,0:0:0:0:
369,238,17034,2,0,L|305:243,1,64,0|0,0:0|2:0,0:0:0:0:
236,277,17349,2,0,L|172:282,1,64,0|0,2:0|2:0,0:0:0:0:
99,257,17665,2,0,L|90:352,1,96,0|0,0:0|2:0,0:0:0:0:
116,115,18297,6,0,P|153:154|203:151,1,107.999996704102,10|0,0:3|2:0,0:0:0:0:
396,115,18823,1,8,2:3:0:0:
396,115,18928,2,0,P|359:154|309:151,1,107.999996704102,10|8,2:3|2:3,0:0:0:0:
256,30,19455,1,8,2:3:0:0:
256,30,19560,2,0,L|256:48,4,17.9999994506836,10|8|8|8|8,2:3|0:3|0:3|0:3|0:3,0:0:0:0:
256,171,19876,2,0,L|256:135,2,35.9999989013672,8|8|8,2:3|2:3|2:3,0:0:0:0:
256,257,20191,2,0,L|256:342,1,71.9999978027344,10|8,2:3|2:3,0:0:0:0:
138,115,20823,6,0,L|256:135,1,120,4|0,0:0|2:0,0:0:0:0:
434,273,21455,2,0,P|397:256|357:255,1,80,8|0,0:0|2:0,0:0:0:0:
257,348,21770,2,0,P|296:346|333:330,1,80,0|0,2:0|2:0,0:0:0:0:
279,270,22086,2,0,P|258:219|260:153,1,120,0|0,0:0|2:0,0:0:0:0:
360,30,22613,1,0,2:0:0:0:
351,22,22718,2,0,L|221:44,1,120,8|0,0:0|2:0,0:0:0:0:
9,132,23349,6,0,P|29:182|28:249,1,120,0|0,0:0|2:0,0:0:0:0:
123,362,23876,1,0,2:0:0:0:
131,371,23981,2,0,L|212:356,1,80,8|0,0:0|2:0,0:0:0:0:
357,329,24297,2,0,L|279:316,1,80,0|0,2:0|2:0,0:0:0:0:
220,259,24613,2,0,L|198:129,1,120,0|0,0:0|2:0,0:0:0:0:
310,25,25139,1,0,2:0:0:0:
319,33,25244,2,0,P|355:49|395:50,1,80,8|0,0:0|2:0,0:0:0:0:
468,17,25560,2,0,L|482:96,1,80,0|0,2:0|2:0,0:0:0:0:
455,192,25876,5,0,0:0:0:0:
224,128,26191,2,0,L|230:167,1,40,0|0,2:0|2:0,0:0:0:0:
148,99,26402,2,0,L|141:138,1,40,0|8,2:0|0:0,0:0:0:0:
223,262,26718,1,0,2:0:0:0:
228,273,26823,2,0,L|221:312,1,40,0|0,2:0|2:0,0:0:0:0:
304,244,27034,2,0,L|310:283,1,40,0|0,2:0|0:0,0:0:0:0:
441,193,27349,1,0,2:0:0:0:
434,183,27455,2,0,L|395:177,1,40,0|0,2:0|2:0,0:0:0:0:
322,126,27665,1,0,2:0:0:0:
314,117,27770,6,0,B|279:126|257:139|257:139|233:134|198:136,1,120,8|0,0:0|2:0,0:0:0:0:
348,44,28297,2,0,P|325:37|293:40,1,40,0|0,2:0|0:0,0:0:0:0:
81,112,28718,6,0,L|120:106,1,40,0|0,2:0|2:0,0:0:0:0:
91,195,28928,2,0,L|52:188,1,40,0|8,2:0|0:0,0:0:0:0:
35,359,29244,1,0,2:0:0:0:
37,347,29349,2,0,L|30:308,1,40,0|0,2:0|2:0,0:0:0:0:
119,337,29560,2,0,L|113:376,1,40,0|0,2:0|0:0,0:0:0:0:
268,343,29876,1,0,2:0:0:0:
266,331,29981,2,0,L|260:292,1,40,0|0,2:0|2:0,0:0:0:0:
278,205,30191,1,0,2:0:0:0:
277,193,30297,6,0,B|268:158|255:136|255:136|260:112|258:77,1,120,8|0,0:0|2:0,0:0:0:0:
109,39,30823,1,0,2:0:0:0:
104,50,30928,2,0,P|88:86|87:126,1,80,0|0,0:0|2:0,0:0:0:0:
150,266,31244,2,0,P|150:227|133:190,1,80,0|0,2:0|2:0,0:0:0:0:
46,323,31560,6,0,P|85:325|122:342,1,80,8|0,0:0|2:0,0:0:0:0:
276,348,31876,2,0,P|236:345|200:330,1,80,0|0,2:0|2:0,0:0:0:0:
254,270,32191,2,0,P|250:230|235:193,1,80,0|0,0:0|2:0,0:0:0:0:
39,23,32718,1,0,2:0:0:0:
37,35,32823,2,0,P|73:51|113:52,1,80,8|0,0:0|2:0,0:0:0:0:
187,20,33139,2,0,L|201:99,1,80,0|0,2:0|2:0,0:0:0:0:
276,125,33455,6,0,P|335:123|391:144,1,120,0|0,0:0|2:0,0:0:0:0:
511,366,34086,2,0,L|430:351,1,80,8|0,0:0|2:0,0:0:0:0:
355,375,34402,1,0,2:0:0:0:
407,229,34613,1,0,2:0:0:0:
399,220,34718,2,0,L|378:102,1,120,0|0,0:0|2:0,0:0:0:0:
236,33,35244,1,0,2:0:0:0:
228,42,35349,2,0,L|149:56,1,80,8|0,0:0|2:0,0:0:0:0:
168,134,35665,2,0,P|167:173|151:210,1,80,0|0,2:0|2:0,0:0:0:0:
78,279,35981,5,0,0:0:0:0:
296,182,36297,2,0,L|335:176,1,40,0|0,2:0|2:0,0:0:0:0:
267,258,36507,2,0,L|306:265,1,40,0|8,2:0|0:0,0:0:0:0:
429,180,36823,1,0,2:0:0:0:
441,178,36928,2,0,L|480:185,1,40,0|0,2:0|2:0,0:0:0:0:
412,102,37139,2,0,L|451:96,1,40,0|0,2:0|0:0,0:0:0:0:
312,24,37455,1,0,2:0:0:0:
310,36,37560,2,0,L|304:75,1,40,0|0,2:0|2:0,0:0:0:0:
246,144,37770,1,0,2:0:0:0:
244,156,37876,6,0,B|253:191|266:213|266:213|261:237|263:272,1,120,8|0,0:0|2:0,0:0:0:0:
171,122,38402,2,0,P|164:145|167:177,1,40,0|8,2:0|0:3,0:0:0:0:
364,292,38823,6,0,L|370:331,1,40,0|0,2:0|2:0,0:0:0:0:
446,360,39034,1,8,2:3:0:0:
448,348,39139,1,8,0:0:0:0:
383,176,39349,1,0,2:0:0:0:
394,171,39455,2,0,L|433:164,1,40,8|0,2:3|2:0,0:0:0:0:
473,93,39665,1,0,2:0:0:0:
462,88,39770,2,0,L|423:81,1,40,0|8,0:0|2:3,0:0:0:0:
293,132,39981,1,8,2:3:0:0:
291,144,40086,1,8,2:3:0:0:
289,156,40191,1,8,2:3:0:0:
287,168,40297,1,8,2:3:0:0:
285,180,40402,6,0,P|285:219|301:256,1,80,8|8,0:0|2:3,0:0:0:0:
156,358,40928,1,0,2:0:0:0:
151,348,41034,6,0,P|128:239|137:132,2,215.999993408203,4|0|0,0:2|2:0|2:0,0:0:0:0:
314,22,42928,5,8,0:0:0:0:
256,154,43139,2,8,P|259:100|245:48,1,107.999996704102,0|0,2:0|2:0,0:0:0:0:
179,19,43560,5,0,0:0:0:0:
32,178,43876,1,0,2:0:0:0:
226,271,44191,2,0,L|117:280,1,107.999996704102,8|0,0:0|2:0,0:0:0:0:
162,142,44718,1,0,2:0:0:0:
162,142,44823,2,0,L|270:151,1,107.999996704102,0|0,0:0|2:0,0:0:0:0:
470,69,45455,2,8,P|456:118|470:205,1,107.999996704102,8|0,0:0|2:0,0:0:0:0:
506,311,45981,1,0,2:0:0:0:
506,311,46086,6,0,L|398:302,1,107.999996704102,0|0,0:0|2:0,0:0:0:0:
246,147,46718,1,8,0:0:0:0:
376,86,46928,2,0,P|322:86|269:76,1,107.999996704102,0|0,2:0|2:0,0:0:0:0:
204,43,47349,1,0,0:0:0:0:
204,43,47981,2,0,L|109:51,1,71.9999978027344,8|0,0:0|2:0,0:0:0:0:
39,244,48507,1,0,2:0:0:0:
39,244,48613,6,0,P|91:239|146:253,1,107.999996704102,0|0,0:0|2:0,0:0:0:0:
354,304,49244,2,0,P|301:308|246:294,1,107.999996704102,8|0,0:0|2:0,0:0:0:0:
170,173,49770,1,0,2:0:0:0:
170,173,49876,2,0,L|179:65,1,107.999996704102,0|0,0:0|2:0,0:0:0:0:
384,131,50507,1,8,0:0:0:0:
324,262,50718,2,0,P|324:208|314:155,1,107.999996704102,0|0,2:0|2:0,0:0:0:0:
280,91,51139,5,0,0:0:0:0:
101,213,51455,2,0,L|195:221,1,71.9999978027344,0|0,2:0|2:0,0:0:0:0:
236,252,51770,1,8,0:0:0:0:
105,312,51981,2,0,P|158:311|211:321,1,107.999996704102,0|0,2:0|2:0,0:0:0:0:
276,356,52402,1,0,0:0:0:0:
276,356,52928,1,0,2:0:0:0:
276,356,53034,2,8,P|311:358|346:349,1,71.9999978027344,8|0,0:0|2:0,0:0:0:0:
454,162,53560,1,0,2:0:0:0:
454,162,53665,6,0,L|346:153,1,107.999996704102,0|0,0:0|2:0,0:0:0:0:
162,38,54297,1,8,0:0:0:0:
28,207,54613,2,0,P|80:194|133:197,1,107.999996704102,0|0,2:0|0:0,0:0:0:0:
303,331,55244,1,0,2:0:0:0:
255,120,55560,2,0,L|246:228,1,107.999996704102,8|0,0:0|2:0,0:0:0:0:
386,193,56086,1,0,2:0:0:0:
386,193,56191,6,0,P|439:189|491:202,1,107.999996704102,0|0,0:0|2:0,0:0:0:0:
330,346,56823,1,8,0:0:0:0:
246,227,57034,2,0,L|255:335,1,107.999996704102,0|0,2:0|2:0,0:0:0:0:
187,359,57455,1,0,0:0:0:0:
187,359,58086,2,0,P|174:306|177:253,1,107.999996704102,8|0,0:0|2:0,0:0:0:0:
386,312,58718,6,0,P|332:308|282:287,1,107.999996704102,0|0,0:0|2:0,0:0:0:0:
402,108,59244,1,8,2:0:0:0:
402,108,59349,2,0,P|381:157|347:198,1,107.999996704102,8|0,0:0|2:0,0:0:0:0:
213,29,59981,2,0,P|254:63|282:109,1,107.999996704102,0|0,0:0|2:0,0:0:0:0:
81,185,60613,2,0,P|126:156|178:143,1,107.999996704102,8|0,0:0|2:0,0:0:0:0:
281,244,61139,1,0,2:0:0:0:
281,244,61244,6,0,L|290:352,1,107.999996704102,4|0,0:2|2:0,0:0:0:0:
447,202,61876,1,8,0:0:0:0:
330,119,62086,2,0,L|438:128,1,107.999996704102,0|0,2:0|2:0,0:0:0:0:
498,89,62507,1,0,0:0:0:0:
498,89,63139,2,0,L|490:-6,1,71.9999978027344,8|0,0:0|2:0,0:0:0:0:
280,60,63665,1,0,2:0:0:0:
280,60,63770,6,0,P|282:113|269:165,1,107.999996704102,0|0,0:0|2:0,0:0:0:0:
140,340,64402,2,0,P|137:286|150:234,1,107.999996704102,8|0,0:0|2:0,0:0:0:0:
364,202,65034,1,0,0:0:0:0:
182,85,65349,1,0,2:0:0:0:
395,52,65665,2,0,L|503:43,1,107.999996704102,8|0,0:0|2:0,0:0:0:0:
444,175,66191,1,0,2:0:0:0:
444,175,66297,5,0,0:0:0:0:
288,26,66613,1,0,2:0:0:0:
108,146,66928,1,8,0:0:0:0:
168,277,67139,2,0,P|168:223|178:170,1,107.999996704102,0|0,2:0|2:0,0:0:0:0:
236,127,67560,1,0,0:0:0:0:
236,127,68191,1,8,0:0:0:0:
366,188,68402,2,0,P|313:197|259:197,1,107.999996704102,0|0,2:0|2:0,0:0:0:0:
188,184,68823,6,0,L|197:292,1,107.999996704102,0|0,0:0|2:0,0:0:0:0:
398,373,69455,2,0,L|407:265,1,107.999996704102,8|0,0:0|2:0,0:0:0:0:
449,127,69981,1,0,2:0:0:0:
449,127,70086,2,0,P|395:127|342:137,1,107.999996704102,0|0,0:0|2:0,0:0:0:0:
196,296,70718,2,0,L|205:188,1,107.999996704102,8|0,0:0|2:0,0:0:0:0:
142,58,71244,1,0,2:0:0:0:
142,58,71349,5,0,0:0:0:0:
356,28,71665,2,0,P|356:82|346:135,1,107.999996704102,0|8,2:0|0:0,0:0:0:0:
285,266,72191,2,0,L|276:158,1,107.999996704102,0|0,2:0|2:0,0:0:0:0:
283,87,72613,1,0,0:0:0:0:
283,87,73244,1,8,0:0:0:0:
151,27,73455,2,0,P|205:27|258:17,1,107.999996704102,0|0,2:0|2:0,0:0:0:0:
329,28,73876,6,0,L|437:37,1,107.999996704102,0|0,0:0|2:0,0:0:0:0:
392,248,74507,2,0,L|383:140,1,107.999996704102,8|0,0:0|2:0,0:0:0:0:
225,288,75139,2,0,P|187:288|136:275,1,71.9999978027344,0|0,0:0|2:0,0:0:0:0:
89,247,75455,1,0,2:0:0:0:
154,41,75770,1,8,0:0:0:0:
215,171,75981,2,0,P|215:117|225:64,1,107.999996704102,0|0,2:0|2:0,0:0:0:0:
291,34,76402,5,0,0:0:0:0:
447,182,76718,2,0,P|393:182|340:192,1,107.999996704102,0|8,2:0|0:0,0:0:0:0:
209,252,77244,2,0,L|317:261,1,107.999996704102,0|0,2:0|2:0,0:0:0:0:
378,298,77665,1,0,0:0:0:0:
489,113,77981,2,0,L|405:98,1,71.9999978027344,0|0,2:0|2:0,0:0:0:0:
353,67,78297,2,0,L|269:81,1,71.9999978027344,8|0,0:0|2:0,0:0:0:0:
217,109,78613,2,0,L|133:94,1,71.9999978027344,0|0,2:0|2:0,0:0:0:0:
80,65,78928,5,0,0:0:0:0:
97,279,79244,2,0,P|96:244|103:208,1,71.9999978027344,0|8,2:0|2:0,0:0:0:0:
170,177,79560,2,0,L|254:163,1,71.9999978027344,8|0,0:0|2:0,0:0:0:0:
312,151,79876,2,0,P|311:204|321:257,1,107.999996704102,0|0,2:0|0:0,0:0:0:0:
384,51,80560,1,0,2:0:0:0:
443,258,80823,2,0,P|443:312|433:365,1,107.999996704102,8|0,0:0|2:0,0:0:0:0:
204,332,81455,5,4,0:0:0:0:
204,332,81981,1,0,2:0:0:0:
204,332,82086,2,0,L|212:252,1,64,0|0,0:0|2:0,0:0:0:0:
278,232,82402,2,0,L|284:296,1,64,0|0,2:0|2:0,0:0:0:0:
325,360,82718,2,0,L|422:351,1,96,0|0,0:0|2:0,0:0:0:0:
493,217,83244,1,0,2:0:0:0:
493,217,83349,2,0,P|466:147|395:106,1,160,0|0,0:0|2:0,0:0:0:0:
325,139,83981,6,0,L|163:124,1,160,0|0,0:0|2:0,0:0:0:0:
101,167,84613,2,0,P|98:199|107:230,1,64,0|0,0:0|2:0,0:0:0:0:
315,326,85139,1,0,2:0:0:0:
315,326,85244,2,0,P|283:323|252:332,1,64,0|0,0:0|2:0,0:0:0:0:
182,298,85560,2,0,L|188:235,1,64,0|0,2:0|2:0,0:0:0:0:
163,161,85876,2,0,P|131:158|100:167,1,64,0|0,0:0|2:0,0:0:0:0:
30,133,86191,2,0,L|38:34,1,96,0|0,2:0|0:0,0:0:0:0:
38,37,87034,5,0,2:0:0:0:
38,37,87139,2,0,P|68:45|100:42,1,64,0|0,0:0|2:0,0:0:0:0:
173,68,87455,2,0,P|203:59|235:62,1,64,0|0,2:0|2:0,0:0:0:0:
305,92,87770,2,0,P|302:139|316:195,1,96,0|0,0:0|2:0,0:0:0:0:
467,357,88402,2,0,P|478:273|463:192,1,160,0|0,0:0|2:0,0:0:0:0:
472,123,89034,6,0,P|440:158|394:170,1,96,0|0,0:0|2:0,0:0:0:0:
164,189,89665,2,0,P|195:153|241:141,1,96,0|0,0:0|2:0,0:0:0:0:
295,366,90297,2,0,L|308:206,1,160,0|0,0:0|2:3,0:0:0:0:
383,225,90928,2,0,L|369:65,1,160,0|0,0:0|2:3,0:0:0:0:
298,97,91560,6,0,P|226:109|155:68,1,160,0|0,0:0|2:0,0:3:0:0:
83,36,92191,2,0,L|76:99,1,64,8|0,0:0|2:0,0:0:0:0:
45,170,92507,2,0,L|50:233,1,64,0|0,2:0|2:0,0:0:0:0:
20,305,92823,1,0,0:0:0:0:
249,325,93139,2,0,P|251:293|243:262,1,64,0|0,2:0|2:0,0:0:0:0:
264,188,93455,2,0,P|312:185|363:198,1,96,8|0,0:0|2:0,0:0:0:0:
500,379,94086,6,0,L|493:315,1,64,0|0,0:0|2:0,0:0:0:0:
461,244,94402,2,0,P|469:213|466:181,1,64,0|0,2:0|2:0,0:0:0:0:
437,109,94718,1,8,0:0:0:0:
291,156,94928,1,0,2:0:0:0:
291,156,95034,2,0,L|228:149,1,64,0|0,2:0|2:0,0:0:0:0:
156,120,95349,2,0,L|61:129,1,96,0|0,0:0|2:0,0:0:0:0:
15,355,95981,2,0,L|79:361,1,64,8|0,0:0|2:0,0:0:0:0:
151,333,96297,2,0,P|149:301|157:270,1,64,0|0,2:0|2:0,0:0:0:0:
229,245,96613,6,0,P|276:256|324:253,1,96,0|0,0:0|2:0,0:0:0:0:
445,158,97139,1,8,2:0:0:0:
445,158,97244,1,8,0:0:0:0:
393,12,97455,2,0,P|395:59|384:106,1,96,0|0,2:0|2:0,0:0:0:0:
333,164,97876,2,0,L|300:161,1,32,0|0,0:0|2:0,0:0:0:0:
209,115,98086,2,0,L|241:112,1,32,0|0,2:0|2:0,0:0:0:0:
141,230,98402,2,0,L|143:262,1,32,0|8,2:0|0:0,0:0:0:0:
254,369,98718,2,0,L|256:337,1,32,0|0,2:0|2:0,0:0:0:0:
396,269,99034,1,0,2:0:0:0:
396,269,99139,6,0,P|359:230|309:233,1,107.999996704102,10|0,0:3|2:0,0:0:0:0:
116,269,99665,1,8,2:3:0:0:
116,269,99770,2,0,P|153:230|203:233,1,107.999996704102,10|8,2:3|2:3,0:0:0:0:
256,354,100297,1,8,2:3:0:0:
256,354,100402,2,0,L|256:336,4,17.9999994506836,10|8|8|8|8,2:3|2:3|2:3|2:3|2:3,0:0:0:0:
256,213,100718,2,0,L|256:249,2,35.9999989013672,8|8|8,2:3|2:3|2:3,0:0:0:0:
256,127,101034,2,0,L|256:42,1,71.9999978027344,10|8,2:3|2:3,0:0:0:0:
256,15,101349,6,0,L|256:64,1,40,0|0,2:0|2:0,0:0:0:0:
178,172,101665,6,0,P|118:169|63:191,1,120,4|0,0:0|2:0,0:0:0:0:
244,350,102297,2,0,L|229:269,1,80,8|0,0:0|2:0,0:0:0:0:
322,199,102613,2,0,L|308:278,1,80,0|0,2:0|2:0,0:0:0:0:
382,309,102928,2,0,P|403:253|401:194,1,120,0|0,0:0|2:0,0:0:0:0:
340,36,103455,1,0,2:0:0:0:
335,47,103560,2,0,L|256:61,1,80,8|0,0:0|2:0,0:0:0:0:
180,39,103876,2,0,P|177:78|161:115,1,80,0|0,2:0|2:0,0:0:0:0:
103,169,104191,6,0,L|125:299,1,120,0|0,0:0|2:0,0:0:0:0:
256,355,104718,1,0,2:0:0:0:
265,363,104823,2,0,L|346:348,1,80,8|0,0:0|2:0,0:0:0:0:
374,274,105139,2,0,L|295:259,1,80,0|0,2:0|2:0,0:0:0:0:
253,190,105455,2,0,P|250:130|272:75,1,120,0|0,0:0|2:0,0:0:0:0:
415,12,105981,1,0,2:0:0:0:
423,21,106086,2,0,P|439:57|440:97,1,80,8|0,0:0|2:0,0:0:0:0:
397,165,106402,2,0,P|413:201|414:241,1,80,0|0,2:0|2:0,0:0:0:0:
365,329,106718,5,0,0:0:0:0:
150,221,107034,2,0,L|111:227,1,40,0|0,2:0|2:0,0:0:0:0:
158,140,107244,2,0,L|119:147,1,40,0|8,2:0|0:0,0:0:0:0:
260,189,107560,1,0,2:0:0:0:
272,191,107665,2,0,L|311:197,1,40,0|0,2:0|2:0,0:0:0:0:
264,110,107876,2,0,L|303:116,1,40,0|0,2:0|0:0,0:0:0:0:
444,169,108191,1,0,2:0:0:0:
449,180,108297,2,0,P|456:203|453:235,1,40,0|0,2:0|2:0,0:0:0:0:
380,267,108507,1,0,2:0:0:0:
373,277,108613,6,0,B|347:299|321:309|321:309|294:309|262:296,1,120,8|0,0:0|2:0,0:0:0:0:
410,346,109139,2,0,P|417:369|414:401,1,40,0|0,2:3|0:3,0:3:0:0:
287,173,109560,6,0,P|288:148|302:119,1,40,0|0,2:0|2:0,0:0:0:0:
206,181,109770,2,0,P|206:161|212:142,1,40,0|8,2:0|0:0,0:0:0:0:
254,285,110086,1,0,2:0:0:0:
258,296,110191,2,0,P|256:320|242:349,1,40,0|0,2:0|2:0,0:0:0:0:
339,288,110402,2,0,P|338:307|332:326,1,40,0|0,2:0|0:0,0:0:0:0:
191,248,110718,1,0,2:0:0:0:
186,259,110823,2,0,L|147:253,1,40,0|0,2:0|2:0,0:0:0:0:
59,193,111034,1,0,2:0:0:0:
70,188,111139,6,0,B|92:162|102:136|102:136|102:109|89:77,1,120,8|0,0:0|2:0,0:0:0:0:
237,35,111665,1,0,2:0:0:0:
246,43,111770,2,0,P|282:59|322:60,1,80,0|0,0:0|2:0,0:0:0:0:
472,9,112086,2,0,L|393:23,1,80,0|0,2:0|2:0,0:0:0:0:
304,138,112402,6,0,P|306:177|323:214,1,80,8|0,0:0|2:0,0:0:0:0:
329,368,112718,2,0,P|326:328|311:292,1,80,0|0,2:0|2:0,0:0:0:0:
247,242,113034,2,0,P|210:256|170:260,1,80,0|0,0:0|2:0,0:0:0:0:
55,47,113560,1,0,2:0:0:0:
46,54,113665,2,0,L|32:133,1,80,8|0,0:0|2:0,0:0:0:0:
68,204,113981,2,0,P|51:240|49:279,1,80,0|0,2:0|2:0,0:0:0:0:
94,346,114297,6,0,L|224:324,1,120,0|0,0:0|2:0,0:0:0:0:
327,115,114928,2,0,L|408:130,1,80,8|0,0:0|2:0,0:0:0:0:
471,176,115244,1,0,2:0:0:0:
425,317,115455,1,0,2:0:0:0:
420,328,115560,2,0,L|399:210,1,120,0|0,0:0|2:0,0:0:0:0:
248,181,116086,1,0,2:0:0:0:
239,189,116191,2,0,L|160:203,1,80,8|0,0:0|2:0,0:0:0:0:
86,171,116507,2,0,P|70:134|68:94,1,80,0|0,2:0|2:0,0:0:0:0:
143,28,116823,5,0,0:0:0:0:
340,163,117139,2,0,L|379:169,1,40,0|0,2:0|2:0,0:0:0:0:
497,160,117349,2,0,L|458:153,1,40,0|8,2:0|0:0,0:0:0:0:
419,299,117665,1,0,2:0:0:0:
408,304,117770,2,0,L|369:298,1,40,0|0,2:0|2:0,0:0:0:0:
251,307,117981,2,0,L|290:314,1,40,0|0,2:0|0:0,0:0:0:0:
267,143,118297,1,0,2:0:0:0:
273,154,118402,2,0,P|280:177|277:209,1,40,0|0,2:0|2:0,0:0:0:0:
194,242,118612,1,0,2:0:0:0:
189,231,118718,6,0,B|158:218|131:218|131:218|105:228|80:251,1,120,8|0,0:0|2:0,0:0:0:0:
200,153,119244,2,0,P|198:128|184:99,1,40,0|8,2:3|0:3,0:3:0:0:
103,336,119665,6,0,P|128:337|157:351,1,40,0|0,2:0|2:0,0:0:0:0:
231,331,119876,1,8,2:3:0:0:
218,328,119981,1,8,0:0:0:0:
328,225,120191,1,0,2:0:0:0:
330,213,120297,2,0,P|329:188|315:159,1,40,8|0,2:3|2:0,0:0:0:0:
334,45,120507,1,8,2:3:0:0:
332,57,120612,2,0,P|331:76|337:95,1,40,0|8,0:0|2:3,0:0:0:0:
247,204,120823,1,8,2:3:0:0:
238,212,120928,1,8,2:3:0:0:
229,221,121034,1,8,2:3:0:0:
219,228,121139,1,8,2:3:0:0:
209,233,121244,6,0,P|225:269|225:309,1,80,8|8,0:0|2:3,0:0:0:0:
109,191,121770,1,0,2:0:0:0:
118,197,121876,6,0,P|213:203|296:188,1,179.999994506836,4|0,0:2|2:0,0:0:0:0:
333,126,122507,2,0,L|321:268,1,143.999995605469,8|0,0:0|2:0,0:0:0:0:
430,364,123139,2,0,L|420:254,1,107.999996704102,0|0,0:0|2:0,0:0:0:0:
457,43,123770,2,0,P|400:53|336:48,1,107.999996704102,8|0,0:0|2:0,0:0:0:0:
209,18,124297,1,0,2:0:0:0:
209,18,124402,6,0,L|199:128,1,107.999996704102,0|0,0:0|2:0,0:0:0:0:
77,304,125034,2,0,P|133:293|197:298,1,107.999996704102,8|0,0:0|2:0,0:0:0:0:
321,353,125560,1,0,2:0:0:0:
321,353,125665,2,0,L|327:273,1,71.9999978027344,0|0,0:0|2:0,0:0:0:0:
363,218,125981,1,0,2:0:0:0:
204,70,126297,2,0,B|309:117|309:20|410:70,1,215.999993408203,8|0,0:0|0:0,2:0:0:0:
411,70,127560,6,0,L|423:212,1,143.999995605469,8|0,0:0|2:0,0:0:0:0:
294,150,128191,2,0,P|283:202|285:256,1,107.999996704102,0|0,0:0|2:0,0:0:0:0:
87,343,128823,2,0,P|97:290|95:236,1,107.999996704102,8|0,0:0|2:0,0:0:0:0:
63,95,129349,1,0,2:0:0:0:
63,95,129455,6,0,L|173:105,1,107.999996704102,0|0,0:0|2:0,0:0:0:0:
372,181,130086,2,0,L|262:191,1,107.999996704102,8|0,0:0|2:0,0:0:0:0:
63,267,130718,2,0,L|173:277,1,107.999996704102,0|0,0:0|2:0,0:0:0:0:
372,353,131349,2,0,L|262:363,1,107.999996704102,8|0,0:0|2:0,0:0:0:0:
63,267,131981,6,0,P|70:229|68:186,1,71.9999978027344,4|0,0:2|2:0,0:0:0:0:
93,127,132297,2,0,P|130:119|173:121,1,71.9999978027344,0|0,2:0|2:0,0:0:0:0:
227,154,132613,1,8,0:0:0:0:
333,72,132823,2,0,L|225:81,1,107.999996704102,0|0,2:0|2:0,0:0:0:0:
164,120,133244,1,0,0:0:0:0:
164,120,133876,2,0,P|164:155|157:191,1,71.9999978027344,8|0,0:0|2:0,0:0:0:0:
18,356,134402,1,0,2:0:0:0:
18,356,134507,6,0,P|74:345|138:350,1,107.999996704102,0|0,0:0|2:0,0:0:0:0:
263,180,135139,2,0,P|252:236|257:300,1,107.999996704102,8|0,0:0|2:0,0:0:0:0:
386,344,135665,1,0,2:0:0:0:
386,344,135770,2,0,L|376:236,1,107.999996704102,0|0,0:0|2:0,0:0:0:0:
444,30,136402,1,8,0:0:0:0:
314,91,136613,2,0,P|370:101|434:96,1,107.999996704102,0|0,2:0|2:0,0:0:0:0:
469,153,137034,5,0,0:0:0:0:
286,267,137349,2,0,L|276:159,1,107.999996704102,0|8,2:0|0:0,0:0:0:0:
143,98,137876,2,0,P|197:100|249:89,1,107.999996704102,0|0,2:0|2:0,0:0:0:0:
283,25,138297,1,0,0:0:0:0:
436,175,138613,2,0,L|356:168,1,71.9999978027344,0|0,2:0|2:0,0:0:0:0:
295,191,138928,2,0,L|301:270,1,71.9999978027344,8|0,0:0|2:0,0:0:0:0:
279,331,139244,2,0,L|199:324,1,71.9999978027344,0|0,2:0|2:0,0:0:0:0:
142,291,139560,5,0,0:0:0:0:
113,151,139876,2,0,P|141:144|186:145,1,71.9999978027344,0|8,2:0|2:0,0:0:0:0:
253,122,140191,2,0,P|259:150|258:195,1,71.9999978027344,8|0,2:1|2:0,0:0:0:0:
282,262,140507,2,0,P|253:268|208:267,1,71.9999978027344,0|0,2:0|2:0,0:0:0:0:
142,291,140823,2,0,P|74:257|96:160,1,179.999994506836,0|0,0:0|2:0,0:0:0:0:
147,123,141455,2,0,B|234:152|228:74|319:108,1,179.999994506836,8|0,0:0|2:0,0:0:0:0:
383,149,142086,5,4,0:0:0:0:
383,149,142613,1,0,2:0:0:0:
383,149,142718,2,0,L|391:229,1,64,0|0,0:0|2:0,0:0:0:0:
368,287,143034,2,0,L|374:351,1,64,0|0,2:0|2:0,0:0:0:0:
303,379,143349,2,0,L|207:370,1,96,0|0,0:0|2:0,0:0:0:0:
73,291,143876,1,0,2:0:0:0:
73,291,143981,2,0,P|113:223|102:145,1,160,0|0,0:0|2:0,0:0:0:0:
35,108,144613,6,0,L|197:123,1,160,0|0,0:0|2:0,0:0:0:0:
264,153,145244,2,0,P|255:183|258:215,1,64,0|0,0:0|2:0,0:0:0:0:
325,251,145560,2,0,P|334:220|331:189,1,64,0|0,2:0|2:0,0:0:0:0:
329,112,145876,1,0,0:0:0:0:
196,35,146086,1,0,2:0:0:0:
196,35,146191,2,0,L|294:43,1,96,0|0,2:0|0:0,0:0:0:0:
438,89,146718,1,0,2:0:0:0:
438,89,146823,2,0,L|446:188,1,96,0|0,2:0|0:0,0:0:0:0:
445,184,147665,5,0,2:0:0:0:
445,184,147770,2,0,P|415:176|383:179,1,64,0|0,0:0|2:0,0:0:0:0:
345,247,148086,2,0,P|375:256|407:252,1,64,0|0,2:0|2:0,0:0:0:0:
484,252,148402,2,0,P|487:299|473:355,1,96,0|0,0:0|2:0,0:0:0:0:
312,183,149034,2,0,L|151:169,1,160,0|0,0:0|2:0,0:0:0:0:
76,162,149665,6,0,P|112:194|123:240,1,96,0|0,0:0|2:0,0:0:0:0:
281,70,150297,2,0,P|245:102|234:148,1,96,0|0,0:0|2:0,0:0:0:0:
374,329,150928,2,0,B|383:251|360:170,1,160,0|0,0:0|2:0,0:0:0:0:
289,202,151560,2,0,P|292:233|284:264,1,64,0|0,0:0|2:0,0:0:0:0:
246,332,151876,2,0,P|214:328|183:336,1,64,0|0,2:0|2:0,0:0:0:0:
91,362,152191,6,0,P|49:295|60:217,1,160,0|0,0:0|2:0,0:0:0:0:
108,156,152823,2,0,L|171:163,1,64,8|0,0:0|2:0,0:0:0:0:
245,140,153139,2,0,L|308:145,1,64,0|0,2:0|2:0,0:0:0:0:
382,121,153455,2,0,L|392:224,1,96,0|0,0:0|2:0,0:0:0:0:
305,345,153981,1,0,2:0:0:0:
305,345,154086,2,0,P|257:348|206:335,1,96,8|0,0:0|2:0,0:0:0:0:
57,164,154718,6,0,P|105:167|156:154,1,96,0|0,0:0|2:0,0:0:0:0:
345,32,155349,1,8,0:0:0:0:
380,181,155560,1,0,2:0:0:0:
380,181,155665,2,0,L|317:174,1,64,0|0,2:0|2:0,0:0:0:0:
245,203,155981,2,0,L|181:209,1,64,0|0,0:0|2:0,0:0:0:0:
109,181,156297,2,0,P|111:149|103:118,1,64,0|0,2:0|2:0,0:0:0:0:
115,41,156613,2,0,L|179:35,1,64,8|0,0:0|2:0,0:0:0:0:
251,63,156928,2,0,P|249:95|257:126,1,64,0|0,2:0|2:0,0:0:0:0:
324,88,157244,6,0,P|371:77|419:80,1,96,0|0,0:0|2:0,0:0:0:0:
489,216,157770,1,8,2:0:0:0:
489,216,157876,1,8,0:0:0:0:
437,362,158086,2,0,P|439:315|428:268,1,96,0|0,2:0|2:0,0:0:0:0:
357,236,158507,2,0,L|354:269,1,32,0|0,0:0|2:0,0:0:0:0:
308,360,158718,2,0,L|305:328,1,32,0|0,2:0|2:0,0:0:0:0:
195,220,159034,2,0,L|197:188,1,32,0|8,2:0|0:0,0:0:0:0:
256,47,159349,2,0,L|258:15,1,32,0|0,2:0|2:0,0:0:0:0:
396,115,159665,1,0,2:0:0:0:
396,115,159770,6,0,P|359:154|309:151,1,107.999996704102,10|0,0:3|2:0,0:0:0:0:
116,115,160297,1,8,2:3:0:0:
116,115,160402,2,0,P|153:154|203:151,1,107.999996704102,10|8,2:3|2:3,0:0:0:0:
256,30,160928,1,8,2:3:0:0:
256,30,161034,2,0,L|256:48,4,17.9999994506836,10|8|8|8|8,2:3|2:3|2:3|2:3|2:3,0:0:0:0:
256,171,161349,2,0,L|256:135,2,35.9999989013672,8|8|8,2:3|2:3|2:3,0:0:0:0:
256,257,161665,2,0,L|256:342,1,71.9999978027344,10|8,2:3|2:3,0:0:0:0:
256,369,161981,6,0,L|256:320,1,40,0|0,2:0|2:0,0:0:0:0:
378,258,162297,6,0,P|399:202|396:143,1,120,4|0,0:0|2:0,0:0:0:0:
159,182,162928,2,0,P|118:185|80:172,1,80,8|0,0:0|2:0,0:0:0:0:
212,117,163244,2,0,P|235:150|243:189,1,80,0|0,2:0|2:0,0:0:0:0:
129,104,163560,2,8,P|160:50|234:35,1,120,0|0,0:0|2:0,0:0:0:0:
355,76,164086,1,0,2:0:0:0:
363,85,164191,2,0,L|349:164,1,80,8|0,0:0|2:0,0:0:0:0:
377,240,164507,2,0,L|298:254,1,80,0|0,2:0|2:0,0:0:0:0:
269,329,164823,6,0,L|139:307,1,120,0|0,0:0|2:0,0:0:0:0:
69,185,165349,1,0,2:0:0:0:
63,175,165455,2,0,P|59:135|71:97,1,80,8|0,0:0|2:0,0:0:0:0:
216,129,165770,2,0,L|137:144,1,80,0|0,2:0|2:0,0:0:0:0:
242,53,166086,2,0,L|372:75,1,120,0|0,0:0|2:0,0:0:0:0:
427,231,166613,1,0,2:0:0:0:
418,223,166718,2,0,P|378:220|340:233,1,80,8|0,0:0|2:0,0:0:0:0:
214,307,167034,2,0,P|252:294|292:297,1,80,0|0,2:0|2:0,0:0:0:0:
365,364,167349,5,0,0:0:0:0:
248,153,167665,2,0,L|242:192,1,40,0|0,2:0|2:0,0:0:0:0:
215,79,167876,2,0,L|254:72,1,40,0|8,2:0|0:0,0:0:0:0:
392,129,168191,1,0,2:0:0:0:
401,137,168297,2,0,P|407:118|408:98,1,40,0|0,2:0|2:0,0:0:0:0:
334,180,168507,2,0,P|347:194|363:205,1,40,0|0,2:0|0:0,0:0:0:0:
493,304,168823,1,0,2:0:0:0:
484,311,168928,2,0,L|445:317,1,40,0|0,2:0|2:0,0:0:0:0:
355,333,169139,1,0,2:0:0:0:
347,342,169244,6,0,B|316:354|289:354|289:354|263:344|238:321,1,120,8|0,0:0|2:0,0:0:0:0:
373,230,169770,2,0,P|380:249|381:269,1,40,0|0,2:3|0:0,0:3:0:0:
241,92,170191,6,0,L|280:98,1,40,0|0,2:0|2:0,0:0:0:0:
399,118,170402,2,0,L|360:111,1,40,0|8,2:0|0:0,0:0:0:0:
251,210,170718,1,0,2:0:0:0:
244,220,170823,2,0,P|236:238|236:258,1,40,0|0,2:0|2:0,0:0:0:0:
216,376,171034,2,0,P|216:356|223:337,1,40,0|0,2:0|0:0,0:0:0:0:
113,239,171349,1,0,2:0:0:0:
104,231,171455,2,0,L|65:225,1,40,0|0,2:0|2:0,0:0:0:0:
32,141,171665,1,0,2:0:0:0:
34,129,171770,6,0,B|43:94|56:72|56:72|51:48|53:13,1,120,8|0,0:0|2:0,0:0:0:0:
144,132,172297,1,0,2:0:0:0:
154,139,172402,2,0,P|193:141|231:128,1,80,0|0,0:0|2:0,0:0:0:0:
367,84,172718,2,0,P|329:71|290:74,1,80,0|0,2:0|2:0,0:0:0:0:
204,223,173034,6,0,L|218:302,1,80,8|0,0:0|2:0,0:0:0:0:
357,277,173349,2,0,L|282:250,1,80,0|0,2:0|2:0,0:0:0:0:
233,382,173665,2,0,L|294:330,1,80,0|0,0:0|2:0,0:0:0:0:
111,193,174191,1,0,2:0:0:0:
103,184,174297,2,0,P|65:200|25:201,1,80,8|0,0:0|2:0,0:0:0:0:
131,105,174613,2,0,P|163:128|184:162,1,80,0|0,2:0|2:0,0:0:0:0:
48,121,174928,6,8,P|58:59|123:20,1,120,0|0,0:0|2:0,0:0:0:0:
223,230,175560,2,0,L|304:215,1,80,8|0,0:0|2:0,0:0:0:0:
367,169,175876,1,0,2:0:0:0:
304,10,176086,1,0,2:0:0:0:
312,19,176191,2,0,P|315:79|295:135,1,120,0|0,0:0|2:0,0:0:0:0:
153,195,176718,1,0,2:0:0:0:
143,189,176823,2,0,L|129:110,1,80,8|0,0:0|2:0,0:0:0:0:
34,244,177139,2,0,P|70:259|110:262,1,80,0|0,2:0|2:0,0:0:0:0:
211,264,177455,5,0,0:0:0:0:
374,89,177770,2,0,L|335:95,1,40,0|0,2:0|2:0,0:0:0:0:
455,83,177981,2,0,L|448:122,1,40,0|8,2:0|0:0,0:0:0:0:
397,284,178297,1,0,2:0:0:0:
407,276,178402,2,0,P|413:295|414:315,1,40,0|0,2:0|2:0,0:0:0:0:
370,207,178613,2,0,P|353:218|339:232,1,40,0|0,2:0|0:0,0:0:0:0:
249,354,178928,1,0,2:0:0:0:
237,356,179034,2,0,L|198:350,1,40,0|0,2:0|2:0,0:0:0:0:
131,281,179244,1,0,2:0:0:0:
136,270,179349,6,0,B|148:239|148:212|148:212|138:186|115:161,1,120,8|0,0:0|2:0,0:0:0:0:
23,313,179876,2,0,P|42:312|61:306,1,40,0|8,2:0|0:3,0:0:0:0:
121,73,180297,6,0,L|82:79,1,40,0|0,2:0|2:0,0:0:0:0:
213,58,180507,1,8,2:3:0:0:
200,60,180613,1,8,0:0:0:0:
308,161,180823,1,0,2:0:0:0:
319,166,180928,2,0,P|319:185|311:204,1,40,8|0,2:3|2:0,0:0:0:0:
328,43,181139,1,8,2:3:0:0:
339,48,181244,2,0,P|339:68|332:87,1,40,0|8,0:0|2:3,0:0:0:0:
407,206,181455,1,8,2:3:0:0:
405,217,181560,1,8,2:3:0:0:
405,230,181665,1,8,2:3:0:0:
403,241,181770,1,8,2:3:0:0:
400,252,181876,6,0,P|397:291|410:329,1,80,8|8,0:0|2:3,0:0:0:0:
252,253,182402,1,0,2:0:0:0:
256,243,182507,6,0,P|262:148|238:68,1,179.999994506836,4|0,0:0|2:0,0:0:0:0:
156,36,183139,6,0,L|73:43,1,71.9999978027344,0|0,0:0|2:0,0:0:0:0:
51,122,183455,2,0,L|122:128,1,71.9999978027344,0|0,2:0|2:0,0:0:0:0:
172,198,183770,2,0,P|159:250|162:303,1,107.999996704102,0|0,0:0|2:0,0:0:0:0:
326,361,184297,1,0,2:0:0:0:
326,361,184402,2,0,P|428:319|454:259,1,179.999994506836,0|0,0:0|2:0,0:0:0:0:
418,180,185034,5,0,0:0:0:0:
418,180,185665,2,0,L|239:195,1,179.999994506836,0|0,0:0|2:0,0:0:0:0:
159,231,186297,2,0,P|227:143|218:78,1,179.999994506836,0|0,0:0|2:0,0:0:0:0:
146,33,186928,2,0,B|230:77|236:7|319:48,1,179.999994506836,0|0,0:0|2:0,0:0:0:0:
394,92,187560,5,0,0:0:0:0:
394,92,188086,1,0,2:0:0:0:
394,92,188191,2,0,P|386:122|390:168,1,71.9999978027344,0|0,0:0|2:0,0:0:0:0:
452,221,188507,2,0,P|460:251|456:297,1,71.9999978027344,0|0,2:0|2:0,0:0:0:0:
414,367,188823,2,0,L|305:357,1,107.999996704102,0|0,0:0|2:0,0:0:0:0:
168,261,189349,1,0,2:0:0:0:
168,261,189455,2,0,P|219:163|200:100,1,179.999994506836,0|0,0:0|2:0,0:0:0:0:
121,134,190086,6,0,P|67:137|15:124,1,107.999996704102,0|0,0:0|2:0,0:0:0:0:
252,17,190718,2,0,L|323:23,1,71.9999978027344,0|0,0:0|2:0,0:0:0:0:
379,90,191034,2,0,L|450:83,1,71.9999978027344,0|0,2:0|2:0,2:0:0:0:
509,145,191349,2,0,L|502:216,1,71.9999978027344,0|0,0:0|2:0,2:0:0:0:
471,298,191665,2,0,P|417:294|365:307,1,107.999996704102,0|0,2:0|0:0,0:0:0:0:
197,342,192191,1,0,2:0:0:0:
197,342,192297,2,0,P|198:306|190:271,1,71.9999978027344,0|0,2:0|2:0,0:0:0:0:
128,212,192613,6,0,L|118:103,1,107.999996704102,0|0,0:0|2:0,0:0:0:0:
277,33,193139,1,0,2:3:0:0:
277,33,193244,2,0,P|279:68|270:103,1,71.9999978027344,8|0,0:0|2:3,0:3:0:0:
235,183,193560,2,0,L|241:254,1,71.9999978027344,0|0,2:0|2:0,2:0:0:0:
279,333,193876,2,0,P|331:319|384:323,1,107.999996704102,0|0,0:0|2:0,0:0:0:0:
507,201,194402,1,0,2:0:0:0:
507,201,194507,2,0,P|471:203|436:194,1,71.9999978027344,8|0,0:0|2:3,0:3:0:0:
357,158,194823,2,0,L|363:86,1,71.9999978027344,0|0,2:0|2:0,2:0:0:0:
308,19,195139,6,0,L|199:28,1,107.999996704102,0|0,0:0|2:0,0:0:0:0:
5,199,195770,1,8,0:0:0:0:
146,299,195981,1,0,2:0:0:0:
146,299,196086,2,0,P|154:264|152:228,1,71.9999978027344,0|0,2:0|2:3,0:3:0:0:
179,145,196402,2,0,P|232:140|284:154,1,107.999996704102,0|0,0:0|2:0,0:0:0:0:
414,379,197034,2,0,P|409:325|423:273,1,107.999996704102,8|0,0:0|2:0,0:0:0:0:
489,23,197665,6,0,L|380:32,1,107.999996704102,0|0,0:0|2:0,0:0:0:0:
209,52,198191,1,8,2:0:0:0:
209,52,198297,2,0,L|215:124,1,71.9999978027344,8|0,0:0|2:0,2:0:0:0:
253,200,198613,2,0,L|325:206,1,71.9999978027344,0|0,2:0|2:0,2:0:0:0:
406,175,198928,2,0,P|459:170|511:184,1,107.999996704102,0|0,0:0|2:0,0:0:0:0:
447,346,199455,1,0,2:0:0:0:
447,346,199560,2,0,L|338:355,1,107.999996704102,8|0,0:0|2:0,0:0:0:0:
116,248,200191,6,0,P|153:209|203:212,1,107.999996704102,10|0,0:3|2:0,0:0:0:0:
396,248,200718,1,8,2:3:0:0:
396,248,200823,2,0,P|359:209|309:212,1,107.999996704102,10|8,2:3|2:3,0:0:0:0:
256,333,201349,1,8,2:3:0:0:
256,333,201455,2,0,L|256:315,4,17.9999994506836,10|8|8|8|8,2:3|2:3|2:3|2:3|2:3,0:0:0:0:
256,192,201770,2,0,L|256:228,2,35.9999989013672,8|8|8,2:3|2:3|2:3,0:0:0:0:
256,106,202086,2,0,L|256:21,1,71.9999978027344,10|8,2:3|2:3,0:0:0:0:
256,192,202718,5,4,0:0:0:0:
256,192,203244,1,0,2:0:0:0:
256,192,203349,2,0,P|288:194|319:185,1,64,8|0,0:0|2:0,0:0:0:0:
384,145,203665,2,0,P|415:142|446:151,1,64,0|0,2:0|2:0,0:0:0:0:
484,219,203981,2,0,L|493:315,1,96,0|0,0:0|2:0,0:0:0:0:
346,360,204507,1,0,2:0:0:0:
346,360,204613,2,0,P|289:313|207:313,1,160,8|0,0:0|2:0,0:0:0:0:
136,347,205244,5,0,0:0:0:0:
290,175,205560,1,0,2:0:0:0:
99,44,205876,1,8,0:0:0:0:
29,181,206086,2,0,P|26:133|39:82,1,96,0|0,2:0|2:0,0:0:0:0:
4,19,206507,1,0,0:0:0:0:
4,19,207139,1,8,0:0:0:0:
152,195,207455,2,0,L|215:200,1,64,0|0,2:0|2:0,0:0:0:0:
281,239,207770,5,0,0:0:0:0:
281,239,208297,1,0,2:0:0:0:
281,239,208402,2,0,L|289:159,1,64,8|0,0:0|2:0,0:0:0:0:
317,137,208718,2,0,L|311:73,1,64,0|0,2:0|2:0,0:0:0:0:
339,34,209034,2,0,P|385:45|433:42,1,96,0|0,0:0|2:0,0:0:0:0:
473,129,209560,1,0,2:0:0:0:
473,129,209665,2,0,B|433:207|491:212|459:283,1,160,8|0,0:0|2:0,0:0:0:0:
423,316,210297,5,0,0:0:0:0:
334,280,210613,1,0,2:0:0:0:
345,204,210928,1,8,0:0:0:0:
396,178,211244,1,0,2:0:0:0:
433,188,211560,1,0,0:0:0:0:
449,200,212191,5,8,0:0:0:0:
449,200,212823,5,4,0:0:0:0:
256,192,212928,12,0,217876,2:0:0:0:
