osu file format v14

[General]
AudioFilename: BLACKorWHITE.mp3
AudioLeadIn: 0
PreviewTime: 20718
Countdown: 0
SampleSet: Normal
StackLeniency: 0.6
Mode: 0
LetterboxInBreaks: 0
WidescreenStoryboard: 1

[Editor]
Bookmarks: 61209
DistanceSpacing: 1.7
BeatDivisor: 12
GridSize: 8
TimelineZoom: 2

[Metadata]
Title:BLACK OR WHITE
TitleUnicode:BLACK OR WHITE
Artist:Miyano Mamoru
ArtistUnicode:宮野真守
Creator:Yahuri
Version:Hard
Source:
Tags:how close you are japanese jpop pop
BeatmapID:2207125
BeatmapSetID:1030005

[Difficulty]
HPDrainRate:4
CircleSize:3.5
OverallDifficulty:6
ApproachRate:7.5
SliderMultiplier:2
SliderTickRate:1

[Events]
//Background and Video events
0,0,"blackandwhite4edit.png",0,0
//Break Periods
//Storyboard Layer 0 (Background)
//Storyboard Layer 1 (Fail)
//Storyboard Layer 2 (Pass)
//Storyboard Layer 3 (Foreground)
//Storyboard Layer 4 (Overlay)
//Storyboard Sound Samples

[TimingPoints]
613,631.578947368421,4,1,1,50,1,0
613,-125,4,1,1,50,0,0
10718,-125,4,1,1,55,0,0
18297,-111.111111111111,4,1,1,60,0,0
20823,-100,4,1,1,70,0,1
41034,-111.111111111111,4,1,1,50,0,0
81455,-125,4,1,1,50,0,0
91560,-125,4,1,1,55,0,0
99139,-111.111111111111,4,1,1,60,0,0
101349,-200,4,1,1,60,0,0
101665,-100,4,1,1,70,0,1
121876,-111.111111111111,4,1,1,60,0,0
142086,-125,4,1,1,50,0,0
152191,-125,4,1,1,55,0,0
159770,-111.111111111111,4,1,1,60,0,0
161981,-200,4,1,1,60,0,0
162297,-100,4,1,1,70,0,1
182507,-111.111111111111,4,1,1,60,0,0
192612,-111.111111111111,4,1,1,65,0,0
202718,-125,4,1,1,60,0,0
205244,-125,4,1,1,45,0,0
207770,-142.857142857143,4,1,1,30,0,0
210297,-166.666666666667,4,1,1,20,0,0
212823,-200,4,1,1,15,0,0
215349,-200,4,1,1,10,0,0
217876,-200,4,1,1,5,0,0

[Colours]
Combo1 : 223,223,223
Combo2 : 63,63,63

[HitObjects]
256,192,613,5,4,0:0:0:0:
433,51,1139,1,0,2:0:0:0:
433,51,1244,2,0,L|433:108,1,53.3333333333333,0|0,0:0|2:0,0:0:0:0:
466,135,1560,2,0,L|466:192,1,53.3333333333333,0|0,2:0|2:0,0:0:0:0:
433,220,1876,2,0,P|396:216|346:222,1,80,0|0,0:0|2:0,0:0:0:0:
270,257,2402,1,0,2:0:0:0:
270,257,2507,2,0,P|191:278|118:257,1,160
256,23,3770,5,0,0:0:0:0:
256,295,4402,2,0,P|252:258|258:208,1,80,0|0,0:0|2:0,0:0:0:0:
295,133,4928,1,0,2:0:0:0:
295,133,5034,2,0,P|374:112|447:133,1,160
368,346,6191,5,0,2:0:0:0:
368,346,6297,2,0,L|368:289,1,53.3333333333333,0|0,0:0|2:0,0:0:0:0:
335,262,6613,2,0,L|335:205,1,53.3333333333333,0|0,2:0|2:0,0:0:0:0:
302,176,6928,2,0,P|265:172|215:178,1,80,0|0,0:0|2:0,0:0:0:0:
92,215,7560,2,0,P|87:175|91:135,1,80,0|0,0:0|2:0,0:0:0:0:
191,44,8191,6,0,L|271:44,1,80,0|0,0:0|2:0,0:0:0:0:
383,121,8823,2,0,L|303:121,1,80,0|0,0:0|2:0,0:0:0:0:
191,199,9455,2,0,L|271:199,1,80,0|0,0:0|2:0,0:0:0:0:
383,276,10086,2,0,L|303:276,1,80,0|0,0:0|2:0,0:0:0:0:
191,353,10718,5,0,0:0:0:0:
156,83,11349,2,0,P|183:77|209:81,1,53.3333333333333,0|0,0:0|2:0,0:0:0:0:
242,112,11665,2,0,P|247:138|241:170,1,53.3333333333333,0|0,2:0|2:0,0:0:0:0:
209,195,11981,2,0,L|129:195,1,80,0|0,0:0|2:0,0:0:0:0:
97,280,12507,1,0,2:0:0:0:
97,280,12613,2,0,L|176:280,1,80,0|0,0:0|2:0,0:0:0:0:
307,322,13244,6,0,P|311:282|308:242,1,80,0|0,0:0|2:0,0:0:0:0:
438,285,13876,2,0,P|442:245|439:205,1,80,0|0,0:0|2:0,0:0:0:0:
342,110,14507,2,0,L|285:110,1,53.3333333333333,0|0,0:0|2:0,0:0:0:0:
257,76,14823,2,0,L|200:76,1,53.3333333333333,0|0,2:0|2:0,0:0:0:0:
169,46,15139,1,0,0:0:0:0:
102,164,15455,1,0,2:0:0:0:
169,281,15770,6,0,P|209:285|249:282,1,80,0|0,0:0|2:0,0:0:0:0:
334,250,16297,1,8,2:2:0:0:
334,250,16402,2,0,P|374:246|414:249,1,80,0|0,0:0|2:0,0:0:0:0:
492,137,17034,2,0,L|435:137,1,53.3333333333333,0|0,0:0|2:0,0:0:0:0:
408,103,17349,2,0,L|328:103,1,80,0|0,2:0|0:0,0:0:0:0:
227,11,17981,1,0,2:0:0:0:
197,144,18297,6,0,L|205:234,1,89.9999972534181,10|0,0:3|2:0,0:0:0:0:
307,234,18823,1,8,2:3:0:0:
307,234,18928,2,0,L|314:144,1,89.9999972534181,10|8,2:3|2:3,0:0:0:0:
256,59,19455,1,8,2:3:0:0:
256,59,19560,2,0,L|256:29,5,29.9999990844727,10|8|8|8|8|8,2:3|2:3|2:3|2:3|2:3|2:3,0:0:0:0:
225,98,20191,2,0,P|257:92|296:105,1,59.9999981689454,10|8,2:3|2:3,0:0:0:0:
255,323,20823,6,0,P|258:273|239:228,1,100,4|0,0:0|2:0,0:0:0:0:
104,123,21455,2,0,L|115:57,1,66.6666666666667,8|0,0:0|2:0,0:0:0:0:
166,32,21770,2,0,L|155:98,1,66.6666666666667,0|0,2:0|2:0,0:0:0:0:
194,138,22086,2,0,L|292:121,1,100,0|0,0:0|2:0,0:0:0:0:
404,96,22613,1,0,2:0:0:0:
404,96,22718,2,0,P|406:145|387:190,1,100,8|0,0:0|2:0,0:0:0:0:
281,325,23349,6,0,L|379:342,1,100,0|0,0:0|2:0,0:0:0:0:
488,299,23876,1,0,2:0:0:0:
488,299,23981,2,0,P|488:267|474:231,1,66.6666666666667,8|0,0:0|2:0,0:0:0:0:
433,197,24297,2,0,P|421:166|421:132,1,66.6666666666667,0|0,2:0|2:0,0:0:0:0:
435,77,24613,2,0,L|337:60,1,100,0|0,0:0|2:0,0:0:0:0:
231,103,25139,1,0,2:0:0:0:
231,103,25244,2,0,L|242:169,1,66.6666666666667,8|0,0:0|2:0,0:0:0:0:
216,219,25560,2,0,P|191:203|174:227,1,66.6666666666667,0|0,2:0|2:0,0:0:0:0:
145,277,25876,5,0,0:0:0:0:
14,168,26191,2,0,P|14:136|28:100,1,66.6666666666667,0|0,2:0|2:0,0:0:0:0:
63,61,26507,1,8,0:0:0:0:
159,121,26718,1,0,2:0:0:0:
159,121,26823,2,0,P|191:121|227:135,1,66.6666666666667,0|0,2:0|2:0,0:0:0:0:
258,177,27139,1,0,0:0:0:0:
368,201,27349,1,0,2:0:0:0:
368,201,27455,2,0,L|357:135,1,66.6666666666667,0|0,2:0|2:0,0:0:0:0:
347,79,27770,6,0,P|397:82|442:63,1,100,8|0,0:0|2:0,0:0:0:0:
486,168,28297,1,0,2:0:0:0:
486,168,28402,1,0,0:0:0:0:
401,315,28718,6,0,P|369:315|333:301,1,66.6666666666667,0|0,2:0|2:0,0:0:0:0:
294,266,29034,1,8,0:0:0:0:
182,285,29244,1,0,2:0:0:0:
182,285,29349,2,0,P|150:285|114:271,1,66.6666666666667,0|0,2:0|2:0,0:0:0:0:
75,236,29665,1,0,0:0:0:0:
131,135,29876,1,0,2:0:0:0:
131,135,29981,2,0,L|197:146,1,66.6666666666667,0|0,2:0|2:0,0:0:0:0:
251,132,30297,6,0,P|248:82|267:37,1,100,8|0,0:0|2:0,0:0:0:0:
360,102,30823,1,0,2:0:0:0:
360,102,30928,2,0,L|426:113,1,66.6666666666667,0|0,0:0|2:0,0:0:0:0:
476,86,31244,1,0,2:0:0:0:
371,213,31560,6,0,P|382:244|382:277,1,66.6666666666667,8|0,0:0|2:0,0:0:0:0:
326,288,31876,2,0,P|314:256|314:223,1,66.6666666666667,0|0,2:0|2:0,0:0:0:0:
268,190,32191,2,0,L|202:201,1,66.6666666666667,0|0,0:0|2:0,0:0:0:0:
63,101,32718,1,0,2:0:0:0:
63,101,32823,2,0,L|52:167,1,66.6666666666667,8|0,0:0|2:0,0:0:0:0:
14,210,33139,2,0,P|-12:225|4:251,1,66.6666666666667,0|0,2:0|2:0,0:0:0:0:
37,298,33455,6,0,L|135:315,1,100,0|0,0:0|2:0,0:0:0:0:
259,198,34086,2,0,P|291:186|324:186,1,66.6666666666667,8|0,0:0|2:0,0:0:0:0:
368,220,34402,1,0,2:0:0:0:
476,254,34613,1,0,2:0:0:0:
476,254,34718,2,0,P|479:204|460:159,1,100,0|0,0:0|2:0,0:0:0:0:
388,70,35244,1,0,2:0:0:0:
388,70,35349,2,0,P|356:82|323:82,1,66.6666666666667,8|0,0:0|2:0,0:0:0:0:
277,48,35665,2,0,P|251:32|235:57,1,66.6666666666667,0|0,2:0|2:0,0:0:0:0:
210,109,35981,5,0,0:0:0:0:
61,192,36297,2,0,P|93:192|129:206,1,66.6666666666667,0|0,2:0|2:0,0:0:0:0:
168,241,36613,1,8,0:0:0:0:
268,292,36823,1,0,2:0:0:0:
268,292,36928,2,0,P|279:260|279:227,1,66.6666666666667,0|0,2:0|2:0,0:0:0:0:
260,174,37244,1,0,0:0:0:0:
364,128,37455,1,0,2:0:0:0:
364,128,37560,2,0,L|430:139,1,66.6666666666667,0|0,2:0|2:0,0:0:0:0:
465,182,37876,6,0,P|468:232|449:277,1,100,8|0,0:0|2:0,0:0:0:0:
399,379,38402,1,0,2:0:0:0:
399,379,38507,1,8,0:3:0:0:
300,241,38823,6,0,P|266:241|235:252,1,66.6666666666667,0|8,2:0|2:3,0:0:0:0:
199,297,39139,1,8,0:0:0:0:
135,210,39349,1,0,2:0:0:0:
135,210,39455,2,0,L|146:144,1,66.6666666666667,8|8,2:3|0:3,0:0:0:0:
180,99,39770,2,0,L|173:60,5,33.3333333333333,0|8|8|8|8|8,0:0|3:0|3:0|3:0|3:0|3:0,0:0:0:0:
223,36,40402,2,0,P|255:42|289:36,1,66.6666666666667,8|8,2:3|2:3,0:0:0:0:
461,145,41034,6,0,B|499:231|434:237|476:318,2,179.999994506836,4|0|0,0:2|2:0|2:0,0:0:0:0:
167,230,42928,1,8,0:0:0:0:
115,142,43139,2,0,L|207:133,1,89.9999972534181,0|0,2:0|2:0,0:0:0:0:
245,103,43560,5,0,0:0:0:0:
365,197,43876,1,0,2:0:0:0:
464,80,44191,2,0,P|475:123|471:167,1,89.9999972534181,8|0,0:0|2:0,0:0:0:0:
421,257,44718,2,0,B|394:242|394:242|298:250,1,119.999996337891,0|0,2:0|2:0,0:0:0:0:
162,194,45455,2,0,L|152:302,1,89.9999972534181,8|0,0:0|2:0,0:0:0:0:
57,315,45981,1,0,2:0:0:0:
57,315,46086,6,0,L|49:225,2,89.9999972534181,0|0|8,0:0|2:0|0:0,0:0:0:0:
138,376,46928,2,0,P|194:357|255:357,1,119.999996337891,0|0,2:0|0:0,0:0:0:0:
255,357,47981,2,0,L|261:282,1,59.9999981689454,8|0,0:0|2:0,0:0:0:0:
303,149,48507,1,0,2:0:0:0:
303,149,48613,6,0,P|347:153|390:141,1,89.9999972534181,0|0,0:0|2:0,0:0:0:0:
493,27,49244,2,0,L|483:135,1,89.9999972534181,8|0,0:0|2:0,0:0:0:0:
464,216,49770,1,0,2:0:0:0:
464,216,49876,2,0,L|474:324,1,89.9999972534181,0|0,0:0|2:0,0:0:0:0:
321,277,50507,1,8,0:0:0:0:
234,331,50718,2,0,P|221:287|225:243,1,89.9999972534181,0|0,2:0|2:0,0:0:0:0:
255,202,51139,5,0,0:0:0:0:
145,94,51455,2,0,L|37:104,1,89.9999972534181,0|8,2:0|0:0,0:0:0:0:
18,197,51981,2,0,L|156:209,1,119.999996337891,0|0,3:0|0:0,0:0:0:0:
137,207,52928,1,0,2:0:0:0:
137,207,53034,2,0,P|135:235|147:278,1,59.9999981689454,8|0,0:0|2:0,0:0:0:0:
268,352,53560,1,0,2:0:0:0:
268,352,53665,6,0,P|312:355|355:342,1,89.9999972534181,0|0,0:0|2:0,0:0:0:0:
451,222,54297,1,8,0:0:0:0:
300,249,54613,2,0,P|255:252|212:239,1,89.9999972534181,0|0,2:0|0:0,0:0:0:0:
117,119,55244,1,0,2:0:0:0:
259,57,55560,2,0,L|268:147,1,89.9999972534181,8|0,0:0|2:0,0:0:0:0:
354,92,56086,1,0,2:0:0:0:
354,92,56191,6,0,P|396:79|441:82,2,89.9999972534181,0|0|8,0:0|2:0|0:0,0:0:0:0:
268,147,57034,2,0,P|212:128|151:128,1,119.999996337891,0|0,2:0|0:0,0:0:0:0:
152,128,58086,2,0,L|143:217,1,89.9999972534181,8|0,0:0|2:0,0:0:0:0:
51,340,58718,6,0,L|42:250,1,89.9999972534181,0|0,0:0|2:0,0:0:0:0:
6,154,59244,1,8,2:0:0:0:
6,154,59349,2,0,P|3:109|16:66,1,89.9999972534181,8|0,0:0|2:0,0:0:0:0:
166,35,59981,2,0,B|237:71|241:23|311:47,1,149.999995422363,0|0,0:0|2:0,0:0:0:0:
351,80,60613,2,0,P|364:122|361:167,1,89.9999972534181,8|0,0:0|2:0,0:0:0:0:
330,264,61139,1,0,2:0:0:0:
330,264,61244,6,0,P|287:250|242:253,2,89.9999972534181,4|0|8,0:2|2:0|0:0,0:0:0:0:
395,342,62086,2,0,P|454:341|511:322,1,119.999996337891,0|0,2:0|0:0,0:0:0:0:
511,321,63139,1,8,0:0:0:0:
438,250,63349,2,0,P|435:205|448:162,1,89.9999972534181,0|0,2:0|2:0,0:0:0:0:
466,114,63770,6,0,L|377:105,1,89.9999972534181,0|0,0:0|2:0,0:0:0:0:
241,178,64402,1,8,0:0:0:0:
101,115,64718,2,0,L|92:204,1,89.9999972534181,0|0,2:0|0:0,0:0:0:0:
188,323,65349,1,0,2:0:0:0:
318,242,65665,2,0,L|407:251,1,89.9999972534181,8|0,0:0|2:0,0:0:0:0:
475,175,66191,1,0,2:0:0:0:
475,175,66297,6,0,P|478:130|465:87,2,89.9999972534181,0|0|8,0:0|2:0|0:0,0:0:0:0:
378,142,67139,2,0,L|240:129,1,119.999996337891,0|0,3:0|0:0,0:0:0:0:
258,131,68191,1,8,0:0:0:0:
219,225,68402,2,0,L|210:314,1,89.9999972534181,0|0,2:0|2:0,0:0:0:0:
162,333,68823,6,0,P|117:336|74:323,1,89.9999972534181,0|0,0:0|2:0,0:0:0:0:
34,174,69455,2,0,P|78:177|121:164,1,89.9999972534181,8|0,0:0|2:0,0:0:0:0:
174,76,69981,2,0,B|201:61|201:61|297:69,1,119.999996337891,0|0,2:0|2:0,0:0:0:0:
439,36,70718,2,0,L|448:125,1,89.9999972534181,8|0,0:0|2:0,0:0:0:0:
462,226,71244,1,0,2:0:0:0:
462,226,71349,6,0,P|417:223|374:237,2,89.9999972534181,0|0|8,0:0|2:0|0:0,0:0:0:0:
495,323,72191,2,0,P|438:342|378:343,1,119.999996337891,0|0,2:0|0:0,0:0:0:0:
378,343,73244,1,8,0:0:0:0:
289,291,73455,2,0,L|200:300,1,89.9999972534181,0|0,2:0|2:0,0:0:0:0:
155,273,73876,5,0,0:0:0:0:
220,135,74191,2,0,P|177:121|132:124,2,89.9999972534181,0|8|0,2:0|0:0|2:0,0:0:0:0:
358,202,75139,2,0,P|386:204|429:192,1,59.9999981689454,0|0,0:0|2:0,0:0:0:0:
462,173,75455,1,0,2:0:0:0:
498,321,75770,2,0,P|468:314|438:316,1,59.9999981689454,8|0,0:0|2:0,0:0:0:0:
289,351,76297,1,0,2:0:0:0:
289,351,76402,6,0,P|292:306|278:263,2,89.9999972534181,0|0|8,0:0|2:0|0:0,0:0:0:0:
192,319,77244,2,0,L|54:307,1,119.999996337891,0|0,3:0|0:0,0:0:0:0:
10,168,77981,1,0,2:0:0:0:
114,55,78297,2,0,L|203:64,1,89.9999972534181,8|0,0:0|2:0,0:0:0:0:
310,173,78928,5,0,0:0:0:0:
452,116,79244,2,0,L|458:191,1,59.9999981689454,0|8,2:0|2:0,0:0:0:0:
436,222,79560,1,8,0:0:0:0:
463,373,79876,2,0,P|420:359|375:362,1,89.9999972534181,0|0,2:0|0:0,0:0:0:0:
220,274,80560,1,0,2:0:0:0:
322,198,80823,2,0,P|324:153|311:110,1,89.9999972534181,8|0,0:0|2:0,0:0:0:0:
190,48,81455,5,4,0:0:0:0:
22,200,81981,1,0,2:0:0:0:
22,200,82086,2,0,L|79:200,1,53.3333333333333,0|0,0:0|2:0,0:0:0:0:
106,167,82402,2,0,L|163:167,1,53.3333333333333,0|0,2:0|2:0,0:0:0:0:
191,200,82718,2,0,P|187:237|193:287,1,80,0|0,0:0|2:0,0:0:0:0:
235,358,83244,1,0,2:0:0:0:
235,358,83349,2,0,P|314:379|387:358,1,160
502,111,84613,6,0,P|475:105|449:109,1,53.3333333333333,0|0,0:0|2:0,0:0:0:0:
330,174,85139,1,0,2:0:0:0:
330,174,85244,2,0,L|273:174,1,53.3333333333333,0|0,0:0|2:0,0:0:0:0:
243,205,85560,2,0,P|216:211|190:207,1,53.3333333333333,0|0,2:0|2:0,0:0:0:0:
159,174,85876,2,0,L|159:117,1,53.3333333333333,0|0,0:0|2:0,0:0:0:0:
127,89,86191,2,0,P|90:85|40:91,1,80,0|0,2:0|0:0,0:0:0:0:
10,313,87034,5,0,2:0:0:0:
10,313,87139,2,0,P|37:319|63:315,1,53.3333333333333,0|0,0:0|2:0,0:0:0:0:
96,285,87455,2,0,L|96:228,1,53.3333333333333,0|0,2:0|2:0,0:0:0:0:
128,199,87770,2,0,L|208:199,1,80,0|0,0:0|2:0,0:0:0:0:
313,286,88402,2,0,L|393:286,1,80,0|0,0:0|2:0,0:0:0:0:
502,205,89034,6,0,P|506:168|500:118,1,80,0|0,0:0|2:0,0:0:0:0:
371,87,89665,2,0,P|375:126|371:166,1,80,0|0,0:0|2:0,0:0:0:0:
240,127,90297,2,0,P|244:87|240:48,1,80,0|0,0:0|2:0,0:0:0:0:
109,9,90928,2,0,P|113:48|109:88,1,80,0|0,0:0|2:0,0:0:0:0:
77,221,91560,5,0,0:0:0:0:
320,341,92191,2,0,P|347:347|373:343,1,53.3333333333333,8|0,0:0|2:0,0:0:0:0:
403,310,92507,2,0,L|403:256,1,53.3333333333333,0|0,2:0|2:0,0:0:0:0:
436,225,92823,2,0,P|440:185|436:146,1,80,0|0,0:0|2:0,0:0:0:0:
400,61,93349,1,0,2:0:0:0:
400,61,93455,2,0,L|321:61,1,80,8|0,0:0|2:0,0:0:0:0:
204,133,94086,6,0,P|208:173|205:213,1,80,0|0,0:0|2:0,0:0:0:0:
161,342,94718,2,0,L|107:342,1,53.3333333333333,8|0,0:0|2:0,0:0:0:0:
77,307,95034,2,0,P|83:280|79:254,1,53.3333333333333,0|0,2:0|2:0,0:0:0:0:
47,222,95349,2,0,L|47:143,1,80,0|0,0:0|2:0,0:0:0:0:
177,183,95981,2,0,L|177:103,1,80,8|0,0:0|2:0,0:0:0:0:
304,149,96613,6,0,P|344:153|384:150,1,80,0|0,0:0|2:0,0:0:0:0:
469,120,97139,1,8,2:0:0:0:
469,120,97244,1,8,0:0:0:0:
452,209,97455,2,0,L|452:289,1,80,0|0,2:0|2:0,0:0:0:0:
433,330,97876,1,0,0:0:0:0:
352,290,98086,2,0,P|312:286|272:289,1,80,0|0,2:0|2:0,0:0:0:0:
236,316,98507,2,0,L|179:316,1,53.3333333333333,8|0,0:0|2:0,0:0:0:0:
197,184,99034,1,0,2:0:0:0:
197,184,99139,6,0,P|190:143|206:97,1,89.9999972534181,10|0,0:3|2:0,0:0:0:0:
306,98,99665,1,8,2:3:0:0:
306,98,99770,2,0,P|321:139|315:184,1,89.9999972534181,10|8,2:3|2:3,0:0:0:0:
256,269,100297,1,8,2:3:0:0:
256,269,100402,2,0,L|256:299,5,29.9999990844727,10|8|8|8|8|8,2:3|2:3|2:3|2:3|2:3|2:3,0:0:0:0:
224,229,101034,2,0,P|253:235|282:229,1,59.9999981689454,10|8,2:3|2:3,0:0:0:0:
413,44,101665,6,0,P|363:41|318:60,1,100,4|0,0:0|2:0,0:0:0:0:
156,114,102297,2,0,L|90:103,1,66.6666666666667,8|0,0:0|2:0,0:0:0:0:
50,143,102613,2,0,L|116:154,1,66.6666666666667,0|0,2:0|2:0,0:0:0:0:
139,206,102928,2,0,P|137:255|156:300,1,100,0|0,0:0|2:0,0:0:0:0:
269,282,103455,1,0,2:0:0:0:
269,282,103560,2,0,L|335:293,1,66.6666666666667,8|0,0:0|2:0,0:0:0:0:
375,332,103876,2,0,P|391:357|416:341,1,66.6666666666667,0|0,2:0|2:0,0:0:0:0:
469,322,104191,6,0,L|486:224,1,100,0|0,0:0|2:0,0:0:0:0:
419,138,104718,1,0,2:0:0:0:
419,138,104823,2,0,P|387:149|354:149,1,66.6666666666667,8|0,0:0|2:0,0:0:0:0:
307,117,105139,2,0,P|306:83|294:52,1,66.6666666666667,0|0,2:0|2:0,0:0:0:0:
246,22,105455,2,0,L|148:39,1,100,0|0,0:0|2:0,0:0:0:0:
68,120,105981,1,0,2:0:0:0:
68,120,106086,2,0,P|52:145|77:161,1,66.6666666666667,8|0,0:0|2:0,0:0:0:0:
125,192,106402,2,0,P|150:207|134:233,1,66.6666666666667,0|0,2:0|2:0,0:0:0:0:
103,281,106718,5,0,0:0:0:0:
271,254,107034,2,0,L|337:243,1,66.6666666666667,0|0,2:0|2:0,0:0:0:0:
381,207,107349,1,8,0:0:0:0:
291,137,107560,1,0,2:0:0:0:
291,137,107665,2,0,L|225:126,1,66.6666666666667,0|0,2:0|2:0,0:0:0:0:
183,86,107981,1,0,0:0:0:0:
276,21,108191,1,0,2:0:0:0:
276,21,108297,2,0,L|342:10,1,66.6666666666667,0|0,2:0|2:0,0:0:0:0:
392,35,108613,6,0,P|411:80|409:129,1,100,8|0,0:0|2:0,0:0:0:0:
357,232,109139,1,0,2:0:0:0:
357,232,109244,1,0,0:0:0:0:
224,126,109560,6,0,L|158:137,1,66.6666666666667,0|0,2:0|2:0,0:0:0:0:
114,173,109876,1,8,0:0:0:0:
91,284,110086,1,0,2:0:0:0:
91,284,110191,2,0,L|157:295,1,66.6666666666667,0|0,2:0|2:0,0:0:0:0:
199,335,110507,1,0,0:0:0:0:
273,249,110718,1,0,2:0:0:0:
273,249,110823,2,0,P|304:238|337:237,1,66.6666666666667,0|0,2:0|2:0,0:0:0:0:
382,273,111139,6,0,P|379:323|398:368,1,100,8|0,0:0|2:0,0:0:0:0:
491,303,111665,1,0,2:0:0:0:
491,303,111770,2,0,P|501:271|502:238,1,66.6666666666667,0|0,0:0|2:0,0:0:0:0:
484,183,112086,1,0,2:0:0:0:
381,47,112402,6,0,L|370:113,1,66.6666666666667,8|0,0:0|2:0,0:0:0:0:
318,136,112718,2,0,L|252:125,1,66.6666666666667,0|0,2:0|2:0,0:0:0:0:
205,157,113034,2,0,P|195:188|194:221,1,66.6666666666667,0|0,0:0|2:0,0:0:0:0:
79,347,113560,1,0,2:0:0:0:
79,347,113665,2,0,P|78:313|68:282,1,66.6666666666667,8|0,0:0|2:0,0:0:0:0:
34,235,113981,2,0,P|8:220|24:194,1,66.6666666666667,0|0,2:0|2:0,0:0:0:0:
66,156,114297,6,0,L|83:58,1,100,0|0,0:0|2:0,0:0:0:0:
243,115,114928,2,0,L|309:104,1,66.6666666666667,8|0,0:0|2:0,0:0:0:0:
363,120,115244,1,0,2:0:0:0:
472,89,115455,1,0,2:0:0:0:
472,89,115560,2,0,P|475:139|456:184,1,100,0|0,0:0|2:0,0:0:0:0:
406,286,116086,1,0,2:0:0:0:
406,286,116191,2,0,P|374:274|341:274,1,66.6666666666667,8|0,0:0|2:0,0:0:0:0:
295,307,116507,2,0,P|278:332|253:316,1,66.6666666666667,0|0,2:0|2:0,0:0:0:0:
204,286,116823,5,0,0:0:0:0:
234,118,117139,2,0,L|223:52,1,66.6666666666667,0|0,2:0|2:0,0:0:0:0:
184,10,117455,1,8,0:0:0:0:
101,87,117665,1,0,2:0:0:0:
101,87,117770,2,0,L|90:153,1,66.6666666666667,0|0,2:0|2:0,0:0:0:0:
54,197,118086,1,0,0:0:0:0:
76,308,118297,1,0,2:0:0:0:
76,308,118402,2,0,L|142:297,1,66.6666666666667,0|0,2:0|2:0,0:0:0:0:
192,321,118718,6,0,P|189:272|208:226,1,100,8|0,0:0|2:0,0:0:0:0:
296,154,119244,1,0,2:0:0:0:
296,154,119349,1,8,0:3:0:0:
361,311,119665,6,0,P|395:311|426:300,1,66.6666666666667,0|8,2:0|2:3,0:0:0:0:
467,262,119981,1,8,0:0:0:0:
377,210,120191,1,0,2:0:0:0:
377,210,120297,2,0,L|366:144,1,66.6666666666667,8|8,2:3|0:3,0:0:0:0:
332,99,120612,2,0,L|335:62,5,33.3333333333333,0|8|8|8|8|8,0:0|3:0|3:0|3:0|3:0|3:0,0:0:0:0:
289,36,121244,2,0,P|257:42|223:36,1,66.6666666666667,8|8,2:3|2:3,0:0:0:0:
48,141,121876,6,0,B|80:211|31:215|61:287,1,149.999995422363,4|0,0:2|2:0,0:3:0:0:
94,325,122507,2,0,P|160:303|240:306,1,149.999995422363,8|0,0:0|2:0,0:0:0:0:
277,340,123139,2,0,L|366:331,1,89.9999972534181,0|0,0:0|2:0,0:0:0:0:
470,218,123770,2,0,P|459:175|463:131,1,89.9999972534181,8|0,0:0|2:0,0:0:0:0:
494,32,124297,6,0,B|467:47|467:47|371:39,1,119.999996337891,0|0,2:0|2:0,0:0:0:0:
228,72,125034,2,0,P|232:116|221:159,1,89.9999972534181,8|0,0:0|2:0,0:0:0:0:
156,239,125560,2,0,B|141:266|141:266|149:362,1,119.999996337891,0|0,2:0|2:0,0:0:0:0:
291,299,126297,2,0,B|382:276|376:341|463:314,1,179.999994506836,8|0,0:0|0:0,0:0:0:0:
465,313,127560,6,0,L|453:175,1,119.999996337891,8|0,0:0|2:0,0:0:0:0:
368,140,128191,2,0,L|359:229,1,89.9999972534181,0|0,0:0|2:0,0:0:0:0:
255,343,128823,2,0,P|211:347|168:336,1,89.9999972534181,8|0,0:0|2:0,0:0:0:0:
72,297,129349,6,0,B|87:270|87:270|79:174,1,119.999996337891,0|0,2:0|2:0,0:0:0:0:
176,64,130086,2,0,L|265:73,1,89.9999972534181,8|0,0:0|2:0,0:0:0:0:
388,165,130718,2,0,L|299:174,1,89.9999972534181,0|0,0:0|2:0,0:0:0:0:
176,266,131349,2,0,L|265:275,1,89.9999972534181,8|0,0:0|2:0,0:0:0:0:
388,367,131981,6,0,L|299:376,2,89.9999972534181,4|0|8,0:2|2:0|0:0,0:0:0:0:
482,327,132823,2,0,P|463:271|463:210,1,119.999996337891,0|0,2:0|0:0,0:0:0:0:
463,211,133876,2,0,L|469:136,1,59.9999981689454,8|0,0:0|2:0,0:0:0:0:
363,39,134402,6,0,B|336:24|336:24|240:32,1,119.999996337891,0|0,2:0|2:0,0:0:0:0:
130,130,135139,2,0,P|174:126|217:137,1,89.9999972534181,8|0,0:0|2:0,0:0:0:0:
292,207,135665,2,0,B|277:234|277:234|285:330,1,119.999996337891,0|0,2:0|2:0,0:0:0:0:
433,356,136402,1,8,0:0:0:0:
469,261,136613,2,0,L|380:270,1,89.9999972534181,0|0,2:0|2:0,0:0:0:0:
337,239,137034,5,0,0:0:0:0:
439,125,137349,2,0,P|442:81|431:38,1,89.9999972534181,0|8,2:0|0:0,0:0:0:0:
342,89,137876,2,0,L|204:76,1,119.999996337891,0|0,2:0|0:0,0:0:0:0:
115,187,138613,2,0,L|26:196,2,89.9999972534181,0|8|0,2:0|0:0|2:0,0:0:0:0:
221,297,139560,5,0,0:0:0:0:
267,151,139876,2,0,L|273:76,1,59.9999981689454,0|8,2:0|2:0,0:0:0:0:
302,50,140191,1,8,0:0:0:0:
451,16,140507,1,0,2:0:0:0:
403,161,140823,2,0,P|399:235|422:306,1,149.999995422363,0|0,0:0|2:0,0:0:0:0:
442,353,141455,2,0,B|367:333|372:382|295:365,1,149.999995422363,8|0,0:0|2:0,0:3:0:0:
256,344,142086,5,4,0:0:0:0:
73,209,142613,1,0,2:0:0:0:
73,209,142718,2,0,L|73:152,1,53.3333333333333,0|0,0:0|2:0,0:0:0:0:
40,125,143034,2,0,L|40:68,1,53.3333333333333,0|0,2:0|2:0,0:0:0:0:
73,41,143349,2,0,P|110:45|160:39,1,80,0|0,0:0|2:0,0:0:0:0:
233,81,143876,1,0,2:0:0:0:
233,81,143981,2,0,P|212:160|233:233,1,160
441,324,145139,5,0,2:0:0:0:
441,324,145244,2,0,P|447:297|443:271,1,53.3333333333333,0|0,0:0|2:0,0:0:0:0:
410,238,145560,2,0,P|404:211|408:185,1,53.3333333333333,0|0,2:0|2:0,0:0:0:0:
332,72,146086,1,0,2:0:0:0:
297,102,146191,2,0,P|300:128|294:154,1,53.3333333333333,0|0,2:0|2:0,0:0:0:0:
261,188,146507,2,0,P|257:214|263:240,1,53.3333333333333,0|0,0:0|2:0,0:0:0:0:
231,272,146823,2,0,L|151:272,1,80,0|0,2:0|0:0,0:0:0:0:
10,71,147665,5,0,2:0:0:0:
10,71,147770,2,0,P|37:65|63:69,1,53.3333333333333,0|0,0:0|2:0,0:0:0:0:
94,101,148086,2,0,P|120:104|146:98,1,53.3333333333333,0|0,2:0|2:0,0:0:0:0:
177,130,148402,2,0,L|257:130,1,80,0|0,0:0|2:0,0:0:0:0:
374,58,149034,2,0,L|454:58,1,80,0|0,0:0|2:0,0:0:0:0:
508,183,149665,6,0,P|512:220|506:270,1,80,0|0,0:0|2:0,0:0:0:0:
376,221,150297,2,0,P|381:261|377:301,1,80,0|0,0:0|2:0,0:0:0:0:
246,261,150928,2,0,P|250:301|246:340,1,80,0|0,0:0|2:0,0:0:0:0:
114,299,151560,2,0,P|119:339|115:379,1,80,0|0,0:0|2:0,0:0:0:0:
30,271,152191,5,0,0:0:0:0:
176,41,152823,2,0,L|230:41,1,53.3333333333333,8|0,0:0|2:0,0:0:0:0:
260,73,153139,2,0,L|314:73,1,53.3333333333333,0|0,2:0|2:0,0:0:0:0:
344,105,153455,2,0,P|348:145|344:184,1,80,0|0,0:0|2:0,0:0:0:0:
320,272,153981,1,0,2:0:0:0:
320,272,154086,2,0,L|399:272,1,80,8|0,0:0|2:0,0:0:0:0:
506,186,154718,6,0,P|510:146|507:106,1,80,0|0,0:0|2:0,0:0:0:0:
405,14,155349,2,0,L|351:14,1,53.3333333333333,8|0,0:0|2:0,0:0:0:0:
321,49,155665,2,0,P|327:76|323:102,1,53.3333333333333,0|0,2:0|2:0,0:0:0:0:
292,135,155981,2,0,P|252:131|213:135,1,80,0|0,0:0|2:0,0:0:0:0:
115,230,156613,2,0,P|154:223|193:227,1,80,8|0,0:0|2:0,0:0:0:0:
292,322,157244,6,0,P|252:318|212:321,1,80,0|0,0:0|2:0,0:0:0:0:
129,359,157770,1,8,2:0:0:0:
129,359,157876,1,8,0:0:0:0:
46,319,158086,2,0,P|39:276|45:239,1,80,0|0,2:0|2:0,0:0:0:0:
19,202,158507,1,0,0:0:0:0:
55,118,158718,2,0,L|134:118,1,80,0|0,2:0|2:0,0:0:0:0:
166,85,159139,2,0,P|193:79|219:83,1,53.3333333333333,8|0,0:0|2:0,0:0:0:0:
197,220,159665,1,0,2:0:0:0:
197,220,159770,6,0,P|190:261|206:307,1,89.9999972534181,10|0,0:3|2:0,0:0:0:0:
306,306,160297,1,8,2:3:0:0:
306,306,160402,2,0,P|321:265|315:220,1,89.9999972534181,10|8,2:3|2:3,0:0:0:0:
256,135,160928,1,8,2:3:0:0:
256,135,161034,2,0,L|256:105,5,29.9999990844727,10|8|8|8|8|8,2:3|2:3|2:3|2:3|2:3|2:3,0:0:0:0:
224,175,161665,2,0,P|253:169|282:175,1,59.9999981689454,10|8,2:3|2:3,0:0:0:0:
413,360,162297,6,0,P|363:363|318:344,1,100,4|0,0:0|2:0,0:0:0:0:
163,271,162928,2,0,P|162:305|150:336,1,66.6666666666667,8|0,0:0|2:0,0:0:0:0:
94,325,163244,2,0,P|95:291|107:260,1,66.6666666666667,0|0,2:0|2:0,0:0:0:0:
73,214,163560,2,0,P|71:165|90:120,1,100,0|0,0:0|2:0,0:0:0:0:
186,56,164086,1,0,2:0:0:0:
186,56,164191,2,0,L|252:67,1,66.6666666666667,8|0,0:0|2:0,0:0:0:0:
298,99,164507,2,0,L|364:88,1,66.6666666666667,0|0,2:0|2:0,0:0:0:0:
391,138,164823,6,0,L|374:236,1,100,0|0,0:0|2:0,0:0:0:0:
362,349,165349,1,0,2:0:0:0:
362,349,165455,2,0,L|428:338,1,66.6666666666667,8|0,0:0|2:0,0:0:0:0:
471,301,165770,2,0,L|482:235,1,66.6666666666667,0|0,2:0|2:0,0:0:0:0:
448,189,166086,2,0,P|428:143|430:93,1,100,0|0,0:0|2:0,0:0:0:0:
321,58,166613,1,0,2:0:0:0:
321,58,166718,2,0,P|289:69|256:70,1,66.6666666666667,8|0,0:0|2:0,0:0:0:0:
207,42,167034,2,0,P|175:53|142:54,1,66.6666666666667,0|0,2:0|2:0,0:0:0:0:
90,32,167349,5,0,0:0:0:0:
40,194,167665,2,0,P|51:225|52:258,1,66.6666666666667,0|0,2:0|2:0,0:0:0:0:
33,311,167981,1,8,0:0:0:0:
132,366,168191,1,0,2:0:0:0:
132,366,168297,2,0,P|143:334|144:301,1,66.6666666666667,0|0,2:0|2:0,0:0:0:0:
163,248,168613,1,0,0:0:0:0:
263,193,168823,1,0,2:0:0:0:
263,193,168928,2,0,P|274:224|275:257,1,66.6666666666667,0|0,2:0|2:0,0:0:0:0:
311,301,169244,6,0,P|356:282|405:284,1,100,8|0,0:0|2:0,0:0:0:0:
483,200,169770,1,0,2:0:0:0:
483,200,169876,1,0,0:0:0:0:
374,69,170191,6,0,L|363:135,1,66.6666666666667,0|0,2:0|2:0,0:0:0:0:
381,186,170507,1,8,0:0:0:0:
282,241,170718,1,0,2:0:0:0:
282,241,170823,2,0,L|271:175,1,66.6666666666667,0|0,2:0|2:0,0:0:0:0:
251,123,171139,1,0,0:0:0:0:
151,68,171349,1,0,2:0:0:0:
151,68,171455,2,0,L|140:134,1,66.6666666666667,0|0,2:0|2:0,0:0:0:0:
130,190,171770,6,0,P|80:187|35:206,1,100,8|0,0:0|2:0,0:0:0:0:
101,298,172297,1,0,2:0:0:0:
101,298,172402,2,0,P|134:299|165:309,1,66.6666666666667,0|0,0:0|2:0,0:0:0:0:
191,360,172718,1,0,2:0:0:0:
332,267,173034,6,0,L|343:201,1,66.6666666666667,8|0,0:0|2:0,0:0:0:0:
390,169,173349,2,0,L|456:180,1,66.6666666666667,0|0,2:0|2:0,0:0:0:0:
494,221,173665,2,0,L|483:287,1,66.6666666666667,0|0,0:0|2:0,0:0:0:0:
331,365,174191,1,0,2:0:0:0:
331,365,174297,2,0,P|297:364|266:354,1,66.6666666666667,8|0,0:0|2:0,0:0:0:0:
218,325,174613,2,0,P|186:335|153:335,1,66.6666666666667,0|0,2:0|2:0,0:0:0:0:
104,305,174928,6,0,L|87:207,1,100,0|0,0:0|2:0,0:0:0:0:
245,144,175560,2,0,L|311:155,1,66.6666666666667,8|0,0:0|2:0,0:0:0:0:
355,190,175876,1,0,2:0:0:0:
464,160,176086,1,0,2:0:0:0:
464,160,176191,2,0,P|467:210|448:255,1,100,0|0,0:0|2:0,0:0:0:0:
346,306,176718,1,0,2:0:0:0:
346,306,176823,2,0,P|314:294|281:294,1,66.6666666666667,8|0,0:0|2:0,0:0:0:0:
235,327,177139,2,0,P|218:352|193:336,1,66.6666666666667,0|0,2:0|2:0,0:0:0:0:
138,316,177455,5,0,0:0:0:0:
42,176,177770,2,0,L|108:165,1,66.6666666666667,0|0,2:0|2:0,0:0:0:0:
150,126,178086,1,8,0:0:0:0:
201,226,178297,1,0,2:0:0:0:
201,226,178402,2,0,P|218:251|243:235,1,66.6666666666667,0|0,2:0|2:0,0:0:0:0:
294,207,178718,1,0,0:0:0:0:
296,93,178928,1,0,2:0:0:0:
296,93,179034,2,0,P|321:76|338:101,1,66.6666666666667,0|0,2:0|2:0,0:0:0:0:
375,144,179349,6,0,P|394:189|391:239,1,100,8|0,0:0|2:0,0:0:0:0:
329,334,179876,1,0,2:0:0:0:
329,334,179981,1,8,0:3:0:0:
192,234,180297,6,0,P|167:216|184:191,1,66.6666666666667,0|8,2:0|2:3,0:0:0:0:
217,146,180613,1,8,0:0:0:0:
328,101,180823,1,0,2:0:0:0:
328,101,180928,2,0,P|352:118|335:143,1,66.6666666666667,8|8,2:3|2:3,0:0:0:0:
305,191,181244,2,0,L|298:230,5,33.3333333333333,0|8|8|8|8|8,0:0|3:0|3:0|3:0|3:0|3:0,0:0:0:0:
289,280,181876,2,0,P|257:274|223:280,1,66.6666666666667,8|8,2:3|2:3,0:0:0:0:
37,361,182507,6,0,B|9:288|61:288|35:214,1,149.999995422363,4|0,0:0|2:0,0:0:0:0:
65,172,183139,2,0,L|124:172,1,59.9999981689454,0|0,0:0|2:0,0:0:0:0:
164,204,183455,2,0,L|223:204,1,59.9999981689454,0|0,2:0|2:0,0:0:0:0:
264,172,183770,2,0,P|308:162|352:172,1,89.9999972534181,0|0,0:0|2:0,0:0:0:0:
451,148,184297,1,0,2:0:0:0:
451,148,184402,2,0,P|472:227|451:321,1,179.999994506836
256,84,185665,6,0,B|167:53|166:118|82:84,2,179.999994506836
213,230,187244,2,0,L|213:289,1,59.9999981689454,0|0,2:0|2:0,0:0:0:0:
229,339,187560,5,0,0:0:0:0:
455,222,188086,1,0,2:0:0:0:
455,222,188191,2,0,P|459:194|451:150,1,59.9999981689454,0|0,0:0|2:0,0:0:0:0:
423,122,188507,2,0,P|395:117|351:125,1,59.9999981689454,0|0,2:0|2:0,0:0:0:0:
333,162,188823,2,0,P|289:172|245:162,1,89.9999972534181,0|0,0:0|2:0,0:0:0:0:
153,119,189349,1,0,2:0:0:0:
153,119,189455,2,0,L|153:209,1,89.9999972534181,0|0,0:0|2:0,0:0:0:0:
103,354,190086,6,0,P|60:363|16:354,1,89.9999972534181,0|0,0:0|2:0,0:0:0:0:
63,207,190718,2,0,L|63:139,1,59.9999981689454,0|0,0:0|2:0,0:0:0:0:
103,115,191034,2,0,P|131:120|175:112,1,59.9999981689454,0|0,2:0|2:0,0:0:0:0:
203,147,191349,2,0,L|203:207,1,59.9999981689454,0|0,0:0|2:0,0:0:0:0:
236,246,191665,2,0,P|279:255|323:245,1,89.9999972534181,0|0,2:0|0:0,0:0:0:0:
471,287,192297,2,0,P|479:244|469:200,1,89.9999972534181,0|0,2:0|0:0,0:0:0:0:
256,58,193139,5,0,2:0:0:0:
256,58,193244,2,0,P|251:86|259:130,1,59.9999981689454,8|0,0:0|2:0,0:0:0:0:
275,163,193560,2,0,P|280:191|272:235,1,59.9999981689454,0|0,2:0|2:0,0:0:0:0:
256,269,193876,2,0,L|166:269,1,89.9999972534181,0|0,0:0|2:0,0:0:0:0:
74,313,194402,1,0,2:0:0:0:
74,313,194507,2,0,L|74:223,1,89.9999972534181,8|0,0:0|2:0,0:0:0:0:
31,76,195139,6,0,P|74:85|118:75,1,89.9999972534181,0|0,0:0|2:0,0:0:0:0:
268,44,195770,2,0,L|327:44,1,59.9999981689454,8|0,0:0|2:0,0:0:0:0:
368,75,196086,2,0,L|427:75,1,59.9999981689454,0|0,2:0|2:0,0:0:0:0:
468,107,196402,2,0,P|478:150|470:194,1,89.9999972534181,0|0,0:0|2:0,0:0:0:0:
323,242,197034,2,0,P|331:198|321:154,1,89.9999972534181,8|0,0:0|2:0,0:0:0:0:
176,203,197665,6,0,L|86:203,1,89.9999972534181,0|0,0:0|2:0,0:0:0:0:
55,300,198191,1,8,2:0:0:0:
55,300,198297,2,0,L|114:300,1,59.9999981689454,8|0,0:0|2:0,0:0:0:0:
154,332,198613,2,0,L|213:332,1,59.9999981689454,0|0,2:0|2:0,0:0:0:0:
253,364,198928,2,0,L|343:364,1,89.9999972534181,0|0,0:0|2:0,0:0:0:0:
388,272,199455,1,0,2:0:0:0:
388,272,199560,2,0,L|298:272,1,89.9999972534181,8|0,0:0|2:0,0:0:0:0:
315,120,200191,6,0,L|307:30,1,89.9999972534181,10|0,0:3|2:0,0:0:0:0:
205,30,200718,1,8,2:3:0:0:
205,30,200823,2,0,L|198:120,1,89.9999972534181,10|8,2:3|2:3,0:0:0:0:
256,205,201349,1,8,2:3:0:0:
256,205,201455,2,0,L|256:235,5,29.9999990844727,10|8|8|8|8|8,2:3|2:3|2:3|2:3|2:3|2:3,0:0:0:0:
287,166,202086,2,0,P|255:172|216:159,1,59.9999981689454,10|8,2:3|2:3,0:0:0:0:
88,50,202718,5,4,0:0:0:0:
57,274,203244,1,0,2:0:0:0:
57,274,203349,2,0,L|112:274,1,53.3333333333333,8|0,0:0|2:0,0:0:0:0:
142,307,203665,2,0,L|197:307,1,53.3333333333333,0|0,2:0|2:0,0:0:0:0:
226,273,203981,2,0,P|266:269|306:272,1,80,0|0,0:0|2:0,0:0:0:0:
387,310,204507,1,0,2:0:0:0:
387,310,204613,2,0,P|389:270|385:230,1,80,8|0,0:0|2:0,0:0:0:0:
351,99,205244,6,0,L|272:99,1,80,0|0,0:0|2:0,0:0:0:0:
137,69,205876,1,8,0:0:0:0:
170,152,206086,2,0,P|176:202|168:263,1,106.666666666667,0|0,2:0|0:0,0:0:0:0:
169,257,207139,1,8,0:0:0:0:
81,361,207455,2,0,P|108:355|134:359,1,53.3333333333333,0|0,2:0|2:0,0:0:0:0:
169,376,207770,5,0,0:0:0:0:
334,264,208297,1,0,2:0:0:0:
334,264,208402,2,0,L|334:210,1,46.6666652425131,8|0,0:0|2:0,0:0:0:0:
315,181,208718,2,0,L|315:127,1,46.6666652425131,0|0,2:0|2:0,0:0:0:0:
297,98,209034,2,0,P|266:93|219:101,1,69.9999978637696,0|0,0:0|2:0,0:0:0:0:
158,136,209560,1,0,2:0:0:0:
158,136,209665,2,0,P|127:141|80:133,1,69.9999978637696,8|0,0:0|2:0,0:0:0:0:
15,207,210297,6,0,L|15:272,1,59.9999981689454,0|0,0:0|2:0,0:0:0:0:
113,296,210928,2,0,L|113:236,2,59.9999981689454,8|0|0,0:0|2:0|0:0,0:0:0:0:
256,337,212191,1,8,0:0:0:0:
256,192,212823,5,4,0:0:0:0:
256,192,212928,12,0,217876,2:0:0:0:
