osu file format v14

[General]
AudioFilename: audio.mp3
AudioLeadIn: 0
PreviewTime: 17250
Countdown: 0
SampleSet: Normal
StackLeniency: 1
Mode: 1
LetterboxInBreaks: 0
WidescreenStoryboard: 1

[Editor]
DistanceSpacing: 1
BeatDivisor: 3
GridSize: 32
TimelineZoom: 0.7

[Metadata]
Title:LiEat3 (ED)
TitleUnicode:LiEat3 (ED)
Artist:Miwashiba
ArtistUnicode:△○□×
Creator:Axer
Version:Kantan
Source:LiEat
Tags:AGM PLAYISM Efina Theobald Leonhart Theo classical video game piano classical instrumental
BeatmapID:2415914
BeatmapSetID:1157621

[Difficulty]
HPDrainRate:10
CircleSize:2
OverallDifficulty:1
ApproachRate:10
SliderMultiplier:1.4
SliderTickRate:1

[Events]
//Background and Video events
0,0,"Efina.png",0,0
//Break Periods
2,14140,17271
//Storyboard Layer 0 (Background)
//Storyboard Layer 1 (Fail)
//Storyboard Layer 2 (Pass)
//Storyboard Layer 3 (Foreground)
//Storyboard Layer 4 (Overlay)
//Storyboard Sound Samples

[TimingPoints]
140,600,3,1,0,40,1,0
140,-111.111111111111,3,1,0,40,0,0
17260,461.538461538462,3,1,0,40,1,8
17260,-131.578947368421,3,1,0,40,0,8
17375,-129.87012987013,3,1,0,40,0,0
17490,-128.205128205128,3,1,0,40,0,0
17606,-126.582278481013,3,1,0,40,0,0
17721,461.538461538462,3,1,0,40,1,0
17721,-117.647058823529,3,1,0,50,0,0
50490,-116.279069767442,3,1,0,50,0,0
50605,-114.942528735632,3,1,0,50,0,0
50721,-113.636363636364,3,1,0,50,0,0
50836,-112.359550561798,3,1,0,50,0,0
50951,-111.111111111111,3,1,0,60,0,1
71721,-111.111111111111,3,1,0,60,0,0
73105,451.127819548872,4,1,0,30,1,0
73105,-142.857142857143,4,1,0,30,0,0
74909,480,4,1,0,30,1,0
74909,-134.264232008593,4,1,0,30,0,0
75243,480,4,1,0,30,1,8
75883,521.739130434783,4,1,0,30,1,8
76914,545.454545454546,4,1,0,30,1,0
76914,-118.152524167562,4,1,0,30,0,0
77653,545.454545454546,4,1,0,30,1,8
78016,571.428571428571,4,1,0,30,1,8
78968,-112.781954887218,4,1,0,50,0,0
79158,571.428571428571,4,1,0,50,1,0
79158,-112.781954887218,4,1,0,50,0,0

[HitObjects]
256,192,140,5,8,0:0:0:0:
256,192,1940,1,0,0:0:0:0:
256,192,3740,1,8,0:0:0:0:
256,192,5540,1,0,0:0:0:0:
256,192,7340,1,0,0:0:0:0:
256,192,9140,1,8,0:0:0:0:
256,192,10940,1,8,0:0:0:0:
256,192,12740,1,0,0:0:0:0:
256,192,13940,1,8,0:0:0:0:
256,192,17721,5,12,0:0:0:0:
256,192,19105,1,0,0:0:0:0:
256,192,20490,1,8,0:0:0:0:
256,192,21874,1,0,0:0:0:0:
256,192,23259,1,0,0:0:0:0:
256,192,24644,1,0,0:0:0:0:
256,192,26028,1,8,0:0:0:0:
256,192,27413,1,8,0:0:0:0:
256,192,28797,1,12,0:0:0:0:
256,192,30182,1,0,0:0:0:0:
256,192,31567,1,8,0:0:0:0:
256,192,32951,1,0,0:0:0:0:
256,192,34336,1,0,0:0:0:0:
256,192,35721,1,8,0:0:0:0:
256,192,37105,1,8,0:0:0:0:
256,192,38490,1,8,0:0:0:0:
256,192,39874,1,12,0:0:0:0:
256,192,40797,1,0,0:0:0:0:
256,192,41259,1,8,0:0:0:0:
256,192,42644,1,8,0:0:0:0:
256,192,43567,1,0,0:0:0:0:
256,192,44028,1,8,0:0:0:0:
256,192,45413,1,0,0:0:0:0:
256,192,46336,1,0,0:0:0:0:
256,192,46797,1,8,0:0:0:0:
256,192,48182,1,8,0:0:0:0:
256,192,49105,1,0,0:0:0:0:
256,192,49567,1,8,0:0:0:0:
256,192,50951,1,12,0:0:0:0:
256,192,52336,1,8,0:0:0:0:
256,192,53721,1,0,0:0:0:0:
256,192,55105,1,8,0:0:0:0:
256,192,56490,1,0,0:0:0:0:
256,192,57874,1,8,0:0:0:0:
256,192,59259,1,8,0:0:0:0:
256,192,60644,1,8,0:0:0:0:
256,192,61567,1,8,0:0:0:0:
256,192,62028,1,0,0:0:0:0:
256,192,63413,1,8,0:0:0:0:
256,192,64797,1,0,0:0:0:0:
256,192,66182,1,8,0:0:0:0:
256,192,67567,1,0,0:0:0:0:
256,192,68951,1,8,0:0:0:0:
256,192,70336,1,0,0:0:0:0:
256,192,71259,1,0,0:0:0:0:
256,192,71721,1,8,0:0:0:0:
256,192,73105,1,2,0:0:0:0:
256,192,74909,1,2,0:0:0:0:
256,192,76914,1,2,0:0:0:0:
256,192,79158,1,6,0:0:0:0:
