osu file format v14

[General]
AudioFilename: audio.mp3
AudioLeadIn: 0
PreviewTime: 113658
Countdown: 0
SampleSet: Soft
StackLeniency: 0.8
Mode: 3
LetterboxInBreaks: 0
SpecialStyle: 0
WidescreenStoryboard: 0
SamplesMatchPlaybackRate: 1

[Editor]
DistanceSpacing: 0.8
BeatDivisor: 4
GridSize: 32
TimelineZoom: 1

[Metadata]
Title:tooisora
TitleUnicode:遠い空へ
Artist:Miwamanapu
ArtistUnicode:三輪学
Creator:Icing_wind
Version:7k HD
Source:ヨスガノソラ
Tags:Yosuga no Sora
BeatmapID:2042071
BeatmapSetID:975675

[Difficulty]
HPDrainRate:8
CircleSize:7
OverallDifficulty:8
ApproachRate:5
SliderMultiplier:1.40000000596046
SliderTickRate:1

[Events]
//Background and Video events
0,0,"2.jpg",0,0
//Break Periods
//Storyboard Layer 0 (Background)
//Storyboard Layer 1 (Fail)
//Storyboard Layer 2 (Pass)
//Storyboard Layer 3 (Foreground)
//Storyboard Sound Samples

[TimingPoints]
16877,545.454545454546,4,2,1,0,1,0
114526,-100,4,2,1,0,0,1
178344,-100,4,2,1,0,0,0

[HitObjects]
182,192,16877,5,0,0:0:0:0:
402,192,16877,1,0,0:0:0:0:
329,192,17422,1,0,0:0:0:0:
109,192,17967,128,0,19604:0:0:0:0:
402,192,17967,1,0,0:0:0:0:
329,192,19058,1,0,0:0:0:0:
402,192,19604,1,0,0:0:0:0:
182,192,19604,128,0,21240:0:0:0:0:
329,192,20422,1,0,0:0:0:0:
402,192,20695,1,0,0:0:0:0:
329,192,20967,1,0,0:0:0:0:
475,192,21240,1,0,0:0:0:0:
36,192,21240,128,0,22877:0:0:0:0:
329,192,22058,1,0,0:0:0:0:
475,192,22331,1,0,0:0:0:0:
402,192,22604,1,0,0:0:0:0:
329,192,22877,1,0,0:0:0:0:
182,192,22877,128,0,24513:0:0:0:0:
402,192,23149,1,0,0:0:0:0:
329,192,23422,1,0,0:0:0:0:
402,192,24513,1,0,0:0:0:0:
109,192,24513,128,0,26149:0:0:0:0:
329,192,25604,1,0,0:0:0:0:
475,192,26149,1,0,0:0:0:0:
182,192,26149,128,0,27786:0:0:0:0:
402,192,26695,1,0,0:0:0:0:
329,192,27240,1,0,0:0:0:0:
402,192,27786,1,0,0:0:0:0:
109,192,27786,128,0,31058:0:0:0:0:
329,192,28331,128,0,28877:0:0:0:0:
402,192,28877,128,0,29422:0:0:0:0:
475,192,29422,128,0,29967:0:0:0:0:
256,192,29967,1,0,0:0:0:0:
329,192,30513,1,0,0:0:0:0:
475,192,31058,1,0,0:0:0:0:
329,192,31058,1,0,0:0:0:0:
36,192,31331,128,0,31604:0:0:0:0:
402,192,31604,1,0,0:0:0:0:
109,192,31604,128,0,31877:0:0:0:0:
182,192,31877,128,0,32149:0:0:0:0:
402,192,32149,1,0,0:0:0:0:
475,192,32695,1,0,0:0:0:0:
182,192,32695,128,0,32967:0:0:0:0:
109,192,32967,128,0,33240:0:0:0:0:
36,192,33240,128,0,33513:0:0:0:0:
329,192,33513,1,0,0:0:0:0:
402,192,33786,1,0,0:0:0:0:
329,192,34058,1,0,0:0:0:0:
475,192,34331,1,0,0:0:0:0:
36,192,34331,128,0,34604:0:0:0:0:
109,192,34604,128,0,34877:0:0:0:0:
182,192,34877,128,0,35149:0:0:0:0:
475,192,35149,1,0,0:0:0:0:
329,192,35422,1,0,0:0:0:0:
402,192,35695,1,0,0:0:0:0:
475,192,35967,1,0,0:0:0:0:
329,192,35967,1,0,0:0:0:0:
402,192,36240,1,0,0:0:0:0:
182,192,36240,128,0,36513:0:0:0:0:
329,192,36513,1,0,0:0:0:0:
109,192,36513,128,0,36786:0:0:0:0:
36,192,36786,128,0,37058:0:0:0:0:
475,192,37604,1,0,0:0:0:0:
329,192,37604,1,0,0:0:0:0:
182,192,37877,128,0,38149:0:0:0:0:
109,192,38149,128,0,38422:0:0:0:0:
36,192,38422,128,0,38695:0:0:0:0:
475,192,38695,1,0,0:0:0:0:
256,192,39240,1,0,0:0:0:0:
402,192,39240,1,0,0:0:0:0:
36,192,39513,128,0,39786:0:0:0:0:
329,192,39786,1,0,0:0:0:0:
109,192,39786,128,0,40058:0:0:0:0:
182,192,40058,128,0,40331:0:0:0:0:
475,192,40331,1,0,0:0:0:0:
402,192,40877,1,0,0:0:0:0:
256,192,40877,1,0,0:0:0:0:
182,192,41422,128,0,41695:0:0:0:0:
109,192,41695,128,0,41967:0:0:0:0:
475,192,41695,1,0,0:0:0:0:
182,192,41967,128,0,42513:0:0:0:0:
402,192,41967,1,0,0:0:0:0:
36,192,42513,128,0,45786:0:0:0:0:
475,192,42513,1,0,0:0:0:0:
402,192,42786,128,0,43058:0:0:0:0:
329,192,43058,128,0,43331:0:0:0:0:
256,192,43331,128,0,45786:0:0:0:0:
402,192,46331,128,0,46877:0:0:0:0:
182,192,46877,128,0,47422:0:0:0:0:
475,192,47422,128,0,48513:0:0:0:0:
36,192,47422,1,0,0:0:0:0:
109,192,47695,1,0,0:0:0:0:
182,192,47967,1,0,0:0:0:0:
402,192,48513,128,0,48786:0:0:0:0:
329,192,48786,128,0,49058:0:0:0:0:
402,192,49058,128,0,50149:0:0:0:0:
182,192,49058,1,0,0:0:0:0:
109,192,49331,1,0,0:0:0:0:
36,192,49604,1,0,0:0:0:0:
329,192,50149,128,0,50695:0:0:0:0:
402,192,50695,128,0,51240:0:0:0:0:
36,192,50695,1,0,0:0:0:0:
109,192,50967,1,0,0:0:0:0:
475,192,51240,128,0,51786:0:0:0:0:
182,192,51240,1,0,0:0:0:0:
329,192,51786,128,0,52331:0:0:0:0:
256,192,52331,128,0,53695:0:0:0:0:
475,192,52331,1,0,0:0:0:0:
402,192,52604,1,0,0:0:0:0:
329,192,52877,1,0,0:0:0:0:
182,192,53695,128,0,53967:0:0:0:0:
109,192,53967,128,0,55058:0:0:0:0:
329,192,53967,1,0,0:0:0:0:
402,192,54240,1,0,0:0:0:0:
475,192,54513,1,0,0:0:0:0:
182,192,55058,128,0,55331:0:0:0:0:
109,192,55331,128,0,55604:0:0:0:0:
475,192,55604,1,0,0:0:0:0:
36,192,55604,128,0,56695:0:0:0:0:
402,192,55877,1,0,0:0:0:0:
329,192,56149,1,0,0:0:0:0:
109,192,56695,128,0,56967:0:0:0:0:
182,192,56967,128,0,57240:0:0:0:0:
329,192,57240,128,0,57786:0:0:0:0:
36,192,57240,1,0,0:0:0:0:
109,192,57513,1,0,0:0:0:0:
402,192,57786,128,0,58331:0:0:0:0:
182,192,57786,1,0,0:0:0:0:
475,192,58331,128,0,58877:0:0:0:0:
182,192,58877,1,0,0:0:0:0:
36,192,58877,128,0,59422:0:0:0:0:
256,192,59013,1,0,0:0:0:0:
329,192,59149,1,0,0:0:0:0:
256,192,59422,1,0,0:0:0:0:
109,192,59422,128,0,59967:0:0:0:0:
329,192,59558,1,0,0:0:0:0:
402,192,59695,1,0,0:0:0:0:
329,192,59967,1,0,0:0:0:0:
182,192,59967,128,0,60513:0:0:0:0:
402,192,60104,1,0,0:0:0:0:
475,192,60240,1,0,0:0:0:0:
329,192,60513,128,0,61604:0:0:0:0:
36,192,60513,1,0,0:0:0:0:
109,192,60786,1,0,0:0:0:0:
182,192,61058,1,0,0:0:0:0:
182,192,61604,128,0,61877:0:0:0:0:
109,192,61877,128,0,62149:0:0:0:0:
182,192,62149,128,0,63240:0:0:0:0:
329,192,62149,1,0,0:0:0:0:
402,192,62422,1,0,0:0:0:0:
475,192,62695,1,0,0:0:0:0:
36,192,63240,128,0,63786:0:0:0:0:
109,192,63786,128,0,64331:0:0:0:0:
329,192,63786,1,0,0:0:0:0:
402,192,64058,1,0,0:0:0:0:
182,192,64331,128,0,64877:0:0:0:0:
475,192,64331,1,0,0:0:0:0:
329,192,64877,128,0,65422:0:0:0:0:
402,192,65422,128,0,65967:0:0:0:0:
36,192,65422,1,0,0:0:0:0:
109,192,65695,1,0,0:0:0:0:
475,192,65967,128,0,66513:0:0:0:0:
182,192,65967,1,0,0:0:0:0:
329,192,66513,128,0,67058:0:0:0:0:
402,192,67058,128,0,68149:0:0:0:0:
182,192,67058,1,0,0:0:0:0:
109,192,67331,1,0,0:0:0:0:
36,192,67604,1,0,0:0:0:0:
182,192,68149,128,0,68422:0:0:0:0:
109,192,68422,128,0,68695:0:0:0:0:
36,192,68695,128,0,69786:0:0:0:0:
329,192,68695,1,0,0:0:0:0:
402,192,68967,1,0,0:0:0:0:
475,192,69240,1,0,0:0:0:0:
182,192,69786,128,0,70058:0:0:0:0:
109,192,70058,128,0,70331:0:0:0:0:
329,192,70331,128,0,71422:0:0:0:0:
36,192,70331,1,0,0:0:0:0:
109,192,70604,1,0,0:0:0:0:
182,192,70877,1,0,0:0:0:0:
256,192,71149,1,0,0:0:0:0:
182,192,71422,128,0,71695:0:0:0:0:
109,192,71695,128,0,71967:0:0:0:0:
36,192,71967,128,0,72513:0:0:0:0:
475,192,71967,1,0,0:0:0:0:
402,192,72240,1,0,0:0:0:0:
109,192,72513,128,0,73058:0:0:0:0:
329,192,72513,1,0,0:0:0:0:
402,192,72786,1,0,0:0:0:0:
182,192,73058,128,0,73604:0:0:0:0:
329,192,73604,128,0,74695:0:0:0:0:
36,192,73604,1,0,0:0:0:0:
109,192,73877,1,0,0:0:0:0:
182,192,74149,1,0,0:0:0:0:
402,192,74695,128,0,74967:0:0:0:0:
329,192,74967,128,0,75240:0:0:0:0:
256,192,75240,128,0,75786:0:0:0:0:
475,192,75240,1,0,0:0:0:0:
109,192,75513,1,0,0:0:0:0:
182,192,75786,128,0,76331:0:0:0:0:
402,192,75786,1,0,0:0:0:0:
329,192,76058,1,0,0:0:0:0:
109,192,76331,128,0,76877:0:0:0:0:
36,192,76877,128,0,80149:0:0:0:0:
256,192,76877,1,0,0:0:0:0:
329,192,77149,1,0,0:0:0:0:
402,192,77422,1,0,0:0:0:0:
475,192,77695,1,0,0:0:0:0:
402,192,77967,1,0,0:0:0:0:
329,192,78240,1,0,0:0:0:0:
402,192,78513,1,0,0:0:0:0:
402,192,80149,1,0,0:0:0:0:
329,192,80183,1,0,0:0:0:0:
402,192,80695,128,0,81786:0:0:0:0:
109,192,81786,1,0,0:0:0:0:
182,192,81820,1,0,0:0:0:0:
182,192,82331,128,0,83422:0:0:0:0:
402,192,83422,1,0,0:0:0:0:
329,192,83456,1,0,0:0:0:0:
475,192,83967,128,0,87786:0:0:0:0:
402,192,88331,1,0,0:0:0:0:
182,192,88604,1,0,0:0:0:0:
36,192,88877,1,0,0:0:0:0:
182,192,89149,1,0,0:0:0:0:
36,192,89422,1,0,0:0:0:0:
182,192,89695,1,0,0:0:0:0:
36,192,89967,1,0,0:0:0:0:
182,192,90240,1,0,0:0:0:0:
329,192,90513,1,0,0:0:0:0:
182,192,90786,1,0,0:0:0:0:
36,192,91058,1,0,0:0:0:0:
182,192,91331,1,0,0:0:0:0:
402,192,91604,1,0,0:0:0:0:
182,192,91877,1,0,0:0:0:0:
36,192,92149,1,0,0:0:0:0:
182,192,92422,1,0,0:0:0:0:
36,192,92695,1,0,0:0:0:0:
182,192,92967,1,0,0:0:0:0:
36,192,93240,1,0,0:0:0:0:
182,192,93513,1,0,0:0:0:0:
329,192,93786,1,0,0:0:0:0:
182,192,94058,1,0,0:0:0:0:
36,192,94331,1,0,0:0:0:0:
182,192,94604,1,0,0:0:0:0:
402,192,94877,1,0,0:0:0:0:
182,192,95149,1,0,0:0:0:0:
36,192,95422,1,0,0:0:0:0:
182,192,95695,1,0,0:0:0:0:
36,192,95967,1,0,0:0:0:0:
182,192,96240,1,0,0:0:0:0:
36,192,96513,1,0,0:0:0:0:
182,192,96786,1,0,0:0:0:0:
329,192,97058,1,0,0:0:0:0:
182,192,97331,1,0,0:0:0:0:
36,192,97604,1,0,0:0:0:0:
182,192,97877,1,0,0:0:0:0:
402,192,98149,1,0,0:0:0:0:
182,192,98422,1,0,0:0:0:0:
36,192,98695,1,0,0:0:0:0:
182,192,98967,1,0,0:0:0:0:
36,192,99240,1,0,0:0:0:0:
182,192,99513,1,0,0:0:0:0:
329,192,99786,1,0,0:0:0:0:
182,192,100058,1,0,0:0:0:0:
475,192,100331,1,0,0:0:0:0:
182,192,100604,1,0,0:0:0:0:
329,192,100877,1,0,0:0:0:0:
182,192,101149,1,0,0:0:0:0:
475,192,101422,1,0,0:0:0:0:
329,192,101558,1,0,0:0:0:0:
182,192,101695,1,0,0:0:0:0:
36,192,101967,1,0,0:0:0:0:
182,192,102240,1,0,0:0:0:0:
36,192,102513,1,0,0:0:0:0:
182,192,102786,1,0,0:0:0:0:
36,192,103058,1,0,0:0:0:0:
182,192,103331,1,0,0:0:0:0:
329,192,103604,1,0,0:0:0:0:
182,192,103877,1,0,0:0:0:0:
36,192,104149,1,0,0:0:0:0:
182,192,104422,1,0,0:0:0:0:
475,192,104695,1,0,0:0:0:0:
329,192,104831,1,0,0:0:0:0:
182,192,104967,1,0,0:0:0:0:
36,192,105240,1,0,0:0:0:0:
182,192,105513,1,0,0:0:0:0:
36,192,105786,1,0,0:0:0:0:
182,192,106058,1,0,0:0:0:0:
36,192,106331,1,0,0:0:0:0:
182,192,106604,1,0,0:0:0:0:
329,192,106877,1,0,0:0:0:0:
182,192,107149,1,0,0:0:0:0:
36,192,107422,1,0,0:0:0:0:
182,192,107695,1,0,0:0:0:0:
475,192,107967,1,0,0:0:0:0:
329,192,108104,1,0,0:0:0:0:
182,192,108240,1,0,0:0:0:0:
36,192,108513,1,0,0:0:0:0:
182,192,108786,1,0,0:0:0:0:
36,192,109058,1,0,0:0:0:0:
182,192,109331,1,0,0:0:0:0:
36,192,109604,1,0,0:0:0:0:
182,192,109877,1,0,0:0:0:0:
329,192,110149,1,0,0:0:0:0:
182,192,110422,1,0,0:0:0:0:
36,192,110695,1,0,0:0:0:0:
182,192,110967,1,0,0:0:0:0:
475,192,111240,1,0,0:0:0:0:
329,192,111377,1,0,0:0:0:0:
182,192,111513,1,0,0:0:0:0:
36,192,111786,1,0,0:0:0:0:
182,192,112058,1,0,0:0:0:0:
36,192,112331,1,0,0:0:0:0:
182,192,112604,1,0,0:0:0:0:
329,192,112877,1,0,0:0:0:0:
182,192,113149,1,0,0:0:0:0:
402,192,113422,1,0,0:0:0:0:
182,192,113695,1,0,0:0:0:0:
36,192,113967,1,0,0:0:0:0:
329,192,113967,1,0,0:0:0:0:
182,192,114513,1,0,0:0:0:0:
402,192,114513,1,0,0:0:0:0:
109,192,115058,1,0,0:0:0:0:
475,192,115604,1,0,0:0:0:0:
329,192,116149,1,0,0:0:0:0:
402,192,116967,1,0,0:0:0:0:
329,192,117240,1,0,0:0:0:0:
182,192,117513,1,0,0:0:0:0:
109,192,117786,1,0,0:0:0:0:
329,192,118604,1,0,0:0:0:0:
402,192,118877,1,0,0:0:0:0:
475,192,119149,1,0,0:0:0:0:
402,192,119422,1,0,0:0:0:0:
182,192,119422,1,0,0:0:0:0:
329,192,119695,1,0,0:0:0:0:
109,192,119695,1,0,0:0:0:0:
402,192,119967,1,0,0:0:0:0:
182,192,119967,1,0,0:0:0:0:
329,192,121058,1,0,0:0:0:0:
402,192,122149,1,0,0:0:0:0:
475,192,122695,1,0,0:0:0:0:
402,192,123240,1,0,0:0:0:0:
182,192,123786,1,0,0:0:0:0:
329,192,124331,1,0,0:0:0:0:
402,192,126513,1,0,0:0:0:0:
475,192,127058,1,0,0:0:0:0:
36,192,127604,128,0,128695:0:0:0:0:
329,192,127604,1,0,0:0:0:0:
182,192,128695,128,0,129240:0:0:0:0:
402,192,128695,1,0,0:0:0:0:
109,192,129240,128,0,130058:0:0:0:0:
329,192,129240,1,0,0:0:0:0:
182,192,130058,128,0,130331:0:0:0:0:
475,192,130058,1,0,0:0:0:0:
109,192,130331,128,0,130604:0:0:0:0:
402,192,130331,1,0,0:0:0:0:
36,192,130604,128,0,130877:0:0:0:0:
329,192,130604,1,0,0:0:0:0:
182,192,130877,128,0,131695:0:0:0:0:
475,192,130877,1,0,0:0:0:0:
109,192,131695,128,0,131967:0:0:0:0:
329,192,131695,1,0,0:0:0:0:
182,192,131967,128,0,132240:0:0:0:0:
402,192,131967,1,0,0:0:0:0:
36,192,132240,128,0,132513:0:0:0:0:
329,192,132240,1,0,0:0:0:0:
109,192,132513,128,0,132786:0:0:0:0:
402,192,132513,1,0,0:0:0:0:
36,192,132786,128,0,133058:0:0:0:0:
475,192,132786,1,0,0:0:0:0:
109,192,133058,128,0,134149:0:0:0:0:
402,192,133058,1,0,0:0:0:0:
182,192,134149,128,0,135240:0:0:0:0:
329,192,134149,1,0,0:0:0:0:
109,192,135240,128,0,135786:0:0:0:0:
402,192,135240,1,0,0:0:0:0:
182,192,135786,128,0,136331:0:0:0:0:
475,192,135786,1,0,0:0:0:0:
109,192,136331,128,0,136877:0:0:0:0:
329,192,136331,1,0,0:0:0:0:
36,192,136877,128,0,137422:0:0:0:0:
402,192,136877,1,0,0:0:0:0:
182,192,137422,128,0,138513:0:0:0:0:
329,192,137422,1,0,0:0:0:0:
475,192,138240,1,0,0:0:0:0:
109,192,138513,128,0,139058:0:0:0:0:
402,192,138513,1,0,0:0:0:0:
182,192,139058,128,0,142331:0:0:0:0:
329,192,139058,1,0,0:0:0:0:
475,192,142331,1,0,0:0:0:0:
402,192,142467,1,0,0:0:0:0:
329,192,142604,1,0,0:0:0:0:
256,192,142740,1,0,0:0:0:0:
182,192,142877,1,0,0:0:0:0:
329,192,143013,1,0,0:0:0:0:
256,192,143149,1,0,0:0:0:0:
182,192,143286,1,0,0:0:0:0:
109,192,143422,1,0,0:0:0:0:
329,192,143558,1,0,0:0:0:0:
256,192,143695,1,0,0:0:0:0:
182,192,143831,1,0,0:0:0:0:
109,192,143967,1,0,0:0:0:0:
182,192,144104,1,0,0:0:0:0:
256,192,144240,1,0,0:0:0:0:
329,192,144377,1,0,0:0:0:0:
36,192,144513,128,0,145058:0:0:0:0:
402,192,144513,1,0,0:0:0:0:
475,192,144649,1,0,0:0:0:0:
402,192,144786,1,0,0:0:0:0:
329,192,144922,1,0,0:0:0:0:
109,192,145058,128,0,145604:0:0:0:0:
256,192,145058,1,0,0:0:0:0:
329,192,145604,128,0,146695:0:0:0:0:
109,192,146149,1,0,0:0:0:0:
182,192,146422,1,0,0:0:0:0:
109,192,146695,128,0,146967:0:0:0:0:
475,192,146695,1,0,0:0:0:0:
182,192,146967,128,0,147240:0:0:0:0:
402,192,146967,1,0,0:0:0:0:
109,192,147240,128,0,148331:0:0:0:0:
329,192,147240,1,0,0:0:0:0:
475,192,147513,1,0,0:0:0:0:
329,192,147786,1,0,0:0:0:0:
329,192,148331,128,0,148877:0:0:0:0:
182,192,148604,1,0,0:0:0:0:
402,192,148877,128,0,149422:0:0:0:0:
36,192,148877,1,0,0:0:0:0:
109,192,149149,1,0,0:0:0:0:
329,192,149422,128,0,149967:0:0:0:0:
182,192,149422,1,0,0:0:0:0:
182,192,149967,128,0,150513:0:0:0:0:
109,192,150513,128,0,151604:0:0:0:0:
329,192,150513,1,0,0:0:0:0:
475,192,150786,1,0,0:0:0:0:
402,192,151058,1,0,0:0:0:0:
475,192,151331,1,0,0:0:0:0:
329,192,151604,128,0,151877:0:0:0:0:
256,192,151877,128,0,152149:0:0:0:0:
182,192,152149,128,0,152695:0:0:0:0:
402,192,152149,1,0,0:0:0:0:
475,192,152422,1,0,0:0:0:0:
329,192,152695,1,0,0:0:0:0:
182,192,152967,128,0,153240:0:0:0:0:
475,192,152967,1,0,0:0:0:0:
256,192,153240,128,0,153513:0:0:0:0:
329,192,153513,128,0,153786:0:0:0:0:
182,192,153786,128,0,154604:0:0:0:0:
475,192,153786,1,0,0:0:0:0:
402,192,154058,1,0,0:0:0:0:
329,192,154331,1,0,0:0:0:0:
109,192,154877,128,0,155149:0:0:0:0:
182,192,155149,128,0,155422:0:0:0:0:
329,192,155422,128,0,155967:0:0:0:0:
36,192,155422,1,0,0:0:0:0:
109,192,155695,1,0,0:0:0:0:
402,192,155967,128,0,156513:0:0:0:0:
475,192,156513,128,0,157058:0:0:0:0:
182,192,156513,1,0,0:0:0:0:
109,192,156786,1,0,0:0:0:0:
329,192,157058,128,0,157604:0:0:0:0:
36,192,157058,1,0,0:0:0:0:
109,192,157195,1,0,0:0:0:0:
182,192,157331,1,0,0:0:0:0:
402,192,157604,128,0,158149:0:0:0:0:
36,192,157604,1,0,0:0:0:0:
109,192,157740,1,0,0:0:0:0:
182,192,157877,1,0,0:0:0:0:
475,192,158149,128,0,158695:0:0:0:0:
36,192,158149,1,0,0:0:0:0:
109,192,158286,1,0,0:0:0:0:
182,192,158422,1,0,0:0:0:0:
329,192,158695,128,0,159786:0:0:0:0:
36,192,158695,1,0,0:0:0:0:
182,192,158967,1,0,0:0:0:0:
36,192,159240,1,0,0:0:0:0:
109,192,159513,1,0,0:0:0:0:
182,192,159786,128,0,160058:0:0:0:0:
109,192,160058,128,0,160331:0:0:0:0:
182,192,160331,128,0,161422:0:0:0:0:
475,192,160331,1,0,0:0:0:0:
329,192,160604,1,0,0:0:0:0:
475,192,160877,1,0,0:0:0:0:
329,192,161422,128,0,161967:0:0:0:0:
402,192,161967,128,0,162513:0:0:0:0:
36,192,161967,1,0,0:0:0:0:
109,192,162240,1,0,0:0:0:0:
475,192,162513,128,0,163058:0:0:0:0:
182,192,162513,1,0,0:0:0:0:
36,192,162786,1,0,0:0:0:0:
329,192,163058,128,0,163604:0:0:0:0:
402,192,163604,128,0,164149:0:0:0:0:
36,192,163604,1,0,0:0:0:0:
109,192,163877,1,0,0:0:0:0:
475,192,164149,128,0,164695:0:0:0:0:
182,192,164149,1,0,0:0:0:0:
36,192,164422,1,0,0:0:0:0:
329,192,164695,128,0,165240:0:0:0:0:
475,192,165240,128,0,166331:0:0:0:0:
182,192,165240,1,0,0:0:0:0:
109,192,165513,1,0,0:0:0:0:
36,192,165786,1,0,0:0:0:0:
182,192,166058,1,0,0:0:0:0:
402,192,166331,128,0,166604:0:0:0:0:
329,192,166604,128,0,166877:0:0:0:0:
256,192,166877,128,0,167967:0:0:0:0:
109,192,166877,1,0,0:0:0:0:
36,192,167149,1,0,0:0:0:0:
109,192,167422,1,0,0:0:0:0:
182,192,167695,1,0,0:0:0:0:
329,192,167967,128,0,168240:0:0:0:0:
402,192,168240,128,0,168513:0:0:0:0:
475,192,168513,128,0,169604:0:0:0:0:
329,192,168513,1,0,0:0:0:0:
182,192,168786,1,0,0:0:0:0:
36,192,169058,1,0,0:0:0:0:
109,192,169331,1,0,0:0:0:0:
402,192,169604,128,0,169877:0:0:0:0:
329,192,169877,128,0,170149:0:0:0:0:
402,192,170149,128,0,170695:0:0:0:0:
36,192,170149,1,0,0:0:0:0:
182,192,170422,1,0,0:0:0:0:
475,192,170695,128,0,171240:0:0:0:0:
36,192,170695,1,0,0:0:0:0:
329,192,171240,128,0,171786:0:0:0:0:
109,192,171240,1,0,0:0:0:0:
475,192,171786,128,0,172877:0:0:0:0:
36,192,171786,1,0,0:0:0:0:
109,192,172058,1,0,0:0:0:0:
182,192,172331,1,0,0:0:0:0:
36,192,172604,1,0,0:0:0:0:
402,192,172877,128,0,173149:0:0:0:0:
329,192,173149,128,0,173422:0:0:0:0:
256,192,173422,128,0,173967:0:0:0:0:
475,192,173422,1,0,0:0:0:0:
402,192,173695,1,0,0:0:0:0:
182,192,173967,128,0,174513:0:0:0:0:
329,192,173967,1,0,0:0:0:0:
402,192,174240,1,0,0:0:0:0:
109,192,174513,128,0,175058:0:0:0:0:
36,192,175058,128,0,178331:0:0:0:0:
329,192,175058,1,0,0:0:0:0:
402,192,175331,1,0,0:0:0:0:
475,192,175604,1,0,0:0:0:0:
256,192,175877,1,0,0:0:0:0:
329,192,176149,1,0,0:0:0:0:
402,192,176422,1,0,0:0:0:0:
475,192,176695,1,0,0:0:0:0:
182,192,178331,1,0,0:0:0:0:
256,192,178399,1,0,0:0:0:0:
329,192,178467,1,0,0:0:0:0:
402,192,178536,1,0,0:0:0:0:
109,192,179967,1,0,0:0:0:0:
182,192,180036,1,0,0:0:0:0:
256,192,180104,1,0,0:0:0:0:
329,192,180172,1,0,0:0:0:0:
182,192,181604,1,0,0:0:0:0:
256,192,181672,1,0,0:0:0:0:
329,192,181740,1,0,0:0:0:0:
402,192,181808,1,0,0:0:0:0:
402,192,182286,128,0,182695:0:0:0:0:
182,192,182695,128,0,183240:0:0:0:0:
109,192,183240,128,0,183786:0:0:0:0:
36,192,183786,128,0,184331:0:0:0:0:
182,192,184331,128,0,184877:0:0:0:0:
109,192,184877,128,0,187604:0:0:0:0:
402,192,188149,1,0,0:0:0:0:
402,192,188967,1,0,0:0:0:0:
329,192,189240,1,0,0:0:0:0:
402,192,189513,1,0,0:0:0:0:
475,192,189786,1,0,0:0:0:0:
182,192,190331,1,0,0:0:0:0:
109,192,190877,1,0,0:0:0:0:
402,192,191422,1,0,0:0:0:0:
402,192,192240,1,0,0:0:0:0:
329,192,192513,1,0,0:0:0:0:
475,192,192786,1,0,0:0:0:0:
402,192,193058,1,0,0:0:0:0:
475,192,193331,1,0,0:0:0:0:
402,192,193604,1,0,0:0:0:0:
329,192,193877,1,0,0:0:0:0:
256,192,194149,1,0,0:0:0:0:
329,192,194695,1,0,0:0:0:0:
182,192,195786,1,0,0:0:0:0:
109,192,196195,1,0,0:0:0:0:
36,192,196740,1,0,0:0:0:0:
109,192,197558,1,0,0:0:0:0:
182,192,198649,1,0,0:0:0:0:
475,192,201240,1,0,0:0:0:0:
329,192,201331,1,0,0:0:0:0:
182,192,201513,128,0,204513:0:0:0:0:
