osu file format v14

[General]
AudioFilename: audio.mp3
AudioLeadIn: 0
PreviewTime: 113658
Countdown: 0
SampleSet: Soft
StackLeniency: 0.8
Mode: 3
LetterboxInBreaks: 0
SpecialStyle: 0
WidescreenStoryboard: 1
SamplesMatchPlaybackRate: 1

[Editor]
DistanceSpacing: 0.8
BeatDivisor: 4
GridSize: 32
TimelineZoom: 1

[Metadata]
Title:tooisora
TitleUnicode:遠い空へ
Artist:Miwamanapu
ArtistUnicode:三輪学
Creator:Icing_wind
Version:4K NM
Source:ヨスガノソラ
Tags:Yosuga no Sora
BeatmapID:2044046
BeatmapSetID:975675

[Difficulty]
HPDrainRate:8
CircleSize:4
OverallDifficulty:8
ApproachRate:5
SliderMultiplier:1.40000000596046
SliderTickRate:1

[Events]
//Background and Video events
0,0,"2.jpg",0,0
//Break Periods
2,139258,141131
//Storyboard Layer 0 (Background)
//Storyboard Layer 1 (Fail)
//Storyboard Layer 2 (Pass)
//Storyboard Layer 3 (Foreground)
//Storyboard Sound Samples

[TimingPoints]
16877,545.454545454546,4,2,1,0,1,0
114526,-100,4,2,1,0,0,1
178344,-100,4,2,1,0,0,0

[HitObjects]
329,192,16877,5,0,0:0:0:0:
475,192,17422,1,0,0:0:0:0:
64,192,17967,1,0,0:0:0:0:
192,192,19058,1,0,0:0:0:0:
402,192,19604,1,0,0:0:0:0:
402,192,20422,1,0,0:0:0:0:
64,192,20695,1,0,0:0:0:0:
192,192,20967,1,0,0:0:0:0:
320,192,21240,1,0,0:0:0:0:
329,192,22058,1,0,0:0:0:0:
475,192,22331,1,0,0:0:0:0:
192,192,22604,1,0,0:0:0:0:
448,192,22877,1,0,0:0:0:0:
64,192,23149,1,0,0:0:0:0:
329,192,23422,1,0,0:0:0:0:
402,192,24513,1,0,0:0:0:0:
64,192,25604,1,0,0:0:0:0:
402,192,26149,1,0,0:0:0:0:
182,192,26695,1,0,0:0:0:0:
402,192,27240,1,0,0:0:0:0:
192,192,27786,1,0,0:0:0:0:
329,192,28331,128,0,28877:0:0:0:0:
402,192,28877,128,0,29422:0:0:0:0:
64,192,29422,128,0,29967:0:0:0:0:
448,192,29967,1,0,0:0:0:0:
329,192,30513,1,0,0:0:0:0:
402,192,31058,1,0,0:0:0:0:
402,192,32149,1,0,0:0:0:0:
64,192,32695,1,0,0:0:0:0:
448,192,33513,1,0,0:0:0:0:
192,192,33786,1,0,0:0:0:0:
448,192,34058,1,0,0:0:0:0:
192,192,34331,1,0,0:0:0:0:
329,192,35149,1,0,0:0:0:0:
182,192,35422,1,0,0:0:0:0:
402,192,35695,1,0,0:0:0:0:
109,192,35967,1,0,0:0:0:0:
329,192,36240,1,0,0:0:0:0:
182,192,36513,1,0,0:0:0:0:
402,192,37604,1,0,0:0:0:0:
329,192,38695,1,0,0:0:0:0:
109,192,39240,1,0,0:0:0:0:
402,192,39240,1,0,0:0:0:0:
329,192,39786,1,0,0:0:0:0:
475,192,40331,1,0,0:0:0:0:
329,192,40877,1,0,0:0:0:0:
182,192,40877,1,0,0:0:0:0:
475,192,41695,1,0,0:0:0:0:
320,192,41967,1,0,0:0:0:0:
64,192,42513,1,0,0:0:0:0:
192,192,46331,128,0,46877:0:0:0:0:
320,192,46877,128,0,47422:0:0:0:0:
475,192,47422,128,0,48513:0:0:0:0:
182,192,48513,128,0,48786:0:0:0:0:
329,192,48786,128,0,49058:0:0:0:0:
182,192,49058,128,0,50149:0:0:0:0:
329,192,50149,128,0,50695:0:0:0:0:
64,192,50695,128,0,51240:0:0:0:0:
192,192,51240,128,0,51786:0:0:0:0:
329,192,51786,128,0,52331:0:0:0:0:
64,192,52331,128,0,53695:0:0:0:0:
192,192,53695,128,0,53967:0:0:0:0:
320,192,53967,128,0,55058:0:0:0:0:
182,192,55058,128,0,55331:0:0:0:0:
329,192,55331,128,0,55604:0:0:0:0:
402,192,55604,128,0,56695:0:0:0:0:
329,192,56695,128,0,56967:0:0:0:0:
182,192,56967,128,0,57240:0:0:0:0:
329,192,57240,128,0,57786:0:0:0:0:
402,192,57786,128,0,58331:0:0:0:0:
320,192,58331,128,0,58877:0:0:0:0:
192,192,58877,128,0,59422:0:0:0:0:
109,192,59422,128,0,59967:0:0:0:0:
320,192,59967,128,0,60513:0:0:0:0:
192,192,60513,128,0,61604:0:0:0:0:
448,192,61604,128,0,61877:0:0:0:0:
320,192,61877,128,0,62149:0:0:0:0:
448,192,62149,128,0,63240:0:0:0:0:
192,192,63240,128,0,63786:0:0:0:0:
320,192,63786,128,0,64331:0:0:0:0:
64,192,64331,128,0,64877:0:0:0:0:
448,192,64877,128,0,65422:0:0:0:0:
320,192,65422,128,0,65967:0:0:0:0:
475,192,65967,128,0,66513:0:0:0:0:
329,192,66513,128,0,67058:0:0:0:0:
192,192,67058,128,0,68149:0:0:0:0:
448,192,68149,128,0,68422:0:0:0:0:
320,192,68422,128,0,68695:0:0:0:0:
448,192,68695,128,0,69786:0:0:0:0:
64,192,69786,128,0,70058:0:0:0:0:
192,192,70058,128,0,70331:0:0:0:0:
329,192,70331,128,0,71422:0:0:0:0:
182,192,71422,128,0,71695:0:0:0:0:
109,192,71695,128,0,71967:0:0:0:0:
192,192,71967,128,0,72513:0:0:0:0:
320,192,72513,128,0,73058:0:0:0:0:
448,192,73058,128,0,73604:0:0:0:0:
329,192,73604,128,0,74695:0:0:0:0:
402,192,74695,128,0,74967:0:0:0:0:
329,192,74967,128,0,75240:0:0:0:0:
192,192,75240,128,0,75786:0:0:0:0:
64,192,75786,128,0,76331:0:0:0:0:
320,192,76331,128,0,76877:0:0:0:0:
192,192,76877,128,0,80149:0:0:0:0:
402,192,80149,1,0,0:0:0:0:
402,192,80695,128,0,81786:0:0:0:0:
109,192,81786,1,0,0:0:0:0:
109,192,82331,128,0,83422:0:0:0:0:
402,192,83422,1,0,0:0:0:0:
402,192,83967,128,0,87786:0:0:0:0:
320,192,88331,1,0,0:0:0:0:
182,192,88604,1,0,0:0:0:0:
320,192,88877,1,0,0:0:0:0:
182,192,89149,1,0,0:0:0:0:
320,192,89422,1,0,0:0:0:0:
182,192,89695,1,0,0:0:0:0:
320,192,89967,1,0,0:0:0:0:
182,192,90240,1,0,0:0:0:0:
448,192,90513,1,0,0:0:0:0:
182,192,90786,1,0,0:0:0:0:
320,192,91058,1,0,0:0:0:0:
182,192,91331,1,0,0:0:0:0:
402,192,91604,1,0,0:0:0:0:
320,192,91877,1,0,0:0:0:0:
182,192,92149,1,0,0:0:0:0:
320,192,92422,1,0,0:0:0:0:
182,192,92695,1,0,0:0:0:0:
320,192,92967,1,0,0:0:0:0:
182,192,93240,1,0,0:0:0:0:
320,192,93513,1,0,0:0:0:0:
448,192,93786,1,0,0:0:0:0:
182,192,94058,1,0,0:0:0:0:
320,192,94331,1,0,0:0:0:0:
182,192,94604,1,0,0:0:0:0:
448,192,94877,1,0,0:0:0:0:
64,192,95149,1,0,0:0:0:0:
448,192,95422,1,0,0:0:0:0:
64,192,95695,1,0,0:0:0:0:
475,192,95967,1,0,0:0:0:0:
64,192,96240,1,0,0:0:0:0:
475,192,96513,1,0,0:0:0:0:
64,192,96786,1,0,0:0:0:0:
329,192,97058,1,0,0:0:0:0:
64,192,97331,1,0,0:0:0:0:
475,192,97604,1,0,0:0:0:0:
64,192,97877,1,0,0:0:0:0:
192,192,98149,1,0,0:0:0:0:
64,192,98422,1,0,0:0:0:0:
475,192,98695,1,0,0:0:0:0:
64,192,98967,1,0,0:0:0:0:
475,192,99240,1,0,0:0:0:0:
64,192,99513,1,0,0:0:0:0:
329,192,99786,1,0,0:0:0:0:
64,192,100058,1,0,0:0:0:0:
402,192,100331,1,0,0:0:0:0:
182,192,100604,1,0,0:0:0:0:
329,192,100877,1,0,0:0:0:0:
182,192,101149,1,0,0:0:0:0:
475,192,101422,1,0,0:0:0:0:
182,192,101695,1,0,0:0:0:0:
329,192,101967,1,0,0:0:0:0:
182,192,102240,1,0,0:0:0:0:
329,192,102513,1,0,0:0:0:0:
182,192,102786,1,0,0:0:0:0:
329,192,103058,1,0,0:0:0:0:
182,192,103331,1,0,0:0:0:0:
402,192,103604,1,0,0:0:0:0:
182,192,103877,1,0,0:0:0:0:
329,192,104149,1,0,0:0:0:0:
182,192,104422,1,0,0:0:0:0:
475,192,104695,1,0,0:0:0:0:
182,192,104967,1,0,0:0:0:0:
329,192,105240,1,0,0:0:0:0:
182,192,105513,1,0,0:0:0:0:
329,192,105786,1,0,0:0:0:0:
182,192,106058,1,0,0:0:0:0:
329,192,106331,1,0,0:0:0:0:
182,192,106604,1,0,0:0:0:0:
402,192,106877,1,0,0:0:0:0:
182,192,107149,1,0,0:0:0:0:
329,192,107422,1,0,0:0:0:0:
182,192,107695,1,0,0:0:0:0:
475,192,107967,1,0,0:0:0:0:
182,192,108240,1,0,0:0:0:0:
329,192,108513,1,0,0:0:0:0:
182,192,108786,1,0,0:0:0:0:
329,192,109058,1,0,0:0:0:0:
182,192,109331,1,0,0:0:0:0:
329,192,109604,1,0,0:0:0:0:
182,192,109877,1,0,0:0:0:0:
402,192,110149,1,0,0:0:0:0:
182,192,110422,1,0,0:0:0:0:
329,192,110695,1,0,0:0:0:0:
182,192,110967,1,0,0:0:0:0:
64,192,111240,1,0,0:0:0:0:
182,192,111513,1,0,0:0:0:0:
329,192,111786,1,0,0:0:0:0:
182,192,112058,1,0,0:0:0:0:
329,192,112331,1,0,0:0:0:0:
182,192,112604,1,0,0:0:0:0:
329,192,112877,1,0,0:0:0:0:
182,192,113149,1,0,0:0:0:0:
475,192,113422,1,0,0:0:0:0:
182,192,113695,1,0,0:0:0:0:
329,192,113967,1,0,0:0:0:0:
192,192,114513,1,0,0:0:0:0:
475,192,115604,1,0,0:0:0:0:
329,192,116149,1,0,0:0:0:0:
402,192,116967,1,0,0:0:0:0:
329,192,117240,1,0,0:0:0:0:
182,192,117513,1,0,0:0:0:0:
109,192,117786,1,0,0:0:0:0:
329,192,118604,1,0,0:0:0:0:
402,192,118877,1,0,0:0:0:0:
192,192,119149,1,0,0:0:0:0:
320,192,119422,1,0,0:0:0:0:
64,192,119695,1,0,0:0:0:0:
448,192,119967,1,0,0:0:0:0:
329,192,121058,1,0,0:0:0:0:
402,192,122149,1,0,0:0:0:0:
320,192,122695,1,0,0:0:0:0:
182,192,123240,1,0,0:0:0:0:
256,192,123786,1,0,0:0:0:0:
448,192,124331,1,0,0:0:0:0:
402,192,126513,1,0,0:0:0:0:
320,192,127058,1,0,0:0:0:0:
182,192,127604,1,0,0:0:0:0:
402,192,128695,1,0,0:0:0:0:
329,192,129240,1,0,0:0:0:0:
475,192,130058,1,0,0:0:0:0:
182,192,130331,1,0,0:0:0:0:
329,192,130604,1,0,0:0:0:0:
402,192,130877,1,0,0:0:0:0:
402,192,131695,1,0,0:0:0:0:
329,192,131967,1,0,0:0:0:0:
109,192,132240,1,0,0:0:0:0:
402,192,132513,1,0,0:0:0:0:
182,192,132786,1,0,0:0:0:0:
402,192,133058,1,0,0:0:0:0:
329,192,134149,1,0,0:0:0:0:
402,192,135240,1,0,0:0:0:0:
192,192,135786,1,0,0:0:0:0:
329,192,136331,1,0,0:0:0:0:
402,192,136877,1,0,0:0:0:0:
182,192,137422,1,0,0:0:0:0:
475,192,138240,1,0,0:0:0:0:
64,192,138513,1,0,0:0:0:0:
182,192,139058,1,0,0:0:0:0:
109,192,142331,132,0,142877:0:0:0:0:
402,192,142877,128,0,143422:0:0:0:0:
182,192,143422,128,0,143967:0:0:0:0:
329,192,143967,128,0,144513:0:0:0:0:
182,192,144513,128,0,145058:0:0:0:0:
109,192,145058,128,0,145604:0:0:0:0:
329,192,145604,128,0,146695:0:0:0:0:
109,192,146695,128,0,146967:0:0:0:0:
182,192,146967,128,0,147240:0:0:0:0:
402,192,147240,128,0,148331:0:0:0:0:
329,192,148331,128,0,148877:0:0:0:0:
182,192,148877,128,0,149422:0:0:0:0:
109,192,149422,128,0,149967:0:0:0:0:
329,192,149967,128,0,150513:0:0:0:0:
109,192,150513,128,0,151604:0:0:0:0:
329,192,151604,128,0,151877:0:0:0:0:
448,192,151877,128,0,152149:0:0:0:0:
182,192,152149,128,0,152695:0:0:0:0:
182,192,152967,128,0,153240:0:0:0:0:
256,192,153240,128,0,153513:0:0:0:0:
448,192,153513,128,0,153786:0:0:0:0:
182,192,153786,128,0,154604:0:0:0:0:
109,192,154877,128,0,155149:0:0:0:0:
182,192,155149,128,0,155422:0:0:0:0:
329,192,155422,128,0,155967:0:0:0:0:
402,192,155967,128,0,156513:0:0:0:0:
192,192,156513,128,0,157058:0:0:0:0:
320,192,157058,128,0,157604:0:0:0:0:
448,192,157604,128,0,158149:0:0:0:0:
64,192,158149,128,0,158695:0:0:0:0:
192,192,158695,128,0,159786:0:0:0:0:
448,192,159786,128,0,160058:0:0:0:0:
320,192,160058,128,0,160331:0:0:0:0:
448,192,160331,128,0,161422:0:0:0:0:
192,192,161422,128,0,161967:0:0:0:0:
320,192,161967,128,0,162513:0:0:0:0:
475,192,162513,128,0,163058:0:0:0:0:
329,192,163058,128,0,163604:0:0:0:0:
402,192,163604,128,0,164149:0:0:0:0:
109,192,164149,128,0,164695:0:0:0:0:
192,192,164695,128,0,165240:0:0:0:0:
320,192,165240,128,0,166331:0:0:0:0:
402,192,166331,128,0,166604:0:0:0:0:
329,192,166604,128,0,166877:0:0:0:0:
448,192,166877,128,0,167967:0:0:0:0:
329,192,167967,128,0,168240:0:0:0:0:
192,192,168240,128,0,168513:0:0:0:0:
64,192,168513,128,0,169604:0:0:0:0:
402,192,169604,128,0,169877:0:0:0:0:
329,192,169877,128,0,170149:0:0:0:0:
402,192,170149,128,0,170695:0:0:0:0:
320,192,170695,128,0,171240:0:0:0:0:
192,192,171240,128,0,171786:0:0:0:0:
448,192,171786,128,0,172877:0:0:0:0:
329,192,172877,128,0,173149:0:0:0:0:
402,192,173149,128,0,173422:0:0:0:0:
329,192,173422,128,0,173967:0:0:0:0:
182,192,173967,128,0,174513:0:0:0:0:
109,192,174513,128,0,175058:0:0:0:0:
320,192,175058,128,0,178331:0:0:0:0:
192,192,178331,128,0,178604:0:0:0:0:
320,192,179967,128,0,180240:0:0:0:0:
448,192,181604,128,0,181877:0:0:0:0:
402,192,182286,128,0,182695:0:0:0:0:
182,192,182695,128,0,183240:0:0:0:0:
109,192,183240,128,0,183786:0:0:0:0:
448,192,183786,128,0,184331:0:0:0:0:
320,192,184331,128,0,184877:0:0:0:0:
109,192,184877,128,0,187604:0:0:0:0:
402,192,188149,1,0,0:0:0:0:
402,192,188967,1,0,0:0:0:0:
64,192,189240,1,0,0:0:0:0:
192,192,189513,1,0,0:0:0:0:
448,192,189786,1,0,0:0:0:0:
182,192,190331,1,0,0:0:0:0:
109,192,190877,1,0,0:0:0:0:
402,192,191422,1,0,0:0:0:0:
402,192,192240,1,0,0:0:0:0:
329,192,192513,1,0,0:0:0:0:
475,192,192786,1,0,0:0:0:0:
182,192,193058,1,0,0:0:0:0:
329,192,193331,1,0,0:0:0:0:
182,192,193604,1,0,0:0:0:0:
402,192,193877,1,0,0:0:0:0:
329,192,194149,1,0,0:0:0:0:
402,192,194695,1,0,0:0:0:0:
182,192,195786,1,0,0:0:0:0:
109,192,196195,1,0,0:0:0:0:
192,192,196740,1,0,0:0:0:0:
448,192,197558,1,0,0:0:0:0:
320,192,198649,1,0,0:0:0:0:
475,192,201240,1,0,0:0:0:0:
329,192,201377,1,0,0:0:0:0:
182,192,201513,128,0,204513:0:0:0:0:
