osu file format v14

[General]
AudioFilename: audio.mp3
AudioLeadIn: 0
PreviewTime: 44393
Countdown: 0
SampleSet: None
StackLeniency: 0.7
Mode: 0
LetterboxInBreaks: 0
WidescreenStoryboard: 0

[Editor]
Bookmarks: 10413,30005,44699,83883
DistanceSpacing: 1.6
BeatDivisor: 4
GridSize: 4
TimelineZoom: 1.2

[Metadata]
Title:Aishiteru
TitleUnicode:Aishiteru
Artist:Miura Sally,CLIFF EDGE
ArtistUnicode:Miura Sally,CLIFF EDGE
Creator:Kantzm8
Version:
Source:
Tags:
BeatmapID:1174938
BeatmapSetID:555084

[Difficulty]
HPDrainRate:6
CircleSize:4
OverallDifficulty:8.8
ApproachRate:9.4
SliderMultiplier:1.5
SliderTickRate:1

[Events]
//Background and Video events
0,0,"wallhaven-365296.jpg",0,0
//Break Periods
//Storyboard Layer 0 (Background)
//Storyboard Layer 1 (Fail)
//Storyboard Layer 2 (Pass)
//Storyboard Layer 3 (Foreground)
//Storyboard Sound Samples

[TimingPoints]
618,306.122448979592,4,2,1,100,1,0
618,-100,4,2,1,50,0,0
9189,-133.333333333333,4,2,1,50,0,0
10413,-90.9090909090909,4,2,2,50,0,0
18066,-90.9090909090909,4,2,2,5,0,0
18373,-90.9090909090909,4,2,2,50,0,0
18679,-90.9090909090909,4,2,2,5,0,0
18985,-90.9090909090909,4,2,2,50,0,0
19291,-90.9090909090909,4,2,2,5,0,0
19597,-90.9090909090909,4,2,2,50,0,0
19903,-90.9090909090909,4,2,2,5,0,0
20209,-90.9090909090909,4,2,2,60,0,0
25413,-90.9090909090909,4,2,2,5,0,0
25566,-90.9090909090909,4,2,2,60,0,0
25873,-90.9090909090909,4,2,2,5,0,0
26026,-90.9090909090909,4,2,2,60,0,0
26179,-90.9090909090909,4,2,2,5,0,0
26332,-90.9090909090909,4,2,2,60,0,0
26638,-90.9090909090909,4,2,2,5,0,0
26791,-90.9090909090909,4,2,2,60,0,0
27097,-90.9090909090909,4,2,2,5,0,0
27250,-90.9090909090909,4,2,2,60,0,0
30005,-80,4,2,2,70,0,0
44699,-71.4285714285714,4,2,2,90,0,1
83883,-90.9090909090909,4,2,2,50,0,0

[HitObjects]
88,268,618,6,0,P|136:272|184:256,1,75,2|0,0:0|0:0,0:0:0:0:
304,212,924,1,0,0:0:0:0:
72,108,1077,1,0,0:0:0:0:
300,304,1383,1,2,0:0:0:0:
316,304,1689,1,2,0:0:0:0:
264,164,1842,5,2,0:0:0:0:
161,266,1995,1,0,0:0:0:0:
172,124,2148,1,2,0:0:0:0:
252,252,2301,1,0,0:0:0:0:
76,144,2454,1,2,0:0:0:0:
264,164,2607,1,0,0:0:0:0:
48,264,2760,1,2,0:0:0:0:
172,124,2913,1,0,0:0:0:0:
340,236,3066,6,0,B|360:236|360:236|388:228|388:228|420:228,2,75,2|0|2,0:0|0:0|0:0,0:0:0:0:
192,272,3526,1,0,0:0:0:0:
332,112,3679,1,2,0:0:0:0:
200,184,3832,1,0,0:0:0:0:
324,100,3985,2,0,B|324:80|324:80|332:52|332:52|332:20,1,75,2|0,0:0|0:0,0:0:0:0:
112,196,4291,5,2,0:0:0:0:
440,316,4444,1,2,0:0:0:0:
112,208,4597,5,2,0:0:0:0:
376,232,4750,1,2,0:0:0:0:
112,220,4903,5,2,0:0:0:0:
308,144,5056,1,2,0:0:0:0:
112,232,5209,5,2,0:0:0:0:
228,72,5362,1,2,0:0:0:0:
376,232,5515,6,0,P|328:236|280:220,1,75,2|0,0:0|0:0,0:0:0:0:
176,148,5822,1,2,0:0:0:0:
424,80,5975,1,0,0:0:0:0:
176,296,6281,1,2,0:0:0:0:
192,296,6587,1,2,0:0:0:0:
296,191,6740,6,0,L|399:200,2,75,2|0|2,0:0|0:0|0:0,0:0:0:0:
144,96,7199,1,0,0:0:0:0:
472,188,7352,1,2,0:0:0:0:
212,156,7505,1,0,0:0:0:0:
452,52,7658,1,2,0:0:0:0:
296,191,7811,1,0,0:0:0:0:
416,304,7964,6,0,L|519:313,2,75,2|0|2,0:0|0:0|0:0,0:0:0:0:
294,317,8424,2,0,P|262:237|306:185,1,150
440,148,8883,1,2,0:0:0:0:
416,304,9036,1,0,0:0:0:0:
295,190,9189,2,0,B|212:148|180:184|144:212|60:180,1,225.000008583069,2|0,0:0|0:0,0:0:0:0:
76,185,10107,5,0,0:0:0:0:
76,185,10260,1,0,0:0:0:0:
216,100,10413,2,0,P|264:92|312:108,1,82.5000025177003,8|0,0:0|0:0,0:0:0:0:
456,152,10720,1,2,0:0:0:0:
376,284,10873,2,0,P|328:292|280:276,1,82.5000025177003,8|0,0:0|0:0,0:0:0:0:
216,100,11179,2,0,P|264:92|312:108,1,82.5000025177003,8|0,0:0|0:0,0:0:0:0:
223,262,11485,1,0,0:0:0:0:
120,124,11638,6,0,L|111:24,1,82.5000025177003,8|0,0:0|0:0,0:0:0:0:
216,180,11944,2,0,L|224:279,1,82.5000025177003,2|0,0:0|0:0,0:0:0:0:
80,192,12250,1,8,0:0:0:0:
248,96,12403,1,0,0:0:0:0:
222,262,12556,1,2,0:0:0:0:
392,200,12709,1,2,0:0:0:0:
392,200,12786,1,0,0:0:0:0:
392,200,12862,6,0,B|396:92|372:20,1,165.000005035401,8|8,0:0|0:0,0:0:0:0:
248,96,13322,2,0,L|148:87,1,82.5000025177003,8|0,0:0|0:0,0:0:0:0:
304,192,13628,2,0,L|403:200,1,82.5000025177003,8|0,0:0|0:0,0:0:0:0:
144,216,13934,1,0,0:0:0:0:
296,273,14087,6,0,P|305:212|301:180,1,82.5000025177003,8|0,0:0|0:0,0:0:0:0:
168,100,14393,2,0,P|107:91|75:95,1,82.5000025177003,8|0,0:0|0:0,0:0:0:0:
214,265,14699,2,0,P|275:274|307:270,1,82.5000025177003,8|0,0:0|0:0,0:0:0:0:
249,107,15005,2,0,P|188:98|156:102,1,82.5000025177003,8|0,0:0|0:0,0:0:0:0:
136,260,15311,6,0,P|148:308|264:328,1,165.000005035401,8|0,0:0|0:0,0:0:0:0:
172,192,15771,2,0,P|124:184|80:204,1,82.5000025177003,8|0,0:0|0:0,0:0:0:0:
214,265,16077,2,0,P|262:273|306:253,1,82.5000025177003,8|0,0:0|0:0,0:0:0:0:
440,124,16383,1,8,0:0:0:0:
172,192,16536,5,0,0:0:0:0:
352,36,17148,1,0,0:0:0:0:
172,192,17454,2,0,L|275:201,1,82.5000025177003,2|0,0:0|0:0,0:0:0:0:
124,132,17760,6,0,P|100:168|160:268,1,165.000005035401,8|0,0:0|0:0,0:0:0:0:
432,88,18373,2,0,B|380:68|352:96|312:104|248:88,1,165.000005035401,8|0,0:0|0:0,0:0:0:0:
168,232,18985,2,0,P|281:233|344:252,1,165.000005035401,8|0,0:0|0:0,0:0:0:0:
224,128,19597,2,0,P|110:126|48:108,1,165.000005035401,8|0,0:0|0:0,0:0:0:0:
320,240,20209,6,0,P|320:296|212:332,1,165.000005035401,8|0,0:0|0:0,0:0:0:0:
376,144,20669,2,0,L|476:135,1,82.5000025177003,8|0,0:0|0:0,0:0:0:0:
320,240,20975,2,0,L|221:248,1,82.5000025177003,8|0,0:0|0:0,0:0:0:0:
136,116,21281,1,2,0:0:0:0:
292,60,21434,6,0,P|353:51|385:55,1,82.5000025177003,8|0,0:0|0:0,0:0:0:0:
416,212,21740,2,0,P|425:273|421:305,1,82.5000025177003,2|0,0:0|0:0,0:0:0:0:
237,246,22046,1,8,0:0:0:0:
237,246,22352,2,0,L|138:254,1,82.5000025177003,2|0,0:0|0:0,0:0:0:0:
288,136,22658,6,0,L|387:128,1,82.5000025177003,8|0,0:0|0:0,0:0:0:0:
204,96,22964,1,2,0:0:0:0:
154,252,23118,2,0,L|143:344,1,82.5000025177003,8|0,0:0|0:0,0:0:0:0:
144,333,23577,2,0,P|205:342|237:338,1,82.5000025177003,2|0,0:0|0:0,0:0:0:0:
424,244,23883,5,8,0:0:0:0:
264,124,24036,1,2,0:0:0:0:
225,340,24189,5,8,0:0:0:0:
324,208,24342,1,2,0:0:0:0:
96,208,24495,5,8,0:0:0:0:
264,124,24648,1,2,0:0:0:0:
324,308,24801,5,8,0:0:0:0:
200,200,24954,1,2,0:0:0:0:
339,45,25107,6,0,P|337:159|319:221,1,165.000005035401,8|0,0:0|0:0,0:0:0:0:
184,362,25566,2,0,P|186:248|204:186,1,165.000005035401,8|0,0:0|0:0,0:0:0:0:
405,300,26026,2,0,P|344:309|312:305,1,82.5000025177003,8|0,0:0|0:0,0:0:0:0:
199,199,26332,6,0,P|112:180|28:204,1,165.000005035401,8|0,0:0|0:0,0:0:0:0:
164,305,26791,2,0,P|251:324|335:300,1,165.000005035401,8|0,0:0|0:0,0:0:0:0:
456,176,27250,1,8,0:0:0:0:
456,176,27556,6,0,B|332:176|332:176|380:148,1,165.000005035401,8|0,0:0|0:0,0:0:0:0:
199,199,28015,2,0,B|199:75|199:75|227:123,1,165.000005035401,8|0,0:0|0:0,0:0:0:0:
220,276,28475,2,0,P|172:272|136:248,1,82.5000025177003,8|0,0:0|0:0,0:0:0:0:
219,110,28781,6,0,P|306:129|390:105,1,165.000005035401,8|0,0:0|0:0,0:0:0:0:
264,24,29240,1,2,0:0:0:0:
220,276,29393,2,0,L|211:375,1,82.5000025177003,8|0,0:0|0:0,0:0:0:0:
371,193,29699,2,0,L|379:93,1,82.5000025177003,8|0,0:0|0:0,0:0:0:0:
188,200,30005,6,0,P|128:200|88:212,1,93.75,8|0,0:0|0:0,0:0:0:0:
264,348,30311,1,2,0:0:0:0:
371,193,30464,1,0,0:0:0:0:
132,112,30618,2,0,L|28:84,1,93.75,8|0,0:0|0:0,0:0:0:0:
188,200,30924,1,2,0:0:0:0:
379,100,31077,6,0,P|379:160|367:200,1,93.75,8|0,0:0|0:0,0:0:0:0:
179,292,31383,2,0,P|179:232|191:192,1,93.75,8|0,0:0|0:0,0:0:0:0:
256,40,31689,1,2,0:0:0:0:
359,298,31842,2,0,P|272:317|173:288,1,187.5,8|8,0:0|0:0,0:0:0:0:
52,156,32301,1,2,0:0:0:0:
268,120,32454,6,0,P|328:120|368:132,1,93.75,8|0,0:0|0:0,0:0:0:0:
500,260,32760,1,2,0:0:0:0:
276,213,32913,1,0,0:0:0:0:
492,64,33066,1,8,0:0:0:0:
416,264,33220,1,0,0:0:0:0:
268,120,33373,2,0,P|208:120|168:132,1,93.75,2|0,0:0|0:0,0:0:0:0:
276,213,33679,6,0,L|383:203,1,93.75,8|0,0:0|0:0,0:0:0:0:
236,336,33985,2,0,L|128:345,1,93.75,2|0,0:0|0:0,0:0:0:0:
276,213,34291,2,0,L|266:105,1,93.75,8|0,0:0|0:0,0:0:0:0:
104,60,34597,1,2,0:0:0:0:
84,200,34750,1,0,0:0:0:0:
268,120,34903,6,0,P|328:120|368:132,1,93.75,8|0,0:0|0:0,0:0:0:0:
176,208,35209,2,0,P|116:208|76:196,1,93.75,2|0,0:0|0:0,0:0:0:0:
276,27,35515,2,0,P|276:87|264:127,1,93.75,8|0,0:0|0:0,0:0:0:0:
168,288,35822,1,2,0:0:0:0:
116,108,35975,1,0,0:0:0:0:
320,244,36128,5,8,0:0:0:0:
83,199,36281,1,0,0:0:0:0:
280,176,36434,2,0,P|332:168|376:188,1,93.75,2|0,0:0|0:0,0:0:0:0:
168,288,36740,2,0,P|116:296|72:276,1,93.75,8|0,0:0|0:0,0:0:0:0:
116,108,37046,1,2,0:0:0:0:
240,248,37199,1,0,0:0:0:0:
384,132,37352,6,0,P|385:85|375:39,1,93.75,8|0,0:0|0:0,0:0:0:0:
231,155,37658,2,0,P|229:201|239:247,1,93.75,2|0,0:0|0:0,0:0:0:0:
404,336,37964,1,8,0:0:0:0:
324,192,38118,1,0,0:0:0:0:
184,316,38271,1,2,0:0:0:0:
231,155,38424,1,0,0:0:0:0:
24,220,38577,5,8,0:0:0:0:
256,240,38730,1,0,0:0:0:0:
72,352,38883,1,2,0:0:0:0:
88,148,39036,1,0,0:0:0:0:
184,316,39189,2,0,P|236:336|284:324,2,93.75,8|0|2,0:0|0:0|0:0,0:0:0:0:
28,212,39648,1,2,0:0:0:0:
28,212,39725,1,0,0:0:0:0:
28,212,39801,5,8,0:0:0:0:
28,212,40107,1,2,0:0:0:0:
228,245,40260,2,0,P|364:248|444:236,1,187.5,8|0,0:0|0:0,0:0:0:0:
414,241,40873,1,2,0:0:0:0:
232,144,41026,6,0,L|120:134,1,93.75,8|0,0:0|0:0,0:0:0:0:
228,245,41332,2,0,L|339:254,1,93.75,2|0,0:0|0:0,0:0:0:0:
138,135,41638,2,0,L|147:23,1,93.75,8|0,0:0|0:0,0:0:0:0:
228,245,41944,2,0,L|218:356,1,93.75,2|0,0:0|0:0,0:0:0:0:
380,240,42250,6,0,P|399:153|370:54,1,187.5,8|0,0:0|0:0,0:0:0:0:
228,245,42862,2,0,P|141:264|42:235,1,187.5,8|0,0:0|0:0,0:0:0:0:
304,212,43475,6,0,P|305:265|292:320,1,93.75,8|0,0:0|0:0,0:0:0:0:
184,156,43781,2,0,P|130:157|76:144,1,93.75,8|0,0:0|0:0,0:0:0:0:
272,100,44087,2,0,P|270:46|284:-8,1,93.75,8|0,0:0|0:0,0:0:0:0:
384,164,44393,2,0,P|437:162|492:176,1,93.75,8|0,0:0|0:0,0:0:0:0:
116,272,44699,6,0,B|172:272|172:272|248:260|248:260|332:260,1,209.999993591309,8|0,0:0|0:0,0:0:0:0:
380,80,45158,1,2,0:0:0:0:
168,136,45311,2,0,B|8:136|8:136|64:96,1,209.999993591309,8|0,0:0|0:0,0:0:0:0:
240,28,45771,1,2,0:0:0:0:
432,244,45924,6,0,B|360:204|332:248|272:268|216:244,1,209.999993591309,8|0,0:0|0:0,0:0:0:0:
40,164,46383,1,2,0:0:0:0:
312,72,46536,2,0,P|396:72|336:144,1,209.999993591309,8|0,0:0|0:0,0:0:0:0:
160,60,46995,1,2,0:0:0:0:
432,244,47148,6,0,B|376:244|376:244|300:232|300:232|216:232,1,209.999993591309,8|0,0:0|0:0,0:0:0:0:
40,164,47607,1,2,0:0:0:0:
229,117,47760,2,0,B|389:117|389:117|333:157,1,209.999993591309,8|2,0:0|0:0,0:0:0:0:
220,256,48220,1,2,0:0:0:0:
72,44,48373,5,8,0:0:0:0:
348,146,48526,1,2,0:0:0:0:
196,28,48679,5,8,0:0:0:0:
220,256,48832,1,2,0:0:0:0:
424,196,48985,5,8,0:0:0:0:
220,148,49138,1,2,0:0:0:0:
416,84,49291,5,8,0:0:0:0:
336,252,49444,1,2,0:0:0:0:
128,230,49597,6,0,P|128:118|104:14,1,209.999993591309,8|0,0:0|0:0,0:0:0:0:
272,60,50056,1,2,0:0:0:0:
336,252,50209,2,0,P|224:252|120:228,1,209.999993591309,8|0,0:0|0:0,0:0:0:0:
280,156,50669,1,2,0:0:0:0:
408,264,50822,6,0,P|372:320|260:264,1,209.999993591309,8|2,0:0|0:0,0:0:0:0:
392,96,51281,1,2,0:0:0:0:
336,252,51434,1,8,0:0:0:0:
224,84,51587,1,0,0:0:0:0:
436,116,51740,1,2,0:0:0:0:
192,168,51893,1,0,0:0:0:0:
352,276,52046,6,0,L|459:285,1,104.999996795654,8|0,0:0|0:0,0:0:0:0:
324,180,52352,1,2,0:0:0:0:
292,352,52505,1,0,0:0:0:0:
192,168,52658,1,8,0:0:0:0:
192,168,52964,1,8,0:0:0:0:
352,276,53118,1,2,0:0:0:0:
184,256,53271,5,8,0:0:0:0:
344,120,53424,1,2,0:0:0:0:
272,332,53577,1,8,0:0:0:0:
192,168,53730,1,2,0:0:0:0:
352,276,53883,1,8,0:0:0:0:
240,92,54036,1,2,0:0:0:0:
184,256,54189,1,8,0:0:0:0:
424,184,54342,1,2,0:0:0:0:
48,296,54495,6,0,P|48:184|72:80,1,209.999993591309,8|0,0:0|0:0,0:0:0:0:
212,176,54954,1,2,0:0:0:0:
336,64,55107,2,0,P|420:64|360:136,1,209.999993591309,8|0,0:0|0:0,0:0:0:0:
216,84,55566,1,2,0:0:0:0:
384,272,55720,6,0,P|388:355|313:299,1,209.999993591309,8|0,0:0|0:0,0:0:0:0:
304,144,56179,1,2,0:0:0:0:
220,288,56332,2,0,B|148:248|120:292|60:312|4:288,1,209.999993591309,8|0,0:0|0:0,0:0:0:0:
92,144,56791,1,2,0:0:0:0:
220,288,56944,6,0,B|263:307|323:287|351:243|423:283,1,209.999993591309,8|0,0:0|0:0,0:0:0:0:
276,368,57403,1,2,0:0:0:0:
284,200,57556,2,0,B|284:40|284:40|244:96,1,209.999993591309,8|0,0:0|0:0,0:0:0:0:
148,212,58015,1,2,0:0:0:0:
276,368,58169,5,8,0:0:0:0:
388,244,58322,1,2,0:0:0:0:
188,300,58475,1,8,0:0:0:0:
336,168,58628,1,2,0:0:0:0:
352,336,58781,1,8,0:0:0:0:
244,152,58934,1,2,0:0:0:0:
384,328,59087,1,8,0:0:0:0:
184,216,59240,1,2,0:0:0:0:
384,64,59393,6,0,P|272:64|168:88,1,209.999993591309,8|0,0:0|0:0,0:0:0:0:
40,184,59852,1,2,0:0:0:0:
176,349,60005,2,0,P|288:349|392:325,1,209.999993591309,8|0,0:0|0:0,0:0:0:0:
472,188,60464,1,2,0:0:0:0:
292,132,60618,6,0,B|236:132|236:132|160:120|160:120|76:120,1,209.999993591309,8|0,0:0|0:0,0:0:0:0:
72,288,61077,1,0,0:0:0:0:
220,208,61230,1,8,0:0:0:0:
144,356,61383,1,0,0:0:0:0:
132,188,61536,1,2,0:0:0:0:
288,312,61689,1,0,0:0:0:0:
356,156,61842,6,0,L|365:48,1,104.999996795654,8|0,0:0|0:0,0:0:0:0:
236,160,62148,1,2,0:0:0:0:
432,276,62301,1,0,0:0:0:0:
268,240,62454,1,8,0:0:0:0:
428,196,62607,1,0,0:0:0:0:
236,160,62760,2,0,L|128:150,1,104.999996795654,2|0,0:0|0:0,0:0:0:0:
164,316,63066,5,8,0:0:0:0:
344,152,63220,1,0,0:0:0:0:
400,356,63373,1,8,0:0:0:0:
236,160,63526,1,0,0:0:0:0:
452,280,63679,1,8,0:0:0:0:
136,236,63832,1,0,0:0:0:0:
344,152,63985,1,8,0:0:0:0:
172,348,64138,1,0,0:0:0:0:
32,155,64291,6,0,B|104:115|132:159|192:179|248:155,1,209.999993591309,8|2,0:0|0:0,0:0:0:0:
388,84,64750,1,0,0:0:0:0:
332,244,64903,2,0,L|192:256,1,104.999996795654,8|0,0:0|0:0,0:0:0:0:
380,328,65209,2,0,L|519:315,1,104.999996795654,2|0,0:0|0:0,0:0:0:0:
392,176,65515,5,8,0:0:0:0:
296,332,65669,2,0,L|156:344,1,104.999996795654,2|2,0:0|0:0,0:0:0:0:
36,272,65975,1,0,0:0:0:0:
260,160,66128,1,8,0:0:0:0:
260,160,66434,2,0,P|248:100|260:36,1,104.999996795654,2|0,0:0|0:0,0:0:0:0:
332,208,66740,6,0,P|284:240|176:156,1,209.999993591309,8|0,0:0|0:0,0:0:0:0:
340,128,67199,2,0,P|400:164|352:288,1,209.999993591309,8|0,0:0|0:0,0:0:0:0:
196,336,67658,2,0,P|184:276|196:212,1,104.999996795654,8|0,0:0|0:0,0:0:0:0:
252,76,67964,5,8,0:0:0:0:
304,296,68118,1,2,0:0:0:0:
152,144,68271,1,8,0:0:0:0:
340,128,68424,1,2,0:0:0:0:
160,268,68577,1,8,0:0:0:0:
252,76,68730,1,2,0:0:0:0:
404,268,68883,1,8,0:0:0:0:
104,208,69036,1,2,0:0:0:0:
340,128,69189,6,0,P|408:96|344:148,1,209.999993591309,8|2,0:0|0:0,0:0:0:0:
204,152,69648,1,0,0:0:0:0:
324,32,69801,2,0,P|384:16|448:36,1,104.999996795654,8|0,0:0|0:0,0:0:0:0:
370,170,70107,1,2,0:0:0:0:
212,40,70260,1,0,0:0:0:0:
408,104,70413,6,0,P|444:148|352:244,1,209.999993591309,8|2,0:0|0:0,0:0:0:0:
204,152,70873,1,0,0:0:0:0:
324,32,71026,1,8,0:0:0:0:
370,170,71179,1,0,0:0:0:0:
212,40,71332,1,2,0:0:0:0:
408,104,71485,1,0,0:0:0:0:
310,333,71638,6,0,L|194:135,1,209.999993591309,8|2,0:0|0:0,0:0:0:0:
36,172,72097,1,0,0:0:0:0:
100,314,72250,2,0,L|324:334,1,209.999993591309,8|2,0:0|0:0,0:0:0:0:
452,244,72709,1,0,0:0:0:0:
336,120,72862,5,8,0:0:0:0:
128,220,73015,1,2,0:0:0:0:
128,220,73092,1,0,0:0:0:0:
128,220,73169,1,8,0:0:0:0:
352,152,73322,1,0,0:0:0:0:
140,68,73475,2,0,L|-4:28,1,104.999996795654,8|0,0:0|0:0,0:0:0:0:
172,140,73781,1,2,0:0:0:0:
352,48,73934,1,2,0:0:0:0:
352,48,74010,1,0,0:0:0:0:
348,44,74087,6,0,B|388:116|344:144|324:204|348:260,1,209.999993591309,8|2,0:0|0:0,0:0:0:0:
196,320,74546,1,0,0:0:0:0:
172,140,74699,2,0,L|162:32,1,104.999996795654,8|0,0:0|0:0,0:0:0:0:
260,172,75005,2,0,L|269:279,1,104.999996795654,2|0,0:0|0:0,0:0:0:0:
420,188,75311,6,0,P|432:120|404:76,1,104.999996795654,8|0,0:0|0:0,0:0:0:0:
260,20,75618,1,2,0:0:0:0:
360,140,75771,1,0,0:0:0:0:
269,276,75924,2,0,P|201:288|157:260,1,104.999996795654,8|0,0:0|0:0,0:0:0:0:
56,124,76230,1,2,0:0:0:0:
220,216,76383,1,2,0:0:0:0:
220,216,76459,1,0,0:0:0:0:
220,216,76536,6,0,B|240:156|232:88|232:88|256:112|308:120,1,209.999993591309,8|2,0:0|0:0,0:0:0:0:
468,160,76995,1,0,0:0:0:0:
321,241,77148,2,0,P|241:225|181:193,1,104.999996795654,8|0,0:0|0:0,0:0:0:0:
366,134,77454,2,0,P|446:150|506:182,1,104.999996795654,2|0,0:0|0:0,0:0:0:0:
388,308,77760,5,8,0:0:0:0:
280,132,77913,1,2,0:0:0:0:
464,244,78066,5,8,0:0:0:0:
264,264,78220,1,2,0:0:0:0:
467,159,78373,5,8,0:0:0:0:
280,132,78526,1,2,0:0:0:0:
388,308,78679,5,8,0:0:0:0:
376,120,78832,1,2,0:0:0:0:
172,208,78985,6,0,L|48:208,2,104.999996795654,8|0|2,0:0|0:0|0:0,0:0:0:0:
376,120,79444,1,0,0:0:0:0:
264,264,79597,2,0,L|264:412,2,104.999996795654,8|0|2,0:0|0:0|0:0,0:0:0:0:
176,120,80056,1,2,0:0:0:0:
312,64,80209,5,8,0:0:0:0:
336,240,80362,1,2,0:0:0:0:
464,136,80515,1,8,0:0:0:0:
296,148,80669,1,2,0:0:0:0:
300,312,80822,1,8,0:0:0:0:
440,232,80975,1,2,0:0:0:0:
240,228,81128,1,8,0:0:0:0:
384,144,81281,1,2,0:0:0:0:
384,144,81357,1,0,0:0:0:0:
384,144,81434,6,0,L|384:24,1,104.999996795654,8|0,0:0|0:0,0:0:0:0:
440,232,81740,1,2,0:0:0:0:
240,228,81893,2,0,L|120:228,1,104.999996795654,0|8,0:0|0:0,0:0:0:0:
128,60,82199,1,0,0:0:0:0:
288,168,82352,2,0,P|316:224|292:288,1,104.999996795654,2|0,0:0|0:0,0:0:0:0:
120,352,82658,5,8,0:0:0:0:
112,172,82811,1,2,0:0:0:0:
112,172,82888,1,0,0:0:0:0:
112,172,82964,1,8,0:0:0:0:
248,72,83118,1,0,0:0:0:0:
308,263,83271,1,8,0:0:0:0:
196,140,83424,1,0,0:0:0:0:
408,200,83577,1,2,0:0:0:0:
336,352,83730,1,2,0:0:0:0:
336,352,83806,1,0,0:0:0:0:
336,352,83883,5,8,0:0:0:0:
224,280,84036,1,0,0:0:0:0:
324,184,84189,1,2,0:0:0:0:
196,140,84342,2,0,P|135:131|103:135,1,82.5000025177003,0|8,0:0|0:0,0:0:0:0:
72,260,84648,1,0,0:0:0:0:
224,280,84801,1,2,0:0:0:0:
72,276,84954,1,0,0:0:0:0:
224,292,85107,5,8,0:0:0:0:
324,184,85260,2,0,P|385:175|417:179,1,82.5000025177003,0|2,0:0|0:0,0:0:0:0:
484,344,85566,1,0,0:0:0:0:
316,312,85720,1,8,0:0:0:0:
424,264,85873,1,0,0:0:0:0:
324,184,86026,1,2,0:0:0:0:
224,292,86179,1,0,0:0:0:0:
136,196,86332,6,0,B|132:88|156:16,1,165.000005035401,8|2,0:0|0:0,0:0:0:0:
276,76,86791,1,0,0:0:0:0:
276,76,87097,1,0,0:0:0:0:
404,212,87250,1,0,0:0:0:0:
352,36,87403,1,0,0:0:0:0:
236,172,87556,5,0,0:0:0:0:
424,132,87709,1,0,0:0:0:0:
348,284,87862,1,0,0:0:0:0:
336,132,88015,1,0,0:0:0:0:
212,268,88169,1,0,0:0:0:0:
164,104,88322,1,0,0:0:0:0:
304,216,88475,1,0,0:0:0:0:
144,196,88628,1,0,0:0:0:0:
268,348,88781,5,0,0:0:0:0:
304,120,89546,5,0,0:0:0:0:
108,84,89699,1,0,0:0:0:0:
304,120,89852,1,0,0:0:0:0:
108,84,90005,5,0,0:0:0:0:
304,120,90158,1,0,0:0:0:0:
112,176,90311,1,0,0:0:0:0:
232,48,90464,1,0,0:0:0:0:
208,224,90618,1,0,0:0:0:0:
344,48,90771,1,0,0:0:0:0:
320,224,90924,1,0,0:0:0:0:
112,176,91077,1,0,0:0:0:0:
304,120,91230,5,0,0:0:0:0:
280,304,91383,1,0,0:0:0:0:
396,124,91536,1,0,0:0:0:0:
208,224,91689,1,0,0:0:0:0:
208,224,91995,1,0,0:0:0:0:
88,168,92148,1,0,0:0:0:0:
128,292,92301,1,0,0:0:0:0:
188,128,92454,5,0,0:0:0:0:
328,72,92607,1,0,0:0:0:0:
328,204,92760,1,0,0:0:0:0:
224,40,92913,1,0,0:0:0:0:
224,208,93066,6,0,L|228:308,2,55.0000016784668
328,72,93373,2,0,L|428:76,2,55.0000016784668
188,128,93679,1,0,0:0:0:0:
