osu file format v14

[General]
AudioFilename: audio.mp3
AudioLeadIn: 0
PreviewTime: 44393
Countdown: 0
SampleSet: None
StackLeniency: 0.7
Mode: 0
LetterboxInBreaks: 0
WidescreenStoryboard: 1

[Editor]
Bookmarks: 10413,30005,44699,83883
DistanceSpacing: 1.2
BeatDivisor: 4
GridSize: 4
TimelineZoom: 1.2

[Metadata]
Title:Aishiteru
TitleUnicode:Aishiteru
Artist:Miura Sally,CLIFF EDGE
ArtistUnicode:Miura Sally,CLIFF EDGE
Creator:Kantzm8
Version:Hard
Source:
Tags:
BeatmapID:1174937
BeatmapSetID:555084

[Difficulty]
HPDrainRate:5
CircleSize:3.8
OverallDifficulty:7
ApproachRate:8
SliderMultiplier:1.4
SliderTickRate:1

[Events]
//Background and Video events
0,0,"wallhaven-365296.jpg",0,0
//Break Periods
//Storyboard Layer 0 (Background)
//Storyboard Layer 1 (Fail)
//Storyboard Layer 2 (Pass)
//Storyboard Layer 3 (Foreground)
//Storyboard Sound Samples

[TimingPoints]
618,306.122448979592,4,2,1,100,1,0
618,-100,4,2,1,50,0,0
9189,-133.333333333333,4,2,1,50,0,0
10413,-100,4,2,2,50,0,0
18066,-100,4,2,2,5,0,0
18373,-100,4,2,2,50,0,0
18679,-100,4,2,2,5,0,0
18985,-100,4,2,2,50,0,0
19291,-100,4,2,2,5,0,0
19597,-100,4,2,2,50,0,0
19903,-100,4,2,2,5,0,0
20209,-100,4,2,2,60,0,0
25413,-100,4,2,2,5,0,0
25566,-100,4,2,2,60,0,0
25873,-100,4,2,2,5,0,0
26026,-100,4,2,2,60,0,0
26179,-100,4,2,2,5,0,0
26332,-100,4,2,2,60,0,0
26638,-100,4,2,2,5,0,0
26791,-100,4,2,2,60,0,0
27097,-100,4,2,2,5,0,0
27250,-100,4,2,2,60,0,0
30005,-80,4,2,2,70,0,0
44699,-71.4285714285714,4,2,2,90,0,1
83883,-90.9090909090909,4,2,2,50,0,0

[HitObjects]
72,116,618,6,0,P|104:108|160:128,1,70
220,132,924,1,0,0:0:0:0:
304,164,1077,1,0,0:0:0:0:
156,244,1383,1,0,0:0:0:0:
304,324,1689,1,0,0:0:0:0:
380,288,1842,6,0,P|388:320|368:376,2,70
332,220,2301,1,0,0:0:0:0:
252,244,2454,2,0,L|164:251,1,70
116,196,2760,2,0,L|108:108,1,70
172,68,3066,6,0,B|216:40|256:80|336:64,1,140
392,44,3526,1,0,0:0:0:0:
448,104,3679,2,0,L|455:191,1,70
400,240,3985,2,0,L|312:247,1,70
220,256,4291,6,0,P|220:200|212:168,1,70
168,120,4597,1,0,0:0:0:0:
88,152,4750,1,0,0:0:0:0:
28,224,4903,2,0,P|28:280|36:312,1,70
100,344,5209,1,0,0:0:0:0:
184,356,5362,1,0,0:0:0:0:
276,324,5515,6,0,P|276:268|268:236,1,70
212,196,5822,2,0,P|212:140|220:108,1,70
364,48,6281,1,0,0:0:0:0:
412,208,6587,1,0,0:0:0:0:
336,172,6740,6,0,P|328:204|348:260,2,70
372,96,7199,1,0,0:0:0:0:
447,148,7352,2,0,P|420:198|392:222,1,70
335,239,7658,2,0,P|285:212|261:184,1,70
224,128,7964,6,0,P|168:128|136:136,1,70
72,144,8271,1,0,0:0:0:0:
52,244,8424,1,0,0:0:0:0:
204,312,8730,1,0,0:0:0:0:
364,256,9036,1,0,0:0:0:0:
304,184,9189,6,0,B|236:148|176:212|80:184,1,210.000008010865
132,68,10107,5,0,0:0:0:0:
132,68,10260,1,0,0:0:0:0:
208,36,10413,6,0,B|320:36|320:36|292:56,1,140
244,116,10873,2,0,B|244:228|244:228|264:200,1,140
396,108,11485,1,0,0:0:0:0:
428,184,11638,6,0,P|396:192|340:172,1,70
311,116,11944,2,0,P|279:108|223:128,1,70
88,176,12403,1,0,0:0:0:0:
52,252,12556,2,0,P|84:260|140:240,1,70
192,200,12862,6,0,B|236:172|276:212|356:196,1,140
408,168,13322,2,0,P|381:118|353:94,1,70
312,52,13628,2,0,P|256:52|224:60,1,70
144,88,13934,1,0,0:0:0:0:
108,164,14087,6,0,P|140:172|196:152,1,70
252,132,14393,2,0,P|260:164|240:220,1,70
208,272,14699,2,0,P|176:280|120:260,1,70
72,223,15005,2,0,P|99:173|127:149,1,70
188,88,15311,6,0,P|264:56|320:96,1,140
380,128,15771,2,0,P|380:184|372:216,1,70
348,276,16077,2,0,P|292:276|260:268,1,70
204,236,16383,1,0,0:0:0:0:
140,180,16536,6,0,P|128:100|144:32,2,140
140,180,17454,6,0,P|148:216|152:272,1,70
160,332,17760,2,0,P|192:340|308:332,1,140
277,182,18373,2,0,P|245:174|129:182,1,140
274,319,18985,2,0,P|282:287|274:171,1,140
139,179,19597,2,0,P|131:211|139:327,1,140
72,136,20209,6,0,P|136:100|200:128,1,140
260,176,20669,2,0,P|316:176|348:168,1,70
420,144,20975,2,0,P|420:88|412:56,1,70
336,52,21281,1,0,0:0:0:0:
257,106,21434,6,0,P|257:162|265:194,1,70
324,228,21740,2,0,P|324:284|316:316,1,70
252,344,22046,1,0,0:0:0:0:
112,248,22352,1,0,0:0:0:0:
92,168,22505,1,0,0:0:0:0:
187,100,22658,6,0,L|275:107,1,70
332,140,22964,1,0,0:0:0:0:
416,140,23118,2,0,P|400:192|300:212,1,140
244,204,23577,2,0,L|156:211,1,70
92,168,23883,6,0,P|92:112|100:80,1,70
156,40,24189,1,0,0:0:0:0:
240,32,24342,1,0,0:0:0:0:
320,60,24495,2,0,P|320:116|312:148,1,70
268,196,24801,1,0,0:0:0:0:
204,248,24954,1,0,0:0:0:0:
