osu file format v14

[General]
AudioFilename: audio.mp3
AudioLeadIn: 0
PreviewTime: 44393
Countdown: 0
SampleSet: None
StackLeniency: 0.7
Mode: 0
LetterboxInBreaks: 0
WidescreenStoryboard: 1

[Editor]
Bookmarks: 10413,30005,44699,83883
DistanceSpacing: 1
BeatDivisor: 4
GridSize: 4
TimelineZoom: 1.2

[Metadata]
Title:Aishiteru
TitleUnicode:Aishiteru
Artist:Miura Sally,CLIFF EDGE
ArtistUnicode:Miura Sally,CLIFF EDGE
Creator:Kantzm8
Version:Easy
Source:
Tags:
BeatmapID:1174936
BeatmapSetID:555084

[Difficulty]
HPDrainRate:2
CircleSize:3
OverallDifficulty:2
ApproachRate:3
SliderMultiplier:0.9
SliderTickRate:1

[Events]
//Background and Video events
0,0,"wallhaven-365296.jpg",0,0
//Break Periods
//Storyboard Layer 0 (Background)
//Storyboard Layer 1 (Fail)
//Storyboard Layer 2 (Pass)
//Storyboard Layer 3 (Foreground)
//Storyboard Sound Samples

[TimingPoints]
618,306.122448979592,4,2,1,100,1,0
618,-100,4,2,1,50,0,0
9189,-100,4,2,1,50,0,0
10413,-100,4,2,1,50,0,0
18066,-100,4,2,1,5,0,0
18373,-100,4,2,1,50,0,0
18679,-100,4,2,1,5,0,0
18985,-100,4,2,1,50,0,0
19291,-100,4,2,1,5,0,0
19597,-100,4,2,1,50,0,0
19903,-100,4,2,1,5,0,0
20209,-100,4,2,1,60,0,0
25413,-100,4,2,1,5,0,0
25566,-100,4,2,1,60,0,0
25873,-100,4,2,1,5,0,0
26026,-100,4,2,1,60,0,0
26179,-100,4,2,1,5,0,0
26332,-100,4,2,1,60,0,0
26638,-100,4,2,1,5,0,0
26791,-100,4,2,1,60,0,0
27097,-100,4,2,1,5,0,0
27250,-100,4,2,1,60,0,0
30005,-100,4,2,1,70,0,0
44699,-100,4,2,1,90,0,1
83883,-100,4,2,1,50,0,0

[HitObjects]
136,100,618,6,0,B|216:112|244:96|288:64|372:100,1,225
412,216,1842,2,0,P|364:224|312:212,1,90
236,200,2454,2,0,P|188:192|136:204,1,90
60,208,3066,6,0,P|52:256|64:308,1,90
128,352,3679,2,0,P|176:360|228:348,1,90
292,304,4291,2,0,L|301:196,1,90
316,124,4903,2,0,L|208:114,1,90
136,104,5515,6,0,P|120:188|152:236,1,135
208,288,6281,1,0,0:0:0:0:
336,244,6740,2,0,P|356:164|328:64,1,180
252,32,7658,1,0,0:0:0:0:
180,84,7964,6,0,P|172:160|200:220,1,135
252,280,8730,1,0,0:0:0:0:
376,336,9189,2,0,P|424:252|360:104,1,270
296,40,10413,6,0,L|156:54,1,135
76,80,11179,1,0,0:0:0:0:
32,156,11485,2,0,P|80:168|132:148,1,90
328,80,12556,5,0,0:0:0:0:
396,140,12862,2,0,P|344:168|264:144,1,135
228,72,13628,2,0,P|180:64|128:76,1,90
404,240,15005,5,0,0:0:0:0:
444,320,15311,2,0,P|376:324|320:276,1,135
300,200,16077,2,0,P|252:192|200:204,1,90
116,100,17454,5,0,0:0:0:0:
76,180,17760,2,0,P|132:188|176:168,1,90
224,112,18373,2,0,P|280:104|324:124,1,90
400,128,18985,2,0,P|408:184|388:228,1,90
356,292,19597,2,0,P|300:300|256:280,1,90
200,232,20209,6,0,P|204:144|176:84,1,135
128,32,20975,1,0,0:0:0:0:
80,160,21434,2,0,P|76:248|104:308,1,135
212,352,22352,1,0,0:0:0:0:
284,296,22658,6,0,L|296:148,1,135
256,32,23577,1,0,0:0:0:0:
172,64,23883,2,0,P|164:112|176:164,1,90
216,232,24495,2,0,P|224:280|204:328,1,90
139,271,25107,6,0,P|131:211|171:151,1,135
280,72,26026,1,0,0:0:0:0:
364,36,26332,2,0,P|368:104|312:160,1,135
204,208,27250,1,0,0:0:0:0:
128,256,27556,6,0,P|180:292|264:276,1,135
368,220,28475,1,0,0:0:0:0:
408,140,28781,2,0,P|364:132|316:144,2,90
266,257,30005,6,0,L|170:248,1,90
92,216,30618,1,0,0:0:0:0:
176,112,31077,1,0,0:0:0:0:
236,44,31383,2,0,P|256:72|240:176,1,135
336,324,32454,6,0,P|288:332|244:324,2,90
420,292,33373,1,0,0:0:0:0:
456,208,33679,2,0,P|464:160|456:116,2,90
320,328,34903,6,0,P|272:336|228:328,2,90
384,264,35822,1,0,0:0:0:0:
440,196,36128,2,0,P|384:176|292:256,1,180
256,324,37046,1,0,0:0:0:0:
176,364,37352,6,0,P|168:316|188:268,1,90
260,232,37964,2,0,P|268:184|248:136,1,90
220,64,38577,2,0,P|160:88|132:192,1,180
384,292,40107,6,0,L|348:148,1,135
272,52,41026,2,0,P|220:44|172:56,2,90
344,104,41944,1,0,0:0:0:0:
384,184,42250,2,0,P|336:192|288:172,1,90
224,128,42862,2,0,P|176:120|128:140,1,90
76,196,43475,6,0,P|68:244|88:292,2,90
137,133,44393,1,0,0:0:0:0:
88,60,44699,6,0,P|160:48|228:128,1,180
248,208,45618,1,0,0:0:0:0:
204,288,45924,2,0,P|288:296|344:208,1,180
368,140,46842,1,0,0:0:0:0:
416,64,47148,6,0,P|344:56|276:132,1,180
260,220,48066,1,0,0:0:0:0:
304,300,48373,2,0,P|264:312|204:292,2,90
380,252,49291,1,0,0:0:0:0:
344,172,49597,6,0,B|292:148|264:196|156:172,1,180
92,124,50515,1,0,0:0:0:0:
136,44,50822,2,0,B|188:20|216:68|324:44,1,180
400,24,51740,1,0,0:0:0:0:
468,84,52046,6,0,B|468:128|468:128|488:208|488:208|488:276,1,180
444,340,52964,1,0,0:0:0:0:
388,272,53271,2,0,P|340:264|288:276,1,90
212,288,53883,2,0,P|164:296|112:284,1,90
56,228,54495,6,0,P|120:164|208:160,1,180
288,196,55413,1,0,0:0:0:0:
356,252,55720,2,0,P|260:280|200:224,1,180
172,148,56638,1,0,0:0:0:0:
136,64,56944,2,0,B|188:40|216:88|324:64,1,180
396,28,57862,1,0,0:0:0:0:
456,96,58169,6,0,P|464:144|452:196,1,90
368,188,58781,2,0,P|360:236|372:288,1,90
340,360,59393,6,0,B|296:360|296:360|216:340|216:340|148:340,1,180
92,284,60311,1,0,0:0:0:0:
32,216,60618,2,0,P|92:192|180:264,1,180
236,324,61536,1,0,0:0:0:0:
308,272,61842,6,0,B|336:196|336:196|300:144|308:84,1,180
336,20,62760,1,0,0:0:0:0:
396,88,63066,1,0,0:0:0:0:
424,268,63679,5,0,0:0:0:0:
300,324,64138,2,0,L|292:220,1,90
316,100,64903,2,0,P|224:108|136:160,1,180
48,300,66128,1,0,0:0:0:0:
224,328,66740,6,0,B|200:276|248:248|224:140,1,180
192,68,67658,1,0,0:0:0:0:
112,28,67964,2,0,P|104:60|128:132,1,90
188,168,68577,6,0,P|248:212|132:228,1,270
104,152,69801,2,0,P|44:108|160:92,1,270
212,256,71332,5,0,0:0:0:0:
252,336,71638,2,0,P|296:292|288:208,1,135
248,96,72556,1,0,0:0:0:0:
180,40,72862,2,0,L|84:40,1,90
60,124,73475,6,0,B|76:160|60:196|60:196|128:172|200:216|256:196,1,270
320,136,74699,2,0,B|356:152|392:136|392:136|368:204|412:276|392:332,1,270
212,324,76230,1,0,0:0:0:0:
128,296,76536,6,0,P|176:244|280:272,1,180
328,336,77454,1,0,0:0:0:0:
384,264,77760,1,0,0:0:0:0:
376,84,78373,6,0,B|268:56|184:88|184:88|96:88,1,270
72,168,79597,2,0,B|180:196|264:164|264:164|352:164,1,270
436,316,81128,5,0,0:0:0:0:
368,260,81434,2,0,B|316:236|288:284|180:260,1,180
108,224,82352,1,0,0:0:0:0:
64,144,82658,2,0,P|124:136|164:152,1,90
216,208,83271,6,0,P|276:216|316:200,1,90
