osu file format v14

[General]
AudioFilename: audio.mp3
AudioLeadIn: 0
PreviewTime: 41780
Countdown: 0
SampleSet: Soft
StackLeniency: 0.2
Mode: 0
LetterboxInBreaks: 0
WidescreenStoryboard: 0

[Editor]
Bookmarks: 42272,48629
DistanceSpacing: 1
BeatDivisor: 6
GridSize: 4
TimelineZoom: 2.599999

[Metadata]
Title:EXCITE (TV Size)
TitleUnicode:EXCITE (TV Size)
Artist:Miura Daichi
ArtistUnicode:三浦大知
Creator:Yorita Yoshino
Version:Muteki Gamer
Source:仮面ライダーエグゼイド
Tags:Kamen Rider Ex-Aid Tokusatsu Bandai UTA Carpainter Kanata Okajima Japanese Asahi pop strengemistake papple104 kanor pappl e 104 pappl_e_104
BeatmapID:2409230
BeatmapSetID:1154338

[Difficulty]
HPDrainRate:6
CircleSize:4
OverallDifficulty:8
ApproachRate:9
SliderMultiplier:2
SliderTickRate:1

[Events]
//Background and Video events
0,0,"b3aef8d75789b1a09618dea5823fdefcc852dd21.jpg",0,0
//Break Periods
//Storyboard Layer 0 (Background)
//Storyboard Layer 1 (Fail)
//Storyboard Layer 2 (Pass)
//Storyboard Layer 3 (Foreground)
//Storyboard Layer 4 (Overlay)
//Storyboard Sound Samples

[TimingPoints]
2244,397.350993377483,4,2,1,50,1,0
8601,-100,4,2,1,70,0,0
13369,-83.3333333333333,4,2,1,70,0,0
13568,-83.3333333333333,4,2,1,5,0,0
13667,-83.3333333333333,4,2,1,70,0,0
13866,-83.3333333333333,4,2,1,5,0,0
13965,-83.3333333333333,4,2,1,70,0,0
14164,-83.3333333333333,4,2,1,5,0,0
14263,-83.3333333333333,4,2,1,70,0,0
14462,-83.3333333333333,4,2,1,5,0,0
14561,-83.3333333333333,4,2,1,70,0,0
14959,-41.6666666666667,4,2,1,50,0,0
15356,-100,4,2,1,50,0,0
19727,-133.333333333333,4,2,1,50,0,0
21316,-100,4,2,1,50,0,0
22906,-166.666666666667,4,2,1,50,0,0
23303,-125,4,2,1,50,0,0
24495,-100,4,2,1,55,0,0
24893,-125,4,2,1,60,0,0
25290,-166.666666666667,4,2,1,70,0,0
26879,-66.6666666666667,4,2,1,60,0,0
29263,-133.333333333333,4,2,1,60,0,0
30654,-66.6666666666667,4,2,1,60,0,0
32442,-100,4,2,1,50,0,0
34230,-100,4,2,1,60,0,0
34429,-66.6666666666667,4,2,1,60,0,0
35025,-133.333333333333,4,2,1,60,0,0
35422,-100,4,2,1,60,0,0
36416,-66.6666666666667,4,2,1,60,0,0
38800,-66.6666666666667,4,2,1,70,0,0
41184,-66.6666666666667,4,2,1,50,0,0
41581,-66.6666666666667,4,2,1,60,0,0
41979,-66.6666666666667,4,2,1,70,0,1
49528,-83.3333333333333,4,2,1,70,0,1
50720,-66.6666666666667,4,2,1,70,0,1
51118,-83.3333333333333,4,2,1,70,0,1
51515,-66.6666666666667,4,2,1,70,0,1
52707,-83.3333333333333,4,2,1,70,0,1
53104,-100,4,2,1,70,0,0
54694,-83.3333333333333,4,2,1,70,0,1
55091,-66.6666666666667,4,2,1,70,0,1
67409,-66.6666666666667,4,2,1,70,0,0
68601,-83.3333333333333,4,2,1,70,0,0
68998,-66.6666666666667,4,2,1,70,0,0
70191,-83.3333333333333,4,2,1,70,0,0
70588,-66.6666666666667,4,2,1,70,0,0
71184,-100,4,2,1,70,0,0
72376,-100,4,2,1,5,0,0
72475,-111.111111111111,4,2,1,60,0,0
72674,-100,4,2,1,5,0,0
72773,-125,4,2,1,50,0,0
72972,-100,4,2,1,5,0,0
73071,-142.857142857143,4,2,1,40,0,0
73270,-100,4,2,1,5,0,0
73369,-166.666666666667,4,2,1,30,0,0

[Colours]
Combo1 : 255,128,0
Combo2 : 255,128,192
Combo3 : 0,255,64
Combo4 : 255,255,0
Combo5 : 0,255,255

[HitObjects]
164,301,2243,5,2,0:0:0:0:
38,268,2542,5,2,0:0:0:0:
147,238,2840,5,2,0:0:0:0:
56,330,3138,5,2,0:0:0:0:
84,221,3436,5,2,0:0:0:0:
118,346,3634,1,2,0:0:0:0:
309,100,3833,5,2,0:0:0:0:
157,139,4131,5,2,0:0:0:0:
288,175,4429,5,2,0:0:0:0:
179,64,4727,5,2,0:0:0:0:
212,194,5025,5,2,0:0:0:0:
253,44,5224,1,2,0:0:0:0:
490,286,5422,5,2,0:0:0:0:
307,239,5720,5,2,0:0:0:0:
464,196,6018,5,2,0:0:0:0:
333,329,6316,5,2,0:0:0:0:
373,173,6614,5,2,0:0:0:0:
422,353,6813,1,2,0:0:0:0:
490,286,7012,5,2,0:0:0:0:
307,239,7310,5,2,0:0:0:0:
464,196,7608,5,2,0:0:0:0:
333,329,7906,5,2,0:0:0:0:
371,173,8204,1,2,0:0:0:0:
370,157,8270,1,2,0:0:0:0:
369,140,8336,1,2,0:0:0:0:
368,123,8402,1,2,0:0:0:0:
367,107,8468,1,2,0:0:0:0:
366,90,8535,1,2,0:0:0:0:
365,74,8601,6,0,P|300:68|258:116,1,100,2|0,1:2|0:0,0:0:0:0:
262,107,8899,2,0,L|255:18,1,50,2|8,0:0|1:3,0:0:0:0:
182,68,9197,5,2,0:0:0:0:
187,107,9296,1,0,0:0:0:0:
107,111,9495,5,2,0:0:0:0:
103,80,9594,1,0,0:0:0:0:
26,94,9793,5,8,1:3:0:0:
29,115,9992,5,2,1:2:0:0:
16,316,10191,6,0,P|81:310|123:358,1,100,2|0,1:2|0:0,0:0:0:0:
119,349,10489,2,0,L|126:260,1,50,2|8,0:0|1:3,0:0:0:0:
199,310,10787,5,2,0:0:0:0:
194,349,10886,1,0,0:0:0:0:
274,353,11085,5,2,0:0:0:0:
278,322,11184,2,0,L|288:375,1,50,0|0,1:0|1:0,0:0:0:0:
355,336,11383,5,8,1:3:0:0:
352,357,11581,5,2,1:2:0:0:
434,317,11780,5,2,1:2:0:0:
474,209,11979,5,2,1:2:0:0:
414,70,12177,5,8,1:3:0:0:
237,21,12376,5,2,1:2:0:0:
84,159,12575,5,0,1:0:0:0:
127,150,12707,1,0,1:0:0:0:
97,118,12840,1,0,1:0:0:0:
163,284,12972,5,0,1:0:0:0:
111,273,13104,1,0,1:0:0:0:
147,234,13237,1,0,1:0:0:0:
187,365,13369,6,0,L|333:349,1,119.999996337891,2|0,0:1|0:0,0:0:0:0:
453,252,13667,6,0,P|380:243|342:283,1,119.999996337891,2|0,0:1|0:0,0:0:0:0:
268,200,13965,6,0,B|289:146|289:146|265:61,1,119.999996337891,2|0,0:1|0:0,0:0:0:0:
133,108,14263,6,0,B|72:113|72:113|51:97|46:66|68:48,1,119.999996337891,2|0,0:1|0:0,0:0:0:0:
163,194,14561,6,0,P|163:248|126:277,1,59.9999981689454,2|0,0:1|0:0,0:0:0:0:
26,309,14760,6,0,P|72:280|116:297,1,59.9999981689454,2|0,0:1|0:0,0:0:0:0:
187,369,14959,6,0,P|143:336|143:289,1,59.9999981689454,4|0,1:3|0:0,0:0:0:0:
143,334,15356,5,0,0:0:0:0:
152,346,15455,1,0,0:0:0:0:
164,355,15555,1,2,0:0:0:0:
178,361,15654,1,0,0:0:0:0:
187,369,15753,2,0,L|193:304,1,50,8|0,0:3|0:0,0:0:0:0:
133,214,15952,1,0,1:0:0:0:
133,214,16349,1,0,0:0:0:0:
281,352,16548,6,0,L|389:348,1,100,0|2,1:0|0:0,0:0:0:0:
506,279,16945,2,0,L|437:277,1,50,0|0,0:0|0:0,0:0:0:0:
396,236,17144,1,2,1:2:0:0:
396,236,17243,1,0,1:0:0:0:
396,236,17343,2,0,B|383:198|404:162|404:162|377:121|394:92,1,150,8|0,1:3|0:0,0:0:0:0:
444,38,17740,2,0,P|388:44|309:8,1,100,0|0,0:0|1:0,0:0:0:0:
185,26,18138,5,4,0:3:0:0:
185,26,18535,1,0,0:0:0:0:
184,38,18634,1,0,0:0:0:0:
183,50,18734,1,2,0:0:0:0:
183,63,18833,1,0,0:0:0:0:
184,76,18932,2,0,P|125:89|100:75,1,50,8|0,0:3|0:0,0:0:0:0:
55,60,19131,1,0,1:0:0:0:
55,60,19528,1,0,1:0:0:0:
243,127,19727,6,0,B|297:165|354:127|354:127|414:91|485:134,1,225.000008583069,2|0,0:0|0:0,0:0:0:0:
386,281,20522,2,0,P|367:237|439:285,1,225.000008583069,2|0,0:0|0:0,0:0:0:0:
260,356,21316,6,0,L|160:349,1,100,4|8,1:3|0:3,0:0:0:0:
51,278,21714,2,0,L|157:271,1,100,0|0,1:0|0:0,0:0:0:0:
170,188,22012,1,0,0:0:0:0:
170,188,22111,2,0,L|270:195,1,100,8|0,0:3|1:0,0:0:0:0:
160,110,22409,1,0,0:0:0:0:
160,110,22508,2,0,L|61:117,1,100,0|0,0:0|1:0,0:0:0:0:
175,29,22806,1,0,0:0:0:0:
175,29,22906,6,0,L|208:31,3,29.9999990844727,0|0|2|0,0:0|0:0|0:0|0:0,0:0:0:0:
281,103,23303,6,0,L|241:104,3,40,0|0|2|0,0:0|0:0|1:2|0:0,0:0:0:0:
323,36,23700,5,8,0:3:0:0:
332,36,23800,1,0,0:0:0:0:
342,37,23899,1,2,0:0:0:0:
352,37,23998,1,0,0:0:0:0:
454,108,24098,5,2,1:2:0:0:
434,109,24197,1,0,0:0:0:0:
414,110,24296,1,2,1:2:0:0:
394,112,24396,1,0,0:0:0:0:
374,113,24495,6,0,L|383:175,3,50,4|0|2|0,0:3|0:0|0:0|0:0,0:0:0:0:
319,312,24893,6,0,L|325:262,3,40,0|0|2|0,0:0|0:0|0:0|0:0,0:0:0:0:
242,157,25290,5,2,0:0:0:0:
243,166,25389,1,0,0:0:0:0:
244,176,25489,1,2,0:0:0:0:
245,186,25588,1,0,0:0:0:0:
176,255,25687,5,2,3:2:0:0:
176,255,25787,1,2,3:2:0:0:
176,255,25886,1,2,3:2:0:0:
176,255,25985,1,2,3:2:0:0:
176,255,26879,6,0,L|72:244,1,75.0000028610231,2|0,0:1|0:0,0:0:0:0:
87,235,27078,2,0,L|191:246,1,75.0000028610231,2|0,0:1|0:0,0:0:0:0:
268,194,27277,5,0,0:0:0:0:
279,158,27376,1,0,0:0:0:0:
280,121,27475,5,0,3:0:0:0:
271,109,27542,5,0,3:0:0:0:
261,101,27608,5,0,3:0:0:0:
252,94,27674,5,4,1:3:0:0:
351,253,27873,6,0,B|384:275|384:275|455:257|455:257|468:216,1,150.000005722046,2|2,0:1|0:1,0:0:0:0:
338,337,28469,5,8,0:3:0:0:
383,66,28667,1,0,1:0:0:0:
126,163,29065,5,0,0:0:0:0:
126,163,29164,1,0,0:0:0:0:
126,163,29263,2,0,B|169:155|169:155|234:180|234:180|295:167,1,150.000005722046,2|0,0:0|0:0,0:0:0:0:
256,57,29859,1,0,1:0:0:0:
238,54,29959,1,0,1:0:0:0:
223,53,30058,2,0,P|209:97|283:173,1,150.000005722046,8|0,0:3|1:0,0:0:0:0:
422,172,30654,6,0,B|443:72|443:72|401:19,1,150.000005722046,2|0,0:1|0:0,0:0:0:0:
337,73,31051,2,0,B|316:173|316:173|358:226,2,150.000005722046,2|0|0,0:1|0:0|1:0,0:0:0:0:
268,271,31647,1,8,0:3:0:0:
268,271,32243,1,2,0:1:0:0:
68,134,32442,6,0,B|40:206|40:206|72:293,1,150,2|0,1:0|0:0,0:0:0:0:
7,356,32840,6,0,P|63:314|152:341,1,150,0|0,0:0|0:0,0:0:0:0:
201,215,33237,6,0,P|188:247|199:282,1,50,2|0,0:1|0:0,0:0:0:0:
267,280,33436,2,0,P|280:248|269:213,1,50,2|0,0:1|0:0,0:0:0:0:
308,359,33634,6,0,L|460:349,1,150,0|0,0:0|0:0,0:0:0:0:
471,321,34032,1,4,0:3:0:0:
292,145,34230,5,2,1:0:0:0:
471,321,34429,2,0,P|488:257|455:172,1,150.000005722046,2|0,1:0|0:0,0:0:0:0:
286,157,34826,6,0,P|331:159|361:146,1,75.0000028610231,8|0,0:3|0:0,0:0:0:0:
454,10,35025,6,0,P|429:47|426:80,1,75.0000028610231,0|0,1:0|0:0,0:0:0:0:
363,330,35422,6,0,L|348:194,2,100,2|0|0,1:0|0:0|0:0,0:0:0:0:
408,145,36018,1,0,0:0:0:0:
302,140,36217,1,2,1:0:0:0:
282,137,36316,1,0,1:0:0:0:
265,134,36416,6,0,P|249:61|301:1,2,150.000005722046,8|2|0,0:3|1:0|0:0,0:0:0:0:
391,261,37012,1,2,1:0:0:0:
231,303,37210,6,0,B|193:327|156:306|156:306|119:283|75:312,1,150.000005722046,2|0,1:0|0:0,0:0:0:0:
88,304,37508,1,2,1:0:0:0:
88,304,37608,2,0,B|118:325|155:301|155:301|192:281|230:305,1,150.000005722046,0|2,0:0|1:0,0:0:0:0:
379,368,38005,5,0,3:0:0:0:
356,338,38104,1,2,1:0:0:0:
344,303,38204,1,0,3:0:0:0:
345,265,38303,1,0,3:0:0:0:
358,230,38402,2,0,B|378:153|378:153|342:58,1,150.000005722046,2|0,1:0|0:0,0:0:0:0:
200,10,38800,6,0,L|51:18,1,150.000005722046,2|0,1:0|0:0,0:0:0:0:
29,39,39098,1,2,1:0:0:0:
11,64,39197,2,0,P|94:81|129:26,1,150.000005722046,0|2,1:0|1:0,0:0:0:0:
62,185,39594,5,8,0:3:0:0:
47,206,39694,2,0,L|52:358,1,150.000005722046,2|0,1:0|0:0,0:0:0:0:
54,378,39992,2,0,P|132:337|231:364,1,150.000005722046,2|0,1:0|0:0,0:0:0:0:
256,192,40389,12,0,40985,0:0:0:0:
427,303,41184,6,0,L|492:294,5,50.0000019073487,2|0|0|2|0|0,0:0|0:0|0:0|0:0|0:0|0:0,0:0:0:0:
382,223,41581,5,2,3:2:0:0:
385,203,41648,1,0,3:2:0:0:
388,183,41714,1,0,3:2:0:0:
391,163,41780,1,2,3:2:0:0:
395,144,41846,1,0,3:2:0:0:
398,124,41912,1,0,3:2:0:0:
400,108,41979,6,0,P|299:115|299:198,1,150.000005722046,4|2,1:3|0:0,0:0:0:0:
285,147,42277,1,0,3:0:0:0:
285,147,42376,2,0,P|328:56|257:14,1,150.000005722046,8|2,1:0|0:0,0:0:0:0:
78,171,42773,6,0,P|178:178|179:261,1,150.000005722046,0|2,1:0|0:0,0:0:0:0:
192,212,43071,1,0,1:0:0:0:
192,212,43171,1,8,1:0:0:0:
170,83,43369,1,2,1:2:0:0:
100,292,43568,5,4,1:3:0:0:
309,253,43767,1,2,0:0:0:0:
170,83,43965,1,8,1:0:0:0:
309,253,44164,5,2,3:2:0:0:
305,300,44263,1,0,3:0:0:0:
301,347,44363,1,0,1:0:0:0:
437,173,44561,5,2,3:2:0:0:
433,126,44661,1,0,3:0:0:0:
429,79,44760,5,8,1:0:0:0:
387,42,44859,1,0,3:0:0:0:
332,36,44959,1,2,3:2:0:0:
284,63,45058,1,0,3:0:0:0:
260,113,45157,6,0,L|271:262,1,150.000005722046,4|2,1:3|0:0,0:0:0:0:
271,262,45455,1,0,3:0:0:0:
271,262,45555,2,0,L|394:176,1,150.000005722046,8|2,1:0|0:0,0:0:0:0:
177,182,45952,6,0,L|162:371,1,150.000005722046,0|2,1:0|0:0,0:0:0:0:
165,331,46250,1,0,1:0:0:0:
165,331,46349,1,8,1:0:0:0:
41,245,46548,1,2,1:2:0:0:
236,380,46747,5,4,1:3:0:0:
371,185,46945,1,2,0:0:0:0:
176,50,47144,1,8,1:0:0:0:
371,185,47343,5,2,3:2:0:0:
418,181,47442,1,0,3:0:0:0:
465,177,47542,1,0,1:0:0:0:
245,233,47740,5,2,3:2:0:0:
198,229,47840,1,0,3:0:0:0:
151,225,47939,5,8,1:0:0:0:
97,239,48038,1,0,3:0:0:0:
62,282,48138,1,2,3:2:0:0:
59,337,48237,1,0,3:0:0:0:
88,383,48336,6,0,B|164:384|164:384|269:342,1,150.000005722046,4|2,1:3|0:0,0:0:0:0:
232,356,48634,1,0,3:0:0:0:
232,356,48734,2,0,B|203:277|203:277|227:170,1,150.000005722046,8|2,1:0|0:0,0:0:0:0:
392,278,49131,5,0,1:0:0:0:
341,246,49230,1,0,3:0:0:0:
322,188,49330,1,2,3:2:0:0:
347,134,49429,1,0,1:0:0:0:
406,124,49528,6,0,P|405:153|414:182,1,59.9999981689454,8|0,3:1|3:0,0:0:0:0:
442,53,49727,1,2,3:2:0:0:
442,53,49826,1,0,3:0:0:0:
442,53,49926,6,0,B|381:100|324:56|324:56|263:22|191:67,1,239.999992675781,4|8,1:3|1:0,0:0:0:0:
62,36,50522,1,2,3:2:0:0:
62,36,50621,1,0,3:0:0:0:
62,36,50720,1,0,1:0:0:0:
108,73,50820,1,0,3:0:0:0:
114,132,50919,1,2,3:2:0:0:
73,175,51018,1,0,3:0:0:0:
192,246,51118,5,8,1:0:0:0:
173,238,51217,1,0,3:0:0:0:
153,236,51316,1,2,3:2:0:0:
134,241,51416,1,0,3:0:0:0:
68,291,51515,6,0,P|89:362|179:353,1,150.000005722046,4|2,1:3|0:0,0:0:0:0:
156,370,51813,1,0,3:0:0:0:
156,370,51912,2,0,P|213:344|307:382,1,150.000005722046,8|2,1:0|0:0,0:0:0:0:
491,333,52310,5,0,1:0:0:0:
450,305,52409,1,0,3:0:0:0:
400,305,52508,1,2,3:2:0:0:
360,332,52608,1,0,1:0:0:0:
268,248,52707,6,0,P|306:243|353:268,1,59.9999981689454,8|0,3:1|3:0,0:0:0:0:
409,212,52906,5,2,1:2:0:0:
409,212,53005,1,0,3:0:0:0:
409,212,53104,6,0,L|412:128,2,66.6666666666667,2|0|0,3:2|3:0|3:0,0:0:0:0:
315,160,53502,6,0,L|317:79,2,66.6666666666667,2|0|0,3:2|3:0|3:0,0:0:0:0:
222,107,53899,6,0,B|203:78|224:35|224:35|190:68|131:43,1,150,2|0,0:0|0:0,0:0:0:0:
87,19,54296,5,2,0:0:0:0:
1,149,54495,1,0,0:0:0:0:
157,158,54694,5,4,1:3:0:0:
155,177,54793,1,0,3:0:0:0:
154,197,54893,1,2,3:2:0:0:
153,217,54992,1,0,3:0:0:0:
152,240,55091,6,0,P|136:150|189:56,1,150.000005722046,8|2,1:0|0:0,0:0:0:0:
194,323,55489,1,0,1:0:0:0:
194,323,55588,1,0,3:0:0:0:
194,323,55687,1,2,3:2:0:0:
194,323,55787,1,0,3:0:0:0:
194,323,55886,6,0,P|131:318|96:342,1,75.0000028610231,8|0,1:0|3:0,0:0:0:0:
264,279,56085,2,0,P|211:243|169:246,1,75.0000028610231,2|0,3:2|3:0,0:0:0:0:
352,283,56283,6,0,P|333:177|365:133,1,150.000005722046,4|2,1:3|0:2,0:0:0:0:
351,145,56581,1,0,3:0:0:0:
351,145,56681,2,0,P|370:251|338:295,1,150.000005722046,8|2,1:0|0:2,0:0:0:0:
328,281,56979,1,0,3:0:0:0:
305,279,57078,1,2,1:2:0:0:
283,278,57177,1,0,3:0:0:0:
260,277,57277,6,0,B|248:316|248:316|271:370,1,75.0000028610231,2|0,3:2|1:0,0:0:0:0:
433,337,57475,2,0,B|446:305|446:305|434:266,1,75.0000028610231,8|0,1:0|3:0,0:0:0:0:
229,275,57674,2,0,B|217:314|217:314|240:368,1,75.0000028610231,2|0,1:2|3:0,0:0:0:0:
405,338,57873,5,4,1:3:0:0:
387,331,57972,1,0,3:0:0:0:
368,329,58071,1,2,3:2:0:0:
350,331,58171,1,0,3:0:0:0:
332,337,58270,6,0,B|436:319|436:319|502:357,1,150.000005722046,8|2,1:0|0:0,0:0:0:0:
460,181,58667,1,0,1:0:0:0:
460,181,58767,1,0,3:0:0:0:
460,181,58866,1,2,3:2:0:0:
460,181,58965,1,0,3:0:0:0:
460,181,59065,6,0,P|435:222|386:234,1,75.0000028610231,8|0,1:0|3:0,0:0:0:0:
439,111,59263,2,0,P|487:110|522:147,1,75.0000028610231,2|0,3:2|3:0,0:0:0:0:
389,165,59462,6,0,P|363:116|371:17,1,150.000005722046,4|2,1:3|0:0,0:0:0:0:
367,23,59760,1,0,3:0:0:0:
367,23,59859,2,0,P|393:72|385:171,1,150.000005722046,8|2,1:0|0:0,0:0:0:0:
365,167,60157,1,0,3:0:0:0:
346,167,60257,1,2,1:2:0:0:
327,168,60356,1,0,3:0:0:0:
308,169,60455,6,0,P|313:225|274:253,1,75.0000028610231,2|0,3:2|1:0,0:0:0:0:
172,158,60654,2,0,P|217:125|261:145,1,75.0000028610231,8|0,1:0|3:0,0:0:0:0:
230,281,60853,2,0,P|179:257|174:209,1,75.0000028610231,2|0,1:2|3:0,0:0:0:0:
0,32,61051,6,0,P|37:95|118:107,1,150.000005722046,4|2,1:3|0:0,0:0:0:0:
108,109,61349,1,0,3:0:0:0:
108,109,61449,2,0,P|170:71|182:-9,1,150.000005722046,8|2,1:0|0:0,0:0:0:0:
473,136,61846,6,0,P|436:199|355:211,1,150.000005722046,0|2,1:0|0:0,0:0:0:0:
365,213,62144,1,0,3:0:0:0:
365,213,62244,2,0,P|302:175|290:94,1,150.000005722046,8|2,1:0|3:2,0:0:0:0:
346,315,62542,5,0,3:0:0:0:
346,315,62641,2,0,B|301:299|301:299|199:316,1,150.000005722046,4|2,1:3|3:2,0:0:0:0:
67,381,62939,5,0,3:0:0:0:
66,381,63038,1,8,1:0:0:0:
81,360,63138,1,0,3:0:0:0:
86,336,63237,1,2,3:2:0:0:
83,311,63336,1,0,3:0:0:0:
72,289,63436,6,0,B|56:244|56:244|73:142,1,150.000005722046,0|2,1:0|0:0,0:0:0:0:
43,0,63734,5,0,1:0:0:0:
43,0,63833,1,8,1:0:0:0:
62,15,63932,1,0,3:0:0:0:
85,24,64032,1,2,1:2:0:0:
110,26,64131,1,0,3:0:0:0:
133,20,64230,6,0,P|206:18|257:75,1,150.000005722046,4|2,1:3|0:0,0:0:0:0:
255,71,64528,1,0,3:0:0:0:
255,71,64628,2,0,P|205:124|132:122,1,150.000005722046,8|2,1:0|0:0,0:0:0:0:
122,346,65025,6,0,P|49:348|-1:291,1,150.000005722046,0|2,1:0|0:0,0:0:0:0:
0,295,65323,1,0,3:0:0:0:
0,295,65423,2,0,P|49:241|122:243,1,150.000005722046,8|2,1:0|3:2,0:0:0:0:
221,340,65720,5,0,3:0:0:0:
221,340,65820,2,0,B|268:324|268:324|398:358,1,150.000005722046,4|2,1:3|3:2,0:0:0:0:
487,300,66118,5,0,3:0:0:0:
487,300,66217,1,8,1:0:0:0:
497,277,66316,1,0,3:0:0:0:
501,252,66416,1,2,3:2:0:0:
497,227,66515,1,0,3:0:0:0:
487,205,66614,6,0,B|440:189|440:189|310:223,1,150.000005722046,0|2,1:0|0:0,0:0:0:0:
221,165,66912,5,0,1:0:0:0:
221,165,67011,1,8,1:0:0:0:
210,142,67110,1,0,3:0:0:0:
206,117,67210,1,2,1:2:0:0:
210,92,67309,1,0,3:0:0:0:
220,70,67409,6,0,B|228:32|203:0|203:0|378:31,1,225.000008583069,4|2,1:3|1:2,0:0:0:0:
351,26,67806,1,8,1:0:0:0:
481,151,68005,5,2,1:2:0:0:
311,209,68303,5,2,1:2:0:0:
435,340,68601,6,0,P|409:359|378:366,1,59.9999981689454,8|0,1:0|0:0,0:0:0:0:
347,294,68800,6,0,P|372:274|404:268,1,59.9999981689454,2|0,1:2|0:0,0:0:0:0:
400,97,68998,2,0,B|434:59|483:103|443:156|390:180|390:180|420:176|452:197,1,225.000008583069,4|2,1:3|1:2,0:0:0:0:
446,193,69396,1,8,1:0:0:0:
274,240,69594,5,2,1:2:0:0:
297,85,69893,5,2,1:2:0:0:
197,156,70191,6,0,P|136:146|118:115,1,59.9999981689454,8|0,1:0|0:0,0:0:0:0:
17,86,70389,2,0,P|45:75|74:79,1,59.9999981689454,2|0,1:2|0:0,0:0:0:0:
17,333,70588,2,0,B|41:353|80:343|83:296|54:275|54:275|85:277|99:245|87:201|36:211,1,225.000008583069,2|2,1:0|1:0,0:0:0:0:
273,206,71184,5,2,1:0:0:0:
190,351,71482,5,2,1:0:0:0:
342,303,71780,6,0,L|452:315,1,100,10|2,1:0|1:0,0:0:0:0:
273,206,72177,6,0,P|243:152|253:95,1,100,2|0,0:0|0:0,0:0:0:0:
244,115,72475,6,0,P|213:167|159:187,1,89.9999972534181,2|0,0:0|0:0,0:0:0:0:
188,181,72773,6,0,P|242:182|283:216,1,80,2|0,0:0|0:0,0:0:0:0:
263,194,73071,6,0,P|238:149|247:101,1,69.9999978637696,2|0,0:0|0:0,0:0:0:0:
237,131,73369,6,0,P|214:168|174:183,1,59.9999981689454,2|0,0:0|0:0,0:0:0:0:
