osu file format v14

[General]
AudioFilename: audio.mp3
AudioLeadIn: 0
PreviewTime: 90272
Countdown: 0
SampleSet: Normal
StackLeniency: 0.7
Mode: 0
LetterboxInBreaks: 0
WidescreenStoryboard: 1

[Editor]
Bookmarks: 8897,18459,35897
DistanceSpacing: 1.4
BeatDivisor: 4
GridSize: 8
TimelineZoom: 1

[Metadata]
Title:Fategadorema
TitleUnicode:Fategadorema
Artist:Miura Aiko
ArtistUnicode:Miura Aiko
Creator:SkyDiverFox
Version:Insane
Source:
Tags:PandaHero
BeatmapID:1258656
BeatmapSetID:594392

[Difficulty]
HPDrainRate:4
CircleSize:4
OverallDifficulty:7.3
ApproachRate:8
SliderMultiplier:1.5
SliderTickRate:1

[Events]
//Background and Video events
0,0,"whitehorns_by_jameszapata-d6mdni0.jpg",0,0
//Break Periods
2,54847,57272
//Storyboard Layer 0 (Background)
//Storyboard Layer 1 (Fail)
//Storyboard Layer 2 (Pass)
//Storyboard Layer 3 (Foreground)
//Storyboard Sound Samples

[TimingPoints]
647,375,3,1,0,40,1,0
63647,-285.714285714286,3,1,0,40,0,0
65334,-100,3,1,0,40,0,0

[HitObjects]
256,264,647,5,0,0:0:0:0:
256,264,1022,2,0,P|304:260|340:248,1,75
379,183,1397,1,0,0:0:0:0:
379,183,1772,2,0,P|308:166|239:193,1,150
239,193,2522,6,0,P|200:208|163:201,2,75
121,159,3272,1,0,0:0:0:0:
239,193,3647,2,0,P|160:208|120:140,1,150
121,159,4397,5,0,0:0:0:0:
188,148,4772,1,0,0:0:0:0:
239,193,5147,1,0,0:0:0:0:
239,193,5522,6,0,P|318:208|358:140,1,150
356,159,6272,1,0,0:0:0:0:
288,144,6647,1,0,0:0:0:0:
360,164,7022,1,0,0:0:0:0:
396,224,7397,1,0,0:0:0:0:
320,280,7772,5,0,0:0:0:0:
320,280,7959,2,0,P|276:252|276:228,1,75
296,168,8334,1,0,0:0:0:0:
296,168,8522,1,0,0:0:0:0:
20,104,9272,6,0,L|112:100,1,75
158,90,9647,1,0,0:0:0:0:
192,232,10022,2,0,L|224:156,1,75
245,98,10397,1,0,0:0:0:0:
212,32,10772,1,0,0:0:0:0:
245,98,11147,6,0,P|265:129|295:151,3,75
364,164,11897,1,0,0:0:0:0:
280,256,12272,2,0,L|264:332,2,75
280,184,13022,1,0,0:0:0:0:
185,271,13397,5,0,0:0:0:0:
160,184,13772,1,0,0:0:0:0:
222,120,14147,1,0,0:0:0:0:
272,64,14522,2,0,P|260:36|240:12,2,37.5
336,108,14897,1,0,0:0:0:0:
364,196,15272,1,0,0:0:0:0:
256,305,15647,6,0,P|225:282|206:251,3,75
237,104,16397,1,2,0:0:0:0:
322,231,16584,1,2,0:0:0:0:
167,172,16772,1,2,0:0:0:0:
315,136,16959,1,2,0:0:0:0:
210,256,17147,1,2,0:0:0:0:
210,256,17334,2,4,P|190:287|160:309,1,75
256,192,17709,12,0,18272,0:0:0:0:
99,145,18647,6,0,B|127:87|191:106|235:59,1,150
313,57,19397,2,0,P|352:66|394:95,2,75
313,57,20147,5,0,0:0:0:0:
345,195,20522,1,0,0:0:0:0:
345,195,20897,2,0,P|382:187|413:167,2,75
345,195,21459,5,0,0:0:0:0:
238,101,21647,1,0,0:0:0:0:
345,196,21834,1,0,0:0:0:0:
238,101,22022,1,4,0:0:0:0:
238,101,22397,2,0,B|199:92|155:23|79:33,1,150
0,80,23147,1,0,0:0:0:0:
106,32,23334,1,0,0:0:0:0:
84,132,23522,1,0,0:0:0:0:
84,132,23709,2,0,P|96:176|68:220,1,75
32,244,24084,1,0,0:0:0:0:
32,244,24272,1,0,0:0:0:0:
167,228,24647,6,0,P|245:258|290:197,1,150
286,217,25397,1,0,0:0:0:0:
343,109,25772,1,0,0:0:0:0:
343,109,25959,1,0,0:0:0:0:
412,93,26147,2,0,P|455:86|502:58,2,75
216,117,26897,6,0,B|140:115|122:78|75:46,1,150
84,52,27647,1,0,0:0:0:0:
91,57,28022,2,0,P|120:84|164:104,2,75
91,148,28772,1,0,0:0:0:0:
396,84,29147,5,0,0:0:0:0:
239,191,29334,1,0,0:0:0:0:
396,84,29522,1,0,0:0:0:0:
314,220,29709,1,0,0:0:0:0:
396,84,29897,1,0,0:0:0:0:
203,260,30272,5,0,0:0:0:0:
203,260,30459,1,0,0:0:0:0:
132,206,30647,2,0,P|113:169|110:130,1,75
144,68,31022,1,0,0:0:0:0:
369,255,31397,5,0,0:0:0:0:
296,164,31584,1,0,0:0:0:0:
435,162,31772,1,0,0:0:0:0:
361,79,31959,1,0,0:0:0:0:
270,272,32147,1,0,0:0:0:0:
459,266,32522,1,0,0:0:0:0:
459,266,32709,1,0,0:0:0:0:
366,205,32897,1,0,0:0:0:0:
270,272,33272,2,0,P|232:255|184:151,1,150
183,162,34022,5,0,0:0:0:0:
270,272,34397,2,0,P|232:255|184:151,1,150
211,91,35147,1,0,0:0:0:0:
270,43,35522,1,0,0:0:0:0:
249,204,36272,5,2,0:0:0:0:
170,110,36459,1,2,0:0:0:0:
250,283,36647,1,2,0:0:0:0:
313,106,36834,1,2,0:0:0:0:
158,246,37022,1,2,0:0:0:0:
331,241,37209,1,2,0:0:0:0:
120,170,37397,1,2,0:0:0:0:
359,167,37584,1,2,0:0:0:0:
170,110,37772,1,6,0:0:0:0:
295,94,38147,6,0,P|276:32|271:33,2,75
295,94,38897,1,0,0:0:0:0:
249,204,39272,1,0,0:0:0:0:
184,104,39647,1,0,0:0:0:0:
308,104,39834,1,0,0:0:0:0:
308,104,40021,1,0,0:0:0:0:
249,204,40397,5,0,0:0:0:0:
351,27,40772,1,0,0:0:0:0:
184,104,41147,1,2,0:0:0:0:
249,204,41334,1,2,0:0:0:0:
249,204,41522,1,2,0:0:0:0:
184,104,41709,1,2,0:0:0:0:
320,100,41897,1,2,0:0:0:0:
160,296,42084,1,2,0:0:0:0:
348,304,42272,1,2,0:0:0:0:
356,280,42459,1,0,0:0:0:0:
368,244,42647,2,0,B|504:152|528:104|448:60|392:112|456:200,1,300
112,205,43772,1,0,0:0:0:0:
368,244,44147,1,0,0:0:0:0:
106,86,44522,1,0,0:0:0:0:
465,186,44897,1,0,0:0:0:0:
90,204,45272,1,0,0:0:0:0:
213,279,45647,6,0,P|133:249|81:188,1,150
69,307,46397,1,0,0:0:0:0:
138,143,46772,1,0,0:0:0:0:
132,240,47147,1,0,0:0:0:0:
50,97,47522,1,0,0:0:0:0:
50,183,47897,1,0,0:0:0:0:
137,35,48272,1,0,0:0:0:0:
140,128,48459,1,0,0:0:0:0:
140,128,48647,1,0,0:0:0:0:
136,216,49022,1,0,0:0:0:0:
164,287,49397,6,0,P|205:317|254:318,1,75
296,312,49772,1,0,0:0:0:0:
133,181,50147,1,2,0:0:0:0:
193,42,50334,1,2,0:0:0:0:
283,184,50522,1,2,0:0:0:0:
352,41,50709,1,2,0:0:0:0:
408,184,50897,1,6,0:0:0:0:
272,40,51272,5,0,0:0:0:0:
204,184,51647,5,0,0:0:0:0:
116,45,52022,5,0,0:0:0:0:
26,189,52397,5,0,0:0:0:0:
101,240,52584,1,0,0:0:0:0:
101,240,52772,1,0,0:0:0:0:
182,237,53147,2,0,P|226:223|256:199,2,75
182,238,53897,5,0,0:0:0:0:
96,236,54272,5,0,0:0:0:0:
26,189,54647,5,4,0:0:0:0:
64,144,58022,6,0,P|104:76|188:44,1,150
236,40,58772,1,0,0:0:0:0:
312,48,59147,2,0,P|377:81|414:146,1,150
420,224,59897,6,0,P|416:276|328:320,1,150
352,252,60647,1,0,0:0:0:0:
337,321,61022,6,0,P|404:294|420:224,1,150
168,184,61772,1,0,0:0:0:0:
168,184,61959,1,0,0:0:0:0:
256,224,62147,1,0,0:0:0:0:
396,216,62522,5,0,0:0:0:0:
224,104,62897,1,0,0:0:0:0:
300,308,63272,1,0,0:0:0:0:
372,100,63647,2,0,P|372:76|304:40,1,104.999996795654
100,236,64772,5,0,0:0:0:0:
100,236,64959,1,0,0:0:0:0:
100,236,65147,2,0,L|120:264,2,26.2499991989136
244,301,65897,2,0,P|292:297|332:269,1,75
320,281,66272,1,0,0:0:0:0:
408,169,66647,1,0,0:0:0:0:
372,233,67022,1,0,0:0:0:0:
396,97,67397,1,0,0:0:0:0:
408,169,67772,1,0,0:0:0:0:
354,39,68147,6,0,P|310:17|186:37,1,150
144,96,68897,1,0,0:0:0:0:
128,192,69272,1,0,0:0:0:0:
132,224,69459,1,0,0:0:0:0:
144,248,69647,2,0,P|175:279|215:291,1,75
240,308,70022,1,0,0:0:0:0:
284,308,70209,1,0,0:0:0:0:
324,299,70397,2,0,P|358:271|380:239,1,75
398,183,70772,5,2,0:0:0:0:
398,183,70959,5,2,0:0:0:0:
276,40,71147,1,2,0:0:0:0:
312,216,71334,1,2,0:0:0:0:
360,56,71522,1,2,0:0:0:0:
216,96,71709,2,0,P|198:89|186:75,2,37.5
126,114,72647,6,0,P|142:195|221:209,1,150
189,148,73397,2,0,P|254:177|256:253,1,150
198,214,74147,2,0,P|214:295|293:309,1,150
356,296,74897,1,0,0:0:0:0:
417,233,75272,2,0,P|434:153|379:101,2,150
360,264,76209,1,0,0:0:0:0:
360,264,76397,1,0,0:0:0:0:
100,155,76772,6,0,P|96:84|156:34,1,150
256,20,77522,1,0,0:0:0:0:
400,134,77897,1,0,0:0:0:0:
340,40,78272,1,0,0:0:0:0:
340,40,78459,1,0,0:0:0:0:
340,40,78647,1,0,0:0:0:0:
434,226,79022,2,0,P|428:276|412:304,1,75
72,226,79397,2,0,P|93:308|161:341,1,150
254,342,79959,5,0,0:0:0:0:
254,342,80147,1,0,0:0:0:0:
192,256,80334,1,0,0:0:0:0:
312,256,80522,1,0,0:0:0:0:
379,271,81272,6,0,P|358:207|284:197,1,150
279,194,82022,1,0,0:0:0:0:
219,151,82209,1,0,0:0:0:0:
227,83,82397,1,0,0:0:0:0:
227,83,82772,2,0,P|239:179|292:193,1,150
372,178,83522,2,0,P|402:158|468:163,2,75
431,266,84272,2,0,P|384:290|358:290,2,75
512,177,85022,1,0,0:0:0:0:
47,72,85772,6,0,P|78:44|120:28,1,75
176,27,86147,1,0,0:0:0:0:
121,108,86522,2,0,P|156:144|196:162,1,75
243,184,86897,1,0,0:0:0:0:
396,147,87272,2,0,P|449:105|429:13,1,150
390,70,88022,5,0,0:0:0:0:
390,70,88209,2,0,P|344:80|298:53,1,75
252,56,88584,1,0,0:0:0:0:
183,70,88772,2,0,P|141:87|118:111,1,75
84,164,89147,1,0,0:0:0:0:
87,234,89334,2,0,P|105:277|148:304,1,75
184,332,89709,1,0,0:0:0:0:
252,352,89897,1,0,0:0:0:0:
144,144,90647,1,0,0:0:0:0:
368,144,91022,1,0,0:0:0:0:
160,272,91397,1,0,0:0:0:0:
256,64,91772,1,0,0:0:0:0:
352,272,92147,1,0,0:0:0:0:
3,311,92522,5,2,0:0:0:0:
92,198,92897,1,2,0:0:0:0:
213,132,93272,1,2,0:0:0:0:
356,104,93647,1,2,0:0:0:0:
500,104,94022,1,6,0:0:0:0:
320,160,95147,5,2,0:0:0:0:
192,160,95335,1,2,0:0:0:0:
300,240,95522,1,2,0:0:0:0:
256,112,95710,1,2,0:0:0:0:
212,236,95897,1,2,0:0:0:0:
252,296,96084,5,2,0:0:0:0:
144,220,96272,1,2,0:0:0:0:
192,88,96459,1,2,0:0:0:0:
324,84,96647,1,2,0:0:0:0:
373,221,96834,2,0,P|418:220|450:195,1,75
496,128,97397,1,0,0:0:0:0:
324,84,97772,1,0,0:0:0:0:
272,132,97959,5,0,0:0:0:0:
272,132,98147,1,0,0:0:0:0:
188,256,98334,2,0,P|183:294|199:331,2,75
204,176,98897,1,0,0:0:0:0:
128,136,99272,1,0,0:0:0:0:
48,143,99647,5,0,0:0:0:0:
256,228,100022,1,0,0:0:0:0:
472,142,100397,1,0,0:0:0:0:
256,323,100772,1,0,0:0:0:0:
256,94,101147,2,0,L|257:9,2,75
255,211,101897,5,0,0:0:0:0:
192,124,102272,1,0,0:0:0:0:
256,94,102460,1,0,0:0:0:0:
320,120,102647,1,0,0:0:0:0:
255,211,103022,1,0,0:0:0:0:
52,147,104147,5,2,0:0:0:0:
132,228,104334,1,2,0:0:0:0:
114,97,104522,1,2,0:0:0:0:
201,204,104709,1,2,0:0:0:0:
185,76,104897,1,2,0:0:0:0:
190,276,105084,1,2,0:0:0:0:
185,76,105272,5,0,0:0:0:0:
200,200,105460,1,0,0:0:0:0:
114,97,105647,1,0,0:0:0:0:
132,228,105835,1,0,0:0:0:0:
52,147,106022,1,2,0:0:0:0:
321,228,106397,6,0,P|303:308|250:360,1,150
88,208,107147,1,0,0:0:0:0:
88,208,107334,1,0,0:0:0:0:
220,280,107522,1,0,0:0:0:0:
376,204,107897,1,0,0:0:0:0:
80,128,108272,1,0,0:0:0:0:
386,1,108647,1,4,0:0:0:0:
