osu file format v14

[General]
AudioFilename: audio.mp3
AudioLeadIn: 0
PreviewTime: 65921
Countdown: 0
SampleSet: Soft
StackLeniency: 1
Mode: 3
LetterboxInBreaks: 0
SpecialStyle: 0
WidescreenStoryboard: 0

[Editor]
Bookmarks: 153665,175607
DistanceSpacing: 1
BeatDivisor: 4
GridSize: 8
TimelineZoom: 1.1

[Metadata]
Title:Vitality (t+pazolite Remix)
TitleUnicode:Vitality (t+pazolite Remix)
Artist:Mittsies
ArtistUnicode:Mittsies
Creator:Lirai
Version:Expert
Source:Helltaker
Tags:soundtrack fanmade chs cutie and headshaking sounds video game instrumental electronic
BeatmapID:2586726
BeatmapSetID:1228135

[Difficulty]
HPDrainRate:8.4
CircleSize:4
OverallDifficulty:8
ApproachRate:5
SliderMultiplier:1.4
SliderTickRate:1

[Events]
//Background and Video events
0,0,"BG.jpg",0,0
//Break Periods
//Storyboard Layer 0 (Background)
//Storyboard Layer 1 (Fail)
//Storyboard Layer 2 (Pass)
//Storyboard Layer 3 (Foreground)
//Storyboard Layer 4 (Overlay)
//Storyboard Sound Samples

[TimingPoints]
93,342.857142857143,4,2,1,30,1,0
65921,-100,4,2,1,60,0,1
87864,-100,4,2,1,60,0,0
109721,-100,4,2,1,30,0,0
120778,-100,4,2,1,60,0,0
153693,-100,4,2,1,60,0,1
175635,-100,4,2,1,60,0,0

[HitObjects]
64,192,93,5,2,0:0:0:0:
448,192,93,128,0,2493:0:0:0:0:
192,192,93,1,0,0:0:0:0:
320,192,264,1,0,0:0:0:0:
64,192,435,1,2,0:0:0:0:
192,192,435,1,0,0:0:0:0:
192,192,607,1,0,0:0:0:0:
64,192,778,1,2,0:0:0:0:
320,192,778,1,0,0:0:0:0:
192,192,950,1,0,0:0:0:0:
64,192,1121,1,2,0:0:0:0:
192,192,1121,1,0,0:0:0:0:
320,192,1293,1,0,0:0:0:0:
192,192,1464,1,2,0:0:0:0:
64,192,1464,1,0,0:0:0:0:
320,192,1635,1,0,0:0:0:0:
192,192,1807,1,2,0:0:0:0:
64,192,1807,1,0,0:0:0:0:
64,192,1978,1,0,0:0:0:0:
192,192,2150,1,2,0:0:0:0:
320,192,2150,1,0,0:0:0:0:
64,192,2321,1,0,0:0:0:0:
192,192,2493,1,2,0:0:0:0:
64,192,2493,1,0,0:0:0:0:
320,192,2664,1,0,0:0:0:0:
448,192,2835,1,2,0:0:0:0:
64,192,2835,1,0,0:0:0:0:
192,192,3007,1,0,0:0:0:0:
320,192,3178,1,2,0:0:0:0:
448,192,3178,1,0,0:0:0:0:
320,192,3350,1,0,0:0:0:0:
448,192,3521,1,2,0:0:0:0:
192,192,3521,1,0,0:0:0:0:
64,192,3693,1,0,0:0:0:0:
448,192,3864,1,2,0:0:0:0:
64,192,3864,1,0,0:0:0:0:
320,192,4035,1,0,0:0:0:0:
192,192,4207,1,2,0:0:0:0:
448,192,4207,1,0,0:0:0:0:
320,192,4378,1,0,0:0:0:0:
192,192,4550,1,2,0:0:0:0:
64,192,4550,1,0,0:0:0:0:
64,192,4721,1,0,0:0:0:0:
320,192,4893,1,2,0:0:0:0:
448,192,4893,1,0,0:0:0:0:
192,192,5064,1,0,0:0:0:0:
320,192,5235,1,2,0:0:0:0:
192,192,5235,1,0,0:0:0:0:
448,192,5407,1,0,0:0:0:0:
192,192,5578,1,2,0:0:0:0:
64,192,5578,1,0,0:0:0:0:
320,192,5750,1,0,0:0:0:0:
64,192,5921,1,2,0:0:0:0:
448,192,5921,1,0,0:0:0:0:
448,192,6093,1,0,0:0:0:0:
320,192,6264,1,2,0:0:0:0:
192,192,6264,1,0,0:0:0:0:
64,192,6435,1,0,0:0:0:0:
320,192,6607,1,2,0:0:0:0:
64,192,6607,1,0,0:0:0:0:
448,192,6778,1,0,0:0:0:0:
64,192,6950,1,2,0:0:0:0:
192,192,6950,1,0,0:0:0:0:
448,192,7121,1,0,0:0:0:0:
64,192,7293,1,2,0:0:0:0:
320,192,7293,1,0,0:0:0:0:
320,192,7464,1,0,0:0:0:0:
448,192,7635,1,2,0:0:0:0:
64,192,7635,1,0,0:0:0:0:
192,192,7807,1,0,0:0:0:0:
192,192,7978,1,2,0:0:0:0:
320,192,7978,1,0,0:0:0:0:
448,192,8150,1,0,0:0:0:0:
192,192,8321,1,2,0:0:0:0:
64,192,8321,128,0,11064:0:0:0:0:
320,192,8321,1,0,0:0:0:0:
448,192,8493,1,0,0:0:0:0:
192,192,8664,1,2,0:0:0:0:
320,192,8664,1,0,0:0:0:0:
320,192,8835,1,0,0:0:0:0:
448,192,9007,1,2,0:0:0:0:
192,192,9007,1,0,0:0:0:0:
320,192,9178,1,0,0:0:0:0:
320,192,9350,1,2,0:0:0:0:
192,192,9350,1,0,0:0:0:0:
448,192,9521,1,0,0:0:0:0:
320,192,9693,1,2,0:0:0:0:
192,192,9693,1,0,0:0:0:0:
448,192,9864,1,0,0:0:0:0:
320,192,10035,1,2,0:0:0:0:
192,192,10035,1,0,0:0:0:0:
320,192,10207,1,0,0:0:0:0:
448,192,10378,1,2,0:0:0:0:
192,192,10378,1,0,0:0:0:0:
320,192,10550,1,0,0:0:0:0:
192,192,10721,1,0,0:0:0:0:
320,192,10721,1,2,0:0:0:0:
448,192,10893,1,0,0:0:0:0:
192,192,11064,128,0,11407:0:0:0:100:boom.wav
320,192,11064,1,0,0:0:0:0:
320,192,11407,128,0,11750:0:0:0:0:
64,192,11750,128,0,12093:0:0:0:0:
448,192,12093,128,0,12435:0:0:0:0:
192,192,12435,1,0,0:0:0:0:
320,192,12607,1,0,0:0:0:0:
64,192,12693,1,0,0:0:0:0:
448,192,12778,1,0,0:0:0:0:
192,192,12778,1,0,0:0:0:0:
320,192,12950,1,0,0:0:0:0:
64,192,13035,1,0,0:0:0:0:
192,192,13121,1,0,0:0:0:0:
448,192,13293,1,0,0:0:0:0:
64,192,13378,1,0,0:0:0:0:
448,192,13464,1,0,0:0:0:0:
320,192,13464,1,0,0:0:0:0:
192,192,13635,1,0,0:0:0:0:
320,192,13721,1,0,0:0:0:0:
64,192,13807,1,0,0:0:0:0:
448,192,13978,1,0,0:0:0:0:
192,192,14064,1,0,0:0:0:0:
320,192,14150,1,0,0:0:0:0:
64,192,14150,1,0,0:0:0:0:
192,192,14321,1,0,0:0:0:0:
448,192,14407,1,0,0:0:0:0:
320,192,14493,1,0,0:0:0:0:
192,192,14664,1,0,0:0:0:0:
448,192,14750,1,0,0:0:0:0:
192,192,14835,1,0,0:0:0:0:
64,192,14835,1,0,0:0:0:0:
320,192,15007,1,0,0:0:0:0:
192,192,15093,1,0,0:0:0:0:
64,192,15178,1,0,0:0:0:0:
320,192,15350,1,0,0:0:0:0:
192,192,15435,1,0,0:0:0:0:
448,192,15521,1,0,0:0:0:0:
64,192,15521,1,0,0:0:0:0:
320,192,15693,1,0,0:0:0:0:
64,192,15778,1,0,0:0:0:0:
192,192,15864,1,0,0:0:0:0:
320,192,16035,1,0,0:0:0:0:
448,192,16121,1,0,0:0:0:0:
64,192,16207,1,0,0:0:0:0:
320,192,16207,1,0,0:0:0:0:
192,192,16378,1,0,0:0:0:0:
320,192,16464,1,0,0:0:0:0:
448,192,16550,1,0,0:0:0:0:
64,192,16550,128,0,16721:0:0:0:0:
320,192,16721,128,0,16893:0:0:0:0:
64,192,16893,1,0,0:0:0:0:
192,192,16893,128,0,17064:0:0:0:0:
320,192,17064,128,0,17235:0:0:0:0:
448,192,17235,1,0,0:0:0:0:
64,192,17235,128,0,17407:0:0:0:0:
320,192,17407,128,0,17578:0:0:0:0:
192,192,17578,1,0,0:0:0:0:
448,192,17578,128,0,17750:0:0:0:0:
320,192,17750,128,0,17921:0:0:0:0:
64,192,17921,1,0,0:0:0:0:
448,192,17921,128,0,18093:0:0:0:0:
192,192,18093,128,0,18264:0:0:0:0:
448,192,18264,1,0,0:0:0:0:
320,192,18264,128,0,18435:0:0:0:0:
192,192,18435,128,0,18607:0:0:0:0:
64,192,18607,1,0,0:0:0:0:
320,192,18607,128,0,18778:0:0:0:0:
192,192,18778,128,0,18950:0:0:0:0:
320,192,18950,1,0,0:0:0:0:
448,192,18950,128,0,19121:0:0:0:0:
192,192,19121,128,0,19293:0:0:0:0:
448,192,19293,1,0,0:0:0:0:
320,192,19293,128,0,19464:0:0:0:0:
64,192,19464,128,0,19635:0:0:0:0:
320,192,19635,1,0,0:0:0:0:
192,192,19635,128,0,19807:0:0:0:0:
64,192,19807,128,0,19978:0:0:0:0:
448,192,19978,1,0,0:0:0:0:
320,192,19978,128,0,20150:0:0:0:0:
64,192,20150,128,0,20321:0:0:0:0:
320,192,20321,1,0,0:0:0:0:
448,192,20321,128,0,20493:0:0:0:0:
64,192,20493,128,0,20664:0:0:0:0:
192,192,20664,1,0,0:0:0:0:
320,192,20664,128,0,20835:0:0:0:0:
448,192,20835,128,0,21007:0:0:0:0:
320,192,21007,1,0,0:0:0:0:
64,192,21007,128,0,21178:0:0:0:0:
448,192,21178,128,0,21350:0:0:0:0:
192,192,21350,1,0,0:0:0:0:
320,192,21350,128,0,21521:0:0:0:0:
448,192,21521,128,0,21693:0:0:0:0:
64,192,21693,1,0,0:0:0:0:
192,192,21693,128,0,21864:0:0:0:0:
448,192,21864,128,0,22035:0:0:0:0:
64,192,22035,1,0,0:0:0:75:clap.wav
320,192,22035,1,0,0:0:0:0:
64,192,22207,1,0,0:0:0:0:
192,192,22378,1,0,0:0:0:75:clap.wav
448,192,22378,1,0,0:0:0:0:
448,192,22550,1,0,0:0:0:0:
64,192,22721,1,0,0:0:0:75:clap.wav
320,192,22721,1,0,0:0:0:0:
320,192,22893,1,0,0:0:0:0:
64,192,23064,1,0,0:0:0:75:clap.wav
448,192,23064,1,0,0:0:0:0:
448,192,23235,1,0,0:0:0:0:
64,192,23407,1,0,0:0:0:75:clap.wav
320,192,23407,1,0,0:0:0:0:
64,192,23578,1,0,0:0:0:0:
448,192,23750,1,0,0:0:0:75:clap.wav
192,192,23750,1,0,0:0:0:0:
448,192,23921,1,0,0:0:0:0:
64,192,24093,1,0,0:0:0:75:clap.wav
320,192,24093,1,0,0:0:0:0:
320,192,24264,1,0,0:0:0:0:
64,192,24435,1,0,0:0:0:75:clap.wav
448,192,24435,1,0,0:0:0:0:
448,192,24607,1,0,0:0:0:0:
320,192,24778,1,0,0:0:0:75:clap.wav
64,192,24778,1,0,0:0:0:0:
64,192,24950,1,0,0:0:0:0:
192,192,25121,1,0,0:0:0:75:clap.wav
448,192,25121,1,0,0:0:0:0:
192,192,25293,1,0,0:0:0:0:
64,192,25464,1,0,0:0:0:75:clap.wav
320,192,25464,1,0,0:0:0:0:
320,192,25635,1,0,0:0:0:0:
448,192,25807,1,0,0:0:0:75:clap.wav
192,192,25807,1,0,0:0:0:0:
448,192,25978,1,0,0:0:0:0:
64,192,26150,1,0,0:0:0:75:clap.wav
320,192,26150,1,0,0:0:0:0:
64,192,26321,1,0,0:0:0:0:
192,192,26493,1,0,0:0:0:75:clap.wav
448,192,26493,1,0,0:0:0:0:
192,192,26664,1,0,0:0:0:0:
448,192,26835,1,0,0:0:0:75:clap.wav
64,192,26835,1,0,0:0:0:0:
448,192,27007,1,0,0:0:0:0:
64,192,27178,1,0,0:0:0:75:clap.wav
320,192,27178,1,0,0:0:0:0:
320,192,27350,1,0,0:0:0:0:
64,192,27521,1,8,0:0:0:0:
448,192,27521,1,2,0:0:0:0:
192,192,27521,1,0,0:0:0:0:
320,192,27693,1,2,0:0:0:0:
192,192,27778,1,2,0:0:0:0:
448,192,27864,1,8,0:0:0:0:
64,192,27864,1,2,0:0:0:0:
320,192,27864,1,0,0:0:0:0:
192,192,28035,1,2,0:0:0:0:
64,192,28207,1,8,0:0:0:0:
448,192,28207,1,2,0:0:0:0:
320,192,28207,1,0,0:0:0:0:
192,192,28378,1,2,0:0:0:0:
448,192,28464,1,2,0:0:0:0:
192,192,28550,1,8,0:0:0:0:
64,192,28550,1,2,0:0:0:0:
320,192,28550,1,0,0:0:0:0:
448,192,28721,1,2,0:0:0:0:
64,192,28893,1,8,0:0:0:0:
192,192,28893,1,2,0:0:0:0:
320,192,28893,1,0,0:0:0:0:
448,192,29064,1,2,0:0:0:0:
320,192,29150,1,2,0:0:0:0:
192,192,29235,1,8,0:0:0:0:
448,192,29235,1,2,0:0:0:0:
64,192,29235,1,0,0:0:0:0:
320,192,29407,1,2,0:0:0:0:
64,192,29578,1,8,0:0:0:0:
448,192,29578,1,2,0:0:0:0:
192,192,29578,1,0,0:0:0:0:
320,192,29750,1,2,0:0:0:0:
64,192,29835,1,2,0:0:0:0:
192,192,29921,1,8,0:0:0:0:
448,192,29921,1,2,0:0:0:0:
320,192,29921,1,0,0:0:0:0:
64,192,30093,1,2,0:0:0:0:
192,192,30264,1,8,0:0:0:0:
448,192,30264,1,2,0:0:0:0:
320,192,30264,1,0,0:0:0:0:
64,192,30435,1,2,0:0:0:0:
320,192,30521,1,2,0:0:0:0:
192,192,30607,1,8,0:0:0:0:
448,192,30607,1,2,0:0:0:0:
64,192,30607,1,0,0:0:0:0:
320,192,30778,1,2,0:0:0:0:
192,192,30950,1,8,0:0:0:0:
448,192,30950,1,2,0:0:0:0:
64,192,30950,1,0,0:0:0:0:
320,192,31121,1,2,0:0:0:0:
192,192,31207,1,2,0:0:0:0:
448,192,31293,1,8,0:0:0:0:
320,192,31293,1,2,0:0:0:0:
64,192,31293,1,0,0:0:0:0:
192,192,31464,1,2,0:0:0:0:
448,192,31635,1,8,0:0:0:0:
320,192,31635,1,2,0:0:0:0:
64,192,31635,1,0,0:0:0:0:
192,192,31807,1,2,0:0:0:0:
448,192,31893,1,2,0:0:0:0:
64,192,31978,1,8,0:0:0:0:
320,192,31978,1,2,0:0:0:0:
192,192,31978,1,0,0:0:0:0:
448,192,32150,1,2,0:0:0:0:
192,192,32321,1,8,0:0:0:0:
64,192,32321,1,2,0:0:0:0:
320,192,32321,1,0,0:0:0:0:
448,192,32493,1,2,0:0:0:0:
192,192,32578,1,2,0:0:0:0:
320,192,32664,1,8,0:0:0:0:
448,192,32664,1,2,0:0:0:0:
64,192,32664,1,0,0:0:0:0:
192,192,32835,1,2,0:0:0:0:
64,192,33007,1,8,0:0:0:0:
448,192,33007,1,2,0:0:0:0:
320,192,33093,1,2,0:0:0:0:
192,192,33178,1,2,0:0:0:0:
320,192,33264,1,2,0:0:0:0:
64,192,33350,1,8,0:0:0:0:
448,192,33350,1,2,0:0:0:0:
192,192,33435,1,2,0:0:0:0:
320,192,33521,1,2,0:0:0:0:
192,192,33607,1,2,0:0:0:0:
64,192,33693,1,8,0:0:0:0:
448,192,33693,1,2,0:0:0:0:
320,192,33778,1,2,0:0:0:0:
192,192,33864,1,2,0:0:0:0:
448,192,33950,1,2,0:0:0:0:
64,192,34035,1,10,0:0:0:0:
320,192,34035,1,0,0:0:0:0:
192,192,34121,1,2,0:0:0:0:
320,192,34207,1,2,0:0:0:0:
192,192,34293,1,2,0:0:0:0:
448,192,34378,1,8,0:0:0:0:
64,192,34378,1,2,0:0:0:0:
320,192,34464,1,2,0:0:0:0:
192,192,34550,1,2,0:0:0:0:
64,192,34635,1,2,0:0:0:0:
320,192,34721,1,8,0:0:0:0:
448,192,34721,1,2,0:0:0:0:
192,192,34807,1,2,0:0:0:0:
448,192,34893,1,2,0:0:0:0:
320,192,34978,1,2,0:0:0:0:
64,192,35064,1,8,0:0:0:0:
192,192,35064,1,2,0:0:0:0:
448,192,35150,1,2,0:0:0:0:
64,192,35235,1,2,0:0:0:0:
192,192,35321,1,2,0:0:0:0:
320,192,35407,1,8,0:0:0:0:
448,192,35407,1,2,0:0:0:0:
64,192,35493,1,2,0:0:0:0:
448,192,35578,1,2,0:0:0:0:
320,192,35664,1,2,0:0:0:0:
192,192,35750,1,8,0:0:0:0:
64,192,35750,1,2,0:0:0:0:
320,192,35835,1,2,0:0:0:0:
192,192,35921,1,2,0:0:0:0:
320,192,36007,1,2,0:0:0:0:
448,192,36093,1,8,0:0:0:0:
192,192,36093,1,2,0:0:0:0:
64,192,36178,1,2,0:0:0:0:
320,192,36264,1,2,0:0:0:0:
192,192,36350,1,2,0:0:0:0:
448,192,36435,1,8,0:0:0:0:
320,192,36435,1,2,0:0:0:0:
64,192,36521,1,2,0:0:0:0:
192,192,36607,1,2,0:0:0:0:
64,192,36693,1,2,0:0:0:0:
192,192,36778,1,8,0:0:0:0:
320,192,36778,1,2,0:0:0:0:
448,192,36864,1,2,0:0:0:0:
320,192,36950,1,2,0:0:0:0:
448,192,37035,1,2,0:0:0:0:
192,192,37121,1,8,0:0:0:0:
64,192,37121,128,2,38493:0:0:0:0:
320,192,37207,1,2,0:0:0:0:
448,192,37293,1,2,0:0:0:0:
320,192,37378,1,2,0:0:0:0:
192,192,37464,1,10,0:0:0:0:
448,192,37550,1,2,0:0:0:0:
320,192,37635,1,2,0:0:0:0:
192,192,37721,1,2,0:0:0:0:
320,192,37807,1,10,0:0:0:0:
448,192,37893,1,2,0:0:0:0:
192,192,37978,1,2,0:0:0:0:
320,192,38064,1,2,0:0:0:0:
448,192,38150,1,10,0:0:0:0:
320,192,38235,1,2,0:0:0:0:
192,192,38321,1,2,0:0:0:0:
448,192,38407,1,2,0:0:0:0:
320,192,38493,1,4,0:0:0:0:
192,192,38493,1,2,0:0:0:0:
448,192,38664,1,0,0:0:0:0:
192,192,38835,128,0,39178:0:0:0:0:
64,192,39178,1,0,0:0:0:0:
192,192,39350,1,0,0:0:0:0:
320,192,39521,1,0,0:0:0:0:
448,192,39693,1,0,0:0:0:0:
320,192,39864,1,0,0:0:0:0:
64,192,39864,1,0,0:0:0:0:
192,192,40035,1,0,0:0:0:0:
320,192,40207,128,2,40550:0:0:0:0:
64,192,40378,1,2,0:0:0:0:
448,192,40550,1,2,0:0:0:0:
64,192,40550,1,0,0:0:0:0:
320,192,40721,1,2,0:0:0:0:
192,192,40807,1,2,0:0:0:0:
64,192,40893,1,2,0:0:0:0:
448,192,40893,1,0,0:0:0:0:
320,192,41064,1,2,0:0:0:0:
64,192,41235,1,2,0:0:0:0:
192,192,41235,1,0,0:0:0:0:
320,192,41321,1,2,0:0:0:0:
448,192,41407,1,2,0:0:0:0:
64,192,41578,128,2,41750:0:0:0:0:
192,192,41578,1,0,0:0:0:0:
448,192,41750,1,2,0:0:0:0:
320,192,41835,1,2,0:0:0:0:
192,192,41921,1,2,0:0:0:0:
64,192,42007,1,2,0:0:0:0:
320,192,42093,1,2,0:0:0:0:
448,192,42093,1,0,0:0:0:0:
192,192,42264,128,2,42435:0:0:0:0:
64,192,42264,1,0,0:0:0:0:
448,192,42435,1,2,0:0:0:0:
320,192,42521,1,2,0:0:0:0:
448,192,42607,1,2,0:0:0:0:
320,192,42693,1,2,0:0:0:0:
192,192,42778,1,2,0:0:0:0:
320,192,42864,1,2,0:0:0:0:
192,192,42950,1,2,0:0:0:0:
64,192,43035,1,2,0:0:0:0:
320,192,43121,1,2,0:0:0:0:
192,192,43207,1,2,0:0:0:0:
320,192,43293,1,2,0:0:0:0:
448,192,43378,1,2,0:0:0:0:
64,192,43464,1,2,0:0:0:0:
192,192,43550,1,2,0:0:0:0:
320,192,43635,1,2,0:0:0:0:
448,192,43721,1,2,0:0:0:0:
320,192,43807,1,2,0:0:0:0:
192,192,43893,1,2,0:0:0:0:
64,192,43978,1,4,0:0:0:0:
448,192,43978,1,2,0:0:0:0:
320,192,44150,1,0,0:0:0:0:
192,192,44321,1,2,0:0:0:0:
448,192,44321,128,0,44493:0:0:0:0:
64,192,44493,128,0,44664:0:0:0:0:
192,192,44664,1,2,0:0:0:0:
448,192,44664,1,0,0:0:0:0:
320,192,44835,128,0,45007:0:0:0:0:
64,192,45007,1,2,0:0:0:0:
448,192,45007,1,0,0:0:0:0:
192,192,45178,128,0,45350:0:0:0:0:
64,192,45350,1,2,0:0:0:0:
320,192,45350,1,0,0:0:0:0:
448,192,45521,128,0,45693:0:0:0:0:
64,192,45693,1,2,0:0:0:0:
320,192,45693,1,0,0:0:0:0:
192,192,45864,128,0,46035:0:0:0:0:
320,192,46035,1,2,0:0:0:0:
448,192,46035,1,0,0:0:0:0:
64,192,46207,128,0,46378:0:0:0:0:
192,192,46378,128,2,46550:0:0:0:0:
448,192,46378,1,0,0:0:0:0:
320,192,46550,128,0,46721:0:0:0:0:
64,192,46721,1,2,0:0:0:0:
448,192,46721,128,0,46893:0:0:0:0:
192,192,46893,1,0,0:0:0:0:
64,192,47064,128,2,47235:0:0:0:0:
320,192,47064,1,0,0:0:0:0:
192,192,47235,128,0,47407:0:0:0:0:
320,192,47407,1,2,0:0:0:0:
448,192,47407,1,0,0:0:0:0:
64,192,47578,128,0,47750:0:0:0:0:
192,192,47750,1,2,0:0:0:0:
448,192,47750,1,0,0:0:0:0:
320,192,47921,128,0,48093:0:0:0:0:
64,192,48093,1,2,0:0:0:0:
192,192,48093,1,0,0:0:0:0:
448,192,48264,128,0,48435:0:0:0:0:
64,192,48435,1,2,0:0:0:0:
320,192,48435,1,0,0:0:0:0:
192,192,48607,128,0,48778:0:0:0:0:
320,192,48778,1,2,0:0:0:0:
448,192,48778,1,0,0:0:0:0:
64,192,48950,128,0,49121:0:0:0:0:
320,192,49121,128,2,49293:0:0:0:0:
448,192,49121,1,0,0:0:0:0:
192,192,49293,128,0,49464:0:0:0:0:
64,192,49464,1,2,0:0:0:0:
448,192,49464,128,0,49635:0:0:0:0:
320,192,49635,1,0,0:0:0:0:
192,192,49807,128,2,49978:0:0:0:0:
448,192,49807,1,0,0:0:0:0:
64,192,49978,128,0,50150:0:0:0:0:
320,192,50150,1,2,0:0:0:0:
448,192,50150,1,0,0:0:0:0:
192,192,50321,128,0,50493:0:0:0:0:
64,192,50493,1,2,0:0:0:0:
320,192,50493,1,0,0:0:0:0:
448,192,50664,128,0,50835:0:0:0:0:
192,192,50835,1,2,0:0:0:0:
320,192,50835,1,0,0:0:0:0:
64,192,51007,128,0,51178:0:0:0:0:
192,192,51178,1,2,0:0:0:0:
448,192,51178,1,0,0:0:0:0:
320,192,51350,128,0,51521:0:0:0:0:
64,192,51521,1,2,0:0:0:0:
192,192,51521,1,0,0:0:0:0:
448,192,51693,128,0,51864:0:0:0:0:
64,192,51864,128,2,52035:0:0:0:0:
320,192,51864,1,0,0:0:0:0:
192,192,52035,128,0,52207:0:0:0:0:
320,192,52207,128,2,52378:0:0:0:0:
448,192,52207,1,0,0:0:0:0:
64,192,52378,1,0,0:0:0:0:
192,192,52550,128,2,52721:0:0:0:0:
448,192,52550,1,0,0:0:0:0:
320,192,52721,128,0,52893:0:0:0:0:
64,192,52893,1,2,0:0:0:0:
192,192,52893,1,0,0:0:0:0:
448,192,53064,128,0,53235:0:0:0:0:
64,192,53235,1,2,0:0:0:0:
320,192,53235,1,0,0:0:0:0:
192,192,53407,128,0,53578:0:0:0:0:
64,192,53578,1,2,0:0:0:0:
448,192,53578,1,0,0:0:0:0:
320,192,53750,128,0,53921:0:0:0:0:
192,192,53921,1,2,0:0:0:0:
448,192,53921,1,0,0:0:0:0:
64,192,54093,1,0,0:0:0:0:
192,192,54178,1,0,0:0:0:0:
320,192,54264,1,2,0:0:0:0:
448,192,54264,1,0,0:0:0:0:
192,192,54350,1,0,0:0:0:0:
64,192,54435,128,0,54607:0:0:0:0:
448,192,54607,1,2,0:0:0:0:
320,192,54607,128,0,54778:0:0:0:0:
192,192,54778,128,0,54950:0:0:0:0:
64,192,54950,1,2,0:0:0:0:
448,192,54950,1,0,0:0:0:0:
320,192,55121,1,0,0:0:0:0:
448,192,55293,1,2,0:0:0:0:
64,192,55293,1,8,0:0:0:0:
192,192,55293,128,0,55464:0:0:0:0:
320,192,55464,128,0,55635:0:0:0:0:
64,192,55635,1,2,0:0:0:0:
448,192,55635,1,0,0:0:0:0:
192,192,55807,128,0,55978:0:0:0:0:
320,192,55978,1,8,0:0:0:0:
448,192,55978,1,2,0:0:0:0:
64,192,55978,1,0,0:0:0:0:
448,192,56150,128,0,56321:0:0:0:0:
192,192,56321,1,2,0:0:0:0:
64,192,56321,1,0,0:0:0:0:
320,192,56493,128,0,56664:0:0:0:0:
64,192,56664,1,8,0:0:0:0:
192,192,56664,1,2,0:0:0:0:
448,192,56664,1,0,0:0:0:0:
192,192,56835,128,0,57007:0:0:0:0:
320,192,57007,1,2,0:0:0:0:
448,192,57007,1,0,0:0:0:0:
64,192,57178,128,0,57350:0:0:0:0:
192,192,57350,1,8,0:0:0:0:
448,192,57350,1,2,0:0:0:0:
320,192,57350,128,0,57521:0:0:0:0:
64,192,57521,128,0,57693:0:0:0:0:
448,192,57693,128,0,57864:0:0:0:0:
192,192,57693,1,2,0:0:0:0:
320,192,57864,1,0,0:0:0:0:
64,192,58035,1,8,0:0:0:0:
448,192,58035,1,2,0:0:0:0:
192,192,58035,1,0,0:0:0:0:
64,192,58207,128,0,58378:0:0:0:0:
448,192,58378,1,2,0:0:0:0:
320,192,58378,1,0,0:0:0:0:
192,192,58550,128,0,58721:0:0:0:0:
448,192,58721,1,0,0:0:0:0:
64,192,58721,1,8,0:0:0:0:
320,192,58721,1,2,0:0:0:0:
448,192,58893,128,0,59064:0:0:0:0:
64,192,59064,1,0,0:0:0:0:
192,192,59064,1,2,0:0:0:0:
320,192,59235,128,0,59407:0:0:0:0:
448,192,59407,1,0,0:0:0:0:
64,192,59407,1,8,0:0:0:0:
192,192,59407,1,2,0:0:0:0:
192,192,59578,128,0,59750:0:0:0:0:
64,192,59750,1,2,0:0:0:0:
448,192,59750,1,0,0:0:0:0:
320,192,59921,128,0,60093:0:0:0:0:
192,192,60093,1,0,0:0:0:0:
64,192,60093,1,8,0:0:0:0:
448,192,60093,128,2,60264:0:0:0:0:
320,192,60264,128,0,60435:0:0:0:0:
192,192,60435,1,2,0:0:0:0:
64,192,60435,128,0,60607:0:0:0:0:
448,192,60607,1,0,0:0:0:0:
320,192,60778,1,0,0:0:0:0:
192,192,60778,1,2,0:0:0:0:
64,192,60778,1,8,0:0:0:0:
320,192,60950,128,0,61121:0:0:0:0:
192,192,61121,1,2,0:0:0:0:
448,192,61121,1,0,0:0:0:0:
64,192,61293,128,0,61464:0:0:0:0:
320,192,61464,1,0,0:0:0:0:
192,192,61464,1,8,0:0:0:0:
448,192,61464,1,2,0:0:0:0:
192,192,61635,128,0,61807:0:0:0:0:
64,192,61807,1,2,0:0:0:0:
448,192,61807,1,0,0:0:0:0:
320,192,61978,128,0,62150:0:0:0:0:
192,192,62150,1,0,0:0:0:0:
64,192,62150,1,8,0:0:0:0:
448,192,62150,1,2,0:0:0:0:
448,192,62321,128,0,62493:0:0:0:0:
320,192,62493,1,2,0:0:0:0:
192,192,62493,1,0,0:0:0:0:
64,192,62664,128,0,62835:0:0:0:0:
448,192,62835,1,0,0:0:0:0:
192,192,62835,1,8,0:0:0:0:
320,192,62835,128,2,63007:0:0:0:0:
64,192,63007,128,0,63178:0:0:0:0:
192,192,63178,1,2,0:0:0:0:
448,192,63178,128,0,63350:0:0:0:0:
320,192,63350,1,0,0:0:0:0:
192,192,63521,1,0,0:0:0:0:
448,192,63521,1,2,0:0:0:0:
64,192,63521,1,8,0:0:0:0:
320,192,63693,128,0,63864:0:0:0:0:
448,192,63864,1,2,0:0:0:0:
64,192,63864,1,0,0:0:0:0:
192,192,64035,128,0,64207:0:0:0:0:
320,192,64207,1,0,0:0:0:0:
64,192,64207,1,8,0:0:0:0:
448,192,64207,1,2,0:0:0:0:
448,192,64378,128,0,64550:0:0:0:0:
64,192,64550,128,0,65235:0:0:0:0:
192,192,64550,1,0,0:0:0:100:boom.wav
320,192,64721,128,0,64893:0:0:0:0:
192,192,65064,128,0,65235:0:0:0:0:
448,192,65235,128,0,65407:0:0:0:0:
320,192,65407,128,0,65578:0:0:0:0:
64,192,65578,128,0,65750:0:0:0:0:
192,192,65750,128,0,65921:0:0:0:0:
448,192,65921,128,0,66093:0:0:0:0:
320,192,65921,1,2,0:0:0:0:
64,192,65921,128,4,66093:0:0:0:0:
192,192,66093,1,0,0:0:0:0:
448,192,66264,1,2,0:0:0:0:
320,192,66264,1,0,0:0:0:0:
64,192,66264,1,8,0:0:0:0:
320,192,66435,128,0,66607:0:0:0:0:
64,192,66607,1,2,0:0:0:0:
192,192,66607,1,0,0:0:0:0:
448,192,66778,128,0,66950:0:0:0:0:
64,192,66950,1,8,0:0:0:0:
320,192,66950,1,2,0:0:0:0:
192,192,66950,1,0,0:0:0:0:
64,192,67121,128,0,67293:0:0:0:0:
192,192,67293,1,2,0:0:0:0:
448,192,67293,1,0,0:0:0:0:
320,192,67464,128,0,67635:0:0:0:0:
192,192,67635,128,8,67807:0:0:0:0:
64,192,67635,1,2,0:0:0:0:
448,192,67635,1,0,0:0:0:0:
320,192,67807,128,0,67978:0:0:0:0:
448,192,67978,1,2,0:0:0:0:
64,192,67978,128,0,68150:0:0:0:0:
192,192,68150,128,0,68321:0:0:0:0:
320,192,68321,128,8,68493:0:0:0:0:
64,192,68321,1,2,0:0:0:0:
448,192,68321,1,0,0:0:0:0:
192,192,68493,128,0,68664:0:0:0:0:
64,192,68664,1,2,0:0:0:0:
448,192,68664,128,0,68835:0:0:0:0:
320,192,68835,1,0,0:0:0:0:
192,192,69007,1,8,0:0:0:0:
64,192,69007,1,2,0:0:0:0:
448,192,69007,1,0,0:0:0:0:
64,192,69178,128,0,69350:0:0:0:0:
448,192,69350,1,2,0:0:0:0:
192,192,69350,1,0,0:0:0:0:
320,192,69521,128,0,69693:0:0:0:0:
64,192,69693,1,8,0:0:0:0:
192,192,69693,1,2,0:0:0:0:
448,192,69693,1,0,0:0:0:0:
192,192,69864,128,0,70035:0:0:0:0:
448,192,70035,1,2,0:0:0:0:
320,192,70035,1,0,0:0:0:0:
64,192,70207,128,0,70378:0:0:0:0:
320,192,70378,1,8,0:0:0:0:
192,192,70378,128,2,70550:0:0:0:0:
448,192,70378,1,0,0:0:0:0:
64,192,70550,128,0,70721:0:0:0:0:
448,192,70721,1,2,0:0:0:0:
320,192,70721,128,0,70893:0:0:0:0:
192,192,70893,128,0,71064:0:0:0:0:
320,192,71064,1,8,0:0:0:0:
448,192,71064,128,2,71235:0:0:0:0:
64,192,71064,1,0,0:0:0:0:
192,192,71235,128,0,71407:0:0:0:0:
64,192,71407,128,2,71578:0:0:0:0:
320,192,71407,1,0,0:0:0:0:
448,192,71578,1,0,0:0:0:0:
320,192,71750,1,2,0:0:0:0:
64,192,71750,1,0,0:0:0:0:
192,192,71750,1,8,0:0:0:0:
320,192,71921,128,0,72093:0:0:0:0:
64,192,72093,1,2,0:0:0:0:
192,192,72093,1,0,0:0:0:0:
448,192,72264,128,0,72435:0:0:0:0:
64,192,72435,1,8,0:0:0:0:
320,192,72435,1,2,0:0:0:0:
192,192,72435,1,0,0:0:0:0:
192,192,72607,128,0,72778:0:0:0:0:
64,192,72778,1,2,0:0:0:0:
448,192,72778,1,0,0:0:0:0:
320,192,72950,128,0,73121:0:0:0:0:
64,192,73121,1,8,0:0:0:0:
192,192,73121,128,2,73293:0:0:0:0:
448,192,73121,1,0,0:0:0:0:
448,192,73293,128,0,73464:0:0:0:0:
64,192,73464,1,2,0:0:0:0:
320,192,73464,128,0,73635:0:0:0:0:
192,192,73635,128,0,73807:0:0:0:0:
64,192,73807,128,8,73978:0:0:0:0:
448,192,73807,1,2,0:0:0:0:
320,192,73807,1,0,0:0:0:0:
192,192,73978,128,0,74150:0:0:0:0:
448,192,74150,1,2,0:0:0:0:
320,192,74150,128,0,74321:0:0:0:0:
64,192,74321,1,0,0:0:0:0:
320,192,74493,1,8,0:0:0:0:
192,192,74493,1,2,0:0:0:0:
448,192,74493,1,0,0:0:0:0:
448,192,74664,128,0,74835:0:0:0:0:
64,192,74835,1,2,0:0:0:0:
320,192,74835,1,0,0:0:0:0:
192,192,75007,128,0,75178:0:0:0:0:
320,192,75178,1,8,0:0:0:0:
64,192,75178,1,2,0:0:0:0:
448,192,75178,1,0,0:0:0:0:
192,192,75350,128,0,75521:0:0:0:0:
64,192,75521,128,2,75693:0:0:0:0:
448,192,75521,1,0,0:0:0:0:
320,192,75693,128,0,75864:0:0:0:0:
192,192,75864,128,8,76035:0:0:0:0:
448,192,75864,1,2,0:0:0:0:
64,192,75864,1,0,0:0:0:0:
320,192,76035,128,0,76207:0:0:0:0:
64,192,76207,1,2,0:0:0:0:
448,192,76207,128,0,76378:0:0:0:0:
192,192,76378,128,0,76550:0:0:0:0:
448,192,76550,1,2,0:0:0:0:
320,192,76550,1,8,0:0:0:0:
64,192,76550,128,0,76721:0:0:0:0:
192,192,76721,128,0,76893:0:0:0:0:
320,192,76893,128,4,77064:0:0:0:0:
448,192,76893,128,2,77064:0:0:0:0:
64,192,76893,1,0,0:0:0:0:
192,192,77064,1,0,0:0:0:0:
320,192,77235,1,2,0:0:0:0:
448,192,77235,1,0,0:0:0:0:
64,192,77235,1,8,0:0:0:0:
448,192,77407,128,0,77578:0:0:0:0:
64,192,77578,1,2,0:0:0:0:
320,192,77578,1,0,0:0:0:0:
192,192,77750,128,0,77921:0:0:0:0:
320,192,77921,1,8,0:0:0:0:
448,192,77921,1,2,0:0:0:0:
64,192,77921,1,0,0:0:0:0:
448,192,78093,128,0,78264:0:0:0:0:
64,192,78264,1,2,0:0:0:0:
192,192,78264,1,0,0:0:0:0:
320,192,78435,128,0,78607:0:0:0:0:
64,192,78607,1,8,0:0:0:0:
192,192,78607,128,2,78778:0:0:0:0:
448,192,78607,1,0,0:0:0:0:
320,192,78778,128,0,78950:0:0:0:0:
64,192,78950,1,2,0:0:0:0:
448,192,78950,128,0,79121:0:0:0:0:
192,192,79121,128,0,79293:0:0:0:0:
320,192,79293,128,8,79464:0:0:0:0:
448,192,79293,1,2,0:0:0:0:
64,192,79293,1,0,0:0:0:0:
192,192,79464,128,0,79635:0:0:0:0:
64,192,79635,1,2,0:0:0:0:
448,192,79635,128,0,79807:0:0:0:0:
192,192,79807,1,0,0:0:0:0:
64,192,79978,1,8,0:0:0:0:
320,192,79978,1,2,0:0:0:0:
448,192,79978,1,0,0:0:0:0:
64,192,80150,128,0,80321:0:0:0:0:
320,192,80321,1,2,0:0:0:0:
448,192,80321,1,0,0:0:0:0:
192,192,80493,128,0,80664:0:0:0:0:
64,192,80664,1,8,0:0:0:0:
448,192,80664,1,2,0:0:0:0:
320,192,80664,1,0,0:0:0:0:
448,192,80835,128,0,81007:0:0:0:0:
320,192,81007,1,2,0:0:0:0:
192,192,81007,1,0,0:0:0:0:
64,192,81178,128,0,81350:0:0:0:0:
320,192,81350,128,8,81521:0:0:0:0:
448,192,81350,1,2,0:0:0:0:
192,192,81350,1,0,0:0:0:0:
64,192,81521,128,0,81693:0:0:0:0:
192,192,81693,1,2,0:0:0:0:
448,192,81693,128,0,81864:0:0:0:0:
320,192,81864,128,0,82035:0:0:0:0:
192,192,82035,128,8,82207:0:0:0:0:
448,192,82035,1,2,0:0:0:0:
64,192,82035,1,0,0:0:0:0:
320,192,82207,128,0,82378:0:0:0:0:
64,192,82378,128,2,82550:0:0:0:0:
192,192,82378,1,0,0:0:0:0:
448,192,82550,1,0,0:0:0:0:
320,192,82721,1,2,0:0:0:0:
192,192,82721,1,0,0:0:0:0:
64,192,82721,1,8,0:0:0:0:
192,192,82893,128,0,83064:0:0:0:0:
64,192,83064,1,2,0:0:0:0:
448,192,83064,1,0,0:0:0:0:
320,192,83235,128,0,83407:0:0:0:0:
64,192,83407,1,8,0:0:0:0:
448,192,83407,1,2,0:0:0:0:
192,192,83407,1,0,0:0:0:0:
448,192,83578,128,0,83750:0:0:0:0:
64,192,83750,1,2,0:0:0:0:
192,192,83750,1,0,0:0:0:0:
320,192,83921,128,0,84093:0:0:0:0:
64,192,84093,128,8,84264:0:0:0:0:
448,192,84093,1,2,0:0:0:0:
192,192,84093,1,0,0:0:0:0:
320,192,84264,128,0,84435:0:0:0:0:
64,192,84435,1,2,0:0:0:0:
192,192,84435,128,0,84607:0:0:0:0:
448,192,84607,128,0,84778:0:0:0:0:
64,192,84778,128,8,84950:0:0:0:0:
320,192,84778,1,2,0:0:0:0:
192,192,84778,1,0,0:0:0:0:
448,192,84950,128,0,85121:0:0:0:0:
320,192,85121,128,2,85293:0:0:0:0:
192,192,85121,1,0,0:0:0:0:
64,192,85293,1,0,0:0:0:0:
192,192,85464,1,8,0:0:0:0:
320,192,85464,1,2,0:0:0:0:
448,192,85464,1,0,0:0:0:0:
448,192,85635,128,0,85807:0:0:0:0:
320,192,85807,1,2,0:0:0:0:
64,192,85807,1,0,0:0:0:0:
192,192,85978,128,0,86150:0:0:0:0:
448,192,86150,1,8,0:0:0:0:
64,192,86150,1,2,0:0:0:0:
320,192,86150,1,0,0:0:0:0:
192,192,86321,128,0,86493:0:0:0:0:
64,192,86493,1,2,0:0:0:0:
448,192,86493,1,0,0:0:0:0:
320,192,86664,128,0,86835:0:0:0:0:
64,192,86835,1,8,0:0:0:0:
192,192,86835,128,2,87007:0:0:0:0:
448,192,86835,1,0,0:0:0:0:
320,192,87007,128,0,87178:0:0:0:0:
64,192,87178,1,2,0:0:0:0:
448,192,87178,1,0,0:0:0:0:
192,192,87350,1,0,0:0:0:0:
448,192,87350,1,0,0:0:0:0:
448,192,87521,1,8,0:0:0:0:
64,192,87521,128,0,87693:0:0:0:0:
320,192,87521,1,2,0:0:0:0:
192,192,87693,128,0,87864:0:0:0:0:
448,192,87864,128,4,88035:0:0:0:0:
320,192,87864,1,2,0:0:0:0:
64,192,87864,1,0,0:0:0:0:
192,192,88035,1,0,0:0:0:0:
448,192,88207,128,8,88378:0:0:0:0:
320,192,88207,1,2,0:0:0:0:
64,192,88207,1,0,0:0:0:0:
192,192,88378,1,0,0:0:0:0:
64,192,88550,1,2,0:0:0:0:
448,192,88550,1,0,0:0:0:0:
320,192,88721,1,0,0:0:0:0:
192,192,88893,1,8,0:0:0:0:
64,192,88893,1,2,0:0:0:0:
320,192,88893,1,0,0:0:0:0:
448,192,89064,1,0,0:0:0:0:
320,192,89235,1,2,0:0:0:0:
64,192,89235,128,0,89407:0:0:0:0:
192,192,89407,1,0,0:0:0:0:
448,192,89578,1,8,0:0:0:0:
64,192,89578,128,2,89750:0:0:0:0:
320,192,89578,1,0,0:0:0:0:
192,192,89750,1,0,0:0:0:0:
64,192,89921,1,2,0:0:0:0:
448,192,89921,128,0,90093:0:0:0:0:
320,192,90093,128,0,90264:0:0:0:0:
64,192,90264,1,8,0:0:0:0:
192,192,90264,128,2,90435:0:0:0:0:
448,192,90264,1,0,0:0:0:0:
320,192,90435,128,0,90607:0:0:0:0:
64,192,90607,128,2,90778:0:0:0:0:
448,192,90607,1,0,0:0:0:0:
192,192,90778,1,0,0:0:0:0:
64,192,90950,128,8,91121:0:0:0:0:
320,192,90950,1,2,0:0:0:0:
448,192,90950,1,0,0:0:0:0:
192,192,91121,1,0,0:0:0:0:
64,192,91293,1,2,0:0:0:0:
448,192,91293,1,0,0:0:0:0:
320,192,91464,1,0,0:0:0:0:
64,192,91635,1,8,0:0:0:0:
448,192,91635,1,2,0:0:0:0:
320,192,91635,1,0,0:0:0:0:
192,192,91807,1,0,0:0:0:0:
320,192,91978,1,2,0:0:0:0:
448,192,91978,128,0,92150:0:0:0:0:
64,192,92150,1,0,0:0:0:0:
320,192,92321,1,8,0:0:0:0:
448,192,92321,128,2,92493:0:0:0:0:
192,192,92321,1,0,0:0:0:0:
64,192,92493,1,0,0:0:0:0:
448,192,92664,1,2,0:0:0:0:
320,192,92664,128,0,92835:0:0:0:0:
192,192,92835,128,0,93007:0:0:0:0:
448,192,93007,128,8,93178:0:0:0:0:
64,192,93007,1,2,0:0:0:0:
320,192,93007,1,0,0:0:0:0:
192,192,93178,128,0,93350:0:0:0:0:
448,192,93350,1,2,0:0:0:0:
64,192,93350,128,0,93693:0:0:0:0:
320,192,93521,1,0,0:0:0:0:
320,192,93693,128,8,94035:0:0:0:0:
192,192,93693,1,2,0:0:0:0:
448,192,93693,1,0,0:0:0:0:
64,192,93864,1,0,0:0:0:0:
192,192,94035,128,2,94378:0:0:0:0:
448,192,94035,1,0,0:0:0:0:
320,192,94207,1,0,0:0:0:0:
64,192,94378,1,2,0:0:0:0:
320,192,94378,1,8,0:0:0:0:
448,192,94378,128,0,94721:0:0:0:0:
192,192,94550,1,0,0:0:0:0:
320,192,94721,1,2,0:0:0:0:
64,192,94721,128,0,95064:0:0:0:0:
448,192,94893,1,0,0:0:0:0:
448,192,95064,1,0,0:0:0:0:
320,192,95064,1,8,0:0:0:0:
192,192,95064,128,2,95407:0:0:0:0:
64,192,95235,1,0,0:0:0:0:
320,192,95407,1,0,0:0:0:0:
448,192,95407,128,2,95750:0:0:0:0:
192,192,95578,1,0,0:0:0:0:
64,192,95750,128,8,96093:0:0:0:0:
192,192,95750,1,2,0:0:0:0:
320,192,95750,1,0,0:0:0:0:
448,192,95921,1,0,0:0:0:0:
192,192,96093,1,2,0:0:0:0:
320,192,96093,128,0,96435:0:0:0:0:
64,192,96264,1,0,0:0:0:0:
448,192,96435,1,2,0:0:0:0:
192,192,96435,1,8,0:0:0:0:
64,192,96435,128,0,96778:0:0:0:0:
320,192,96607,1,0,0:0:0:0:
192,192,96778,128,2,97121:0:0:0:0:
448,192,96778,1,0,0:0:0:0:
320,192,96950,1,0,0:0:0:0:
320,192,97121,1,8,0:0:0:0:
448,192,97121,128,2,97464:0:0:0:0:
64,192,97121,1,0,0:0:0:0:
192,192,97293,1,0,0:0:0:0:
320,192,97464,128,2,97807:0:0:0:0:
64,192,97464,1,0,0:0:0:0:
192,192,97635,1,0,0:0:0:0:
192,192,97807,128,8,98150:0:0:0:0:
64,192,97807,1,2,0:0:0:0:
448,192,97807,1,0,0:0:0:0:
320,192,97978,1,0,0:0:0:0:
64,192,98150,128,2,98321:0:0:0:0:
448,192,98150,1,0,0:0:0:0:
192,192,98321,128,0,98493:0:0:0:0:
320,192,98493,128,8,98664:0:0:0:0:
448,192,98493,1,2,0:0:0:0:
64,192,98493,1,0,0:0:0:0:
192,192,98664,128,0,98835:0:0:0:0:
64,192,98835,1,4,0:0:0:0:
320,192,98835,1,2,0:0:0:0:
448,192,98835,128,0,99007:0:0:0:0:
192,192,99007,1,0,0:0:0:0:
64,192,99178,1,8,0:0:0:0:
448,192,99178,128,2,99350:0:0:0:0:
320,192,99178,1,0,0:0:0:0:
192,192,99350,1,0,0:0:0:0:
64,192,99521,1,2,0:0:0:0:
448,192,99521,1,0,0:0:0:0:
320,192,99693,1,0,0:0:0:0:
192,192,99864,1,8,0:0:0:0:
64,192,99864,1,2,0:0:0:0:
320,192,99864,1,0,0:0:0:0:
448,192,100035,1,0,0:0:0:0:
64,192,100207,128,2,100378:0:0:0:0:
192,192,100207,1,0,0:0:0:0:
320,192,100378,1,0,0:0:0:0:
64,192,100550,128,8,100721:0:0:0:0:
192,192,100550,1,2,0:0:0:0:
448,192,100550,1,0,0:0:0:0:
320,192,100721,1,0,0:0:0:0:
64,192,100893,1,2,0:0:0:0:
448,192,100893,128,0,101064:0:0:0:0:
192,192,101064,128,0,101235:0:0:0:0:
64,192,101235,1,8,0:0:0:0:
320,192,101235,128,2,101407:0:0:0:0:
448,192,101235,1,0,0:0:0:0:
192,192,101407,128,0,101578:0:0:0:0:
64,192,101578,128,2,101750:0:0:0:0:
448,192,101578,1,0,0:0:0:0:
320,192,101750,1,0,0:0:0:0:
64,192,101921,128,8,102093:0:0:0:0:
448,192,101921,1,2,0:0:0:0:
192,192,101921,1,0,0:0:0:0:
320,192,102093,1,0,0:0:0:0:
192,192,102264,1,2,0:0:0:0:
64,192,102264,1,0,0:0:0:0:
320,192,102435,1,0,0:0:0:0:
64,192,102607,1,8,0:0:0:0:
320,192,102607,1,2,0:0:0:0:
448,192,102607,1,0,0:0:0:0:
192,192,102778,1,0,0:0:0:0:
64,192,102950,1,2,0:0:0:0:
448,192,102950,128,0,103121:0:0:0:0:
320,192,103121,1,0,0:0:0:0:
64,192,103293,1,8,0:0:0:0:
448,192,103293,128,2,103464:0:0:0:0:
192,192,103293,1,0,0:0:0:0:
320,192,103464,1,0,0:0:0:0:
448,192,103635,1,2,0:0:0:0:
64,192,103635,128,0,103807:0:0:0:0:
192,192,103807,128,0,103978:0:0:0:0:
320,192,103978,1,8,0:0:0:0:
448,192,103978,128,2,104150:0:0:0:0:
64,192,103978,1,0,0:0:0:0:
192,192,104150,128,0,104321:0:0:0:0:
64,192,104321,1,2,0:0:0:0:
448,192,104321,1,0,0:0:0:0:
320,192,104407,1,2,0:0:0:0:
192,192,104493,1,2,0:0:0:0:
320,192,104578,1,2,0:0:0:0:
448,192,104664,1,8,0:0:0:0:
64,192,104664,1,2,0:0:0:0:
192,192,104750,1,2,0:0:0:0:
320,192,104835,1,2,0:0:0:0:
192,192,104921,1,2,0:0:0:0:
320,192,105007,1,2,0:0:0:0:
448,192,105007,1,0,0:0:0:0:
64,192,105093,1,2,0:0:0:0:
192,192,105178,1,2,0:0:0:0:
320,192,105264,1,2,0:0:0:0:
448,192,105350,1,8,0:0:0:0:
64,192,105350,1,2,0:0:0:0:
192,192,105435,1,2,0:0:0:0:
320,192,105521,1,2,0:0:0:0:
192,192,105607,1,2,0:0:0:0:
64,192,105693,1,2,0:0:0:0:
320,192,105693,1,0,0:0:0:0:
448,192,105778,1,2,0:0:0:0:
192,192,105864,1,2,0:0:0:0:
320,192,105950,1,2,0:0:0:0:
448,192,106035,1,8,0:0:0:0:
64,192,106035,1,2,0:0:0:0:
320,192,106121,1,2,0:0:0:0:
192,192,106207,1,2,0:0:0:0:
448,192,106293,1,2,0:0:0:0:
192,192,106378,1,2,0:0:0:0:
320,192,106378,1,0,0:0:0:0:
64,192,106464,1,2,0:0:0:0:
448,192,106550,1,2,0:0:0:0:
320,192,106635,1,2,0:0:0:0:
64,192,106721,1,8,0:0:0:0:
192,192,106721,1,2,0:0:0:0:
448,192,106807,1,2,0:0:0:0:
320,192,106893,1,2,0:0:0:0:
192,192,106978,1,2,0:0:0:0:
320,192,107064,1,2,0:0:0:0:
448,192,107064,1,0,0:0:0:0:
64,192,107150,1,2,0:0:0:0:
192,192,107235,1,2,0:0:0:0:
320,192,107321,1,2,0:0:0:0:
448,192,107407,1,8,0:0:0:0:
64,192,107407,1,2,0:0:0:0:
192,192,107493,1,2,0:0:0:0:
448,192,107578,1,2,0:0:0:0:
320,192,107664,1,2,0:0:0:0:
64,192,107750,1,2,0:0:0:0:
192,192,107750,1,0,0:0:0:0:
448,192,107835,1,2,0:0:0:0:
320,192,107921,1,2,0:0:0:0:
192,192,108007,1,2,0:0:0:0:
64,192,108093,1,8,0:0:0:0:
448,192,108093,1,2,0:0:0:0:
320,192,108178,1,2,0:0:0:0:
192,192,108264,1,2,0:0:0:0:
448,192,108350,1,2,0:0:0:0:
64,192,108435,1,2,0:0:0:0:
192,192,108435,1,0,0:0:0:0:
320,192,108521,1,2,0:0:0:0:
448,192,108607,1,2,0:0:0:0:
64,192,108693,1,2,0:0:0:0:
320,192,108778,1,8,0:0:0:0:
192,192,108778,1,2,0:0:0:0:
448,192,108864,1,2,0:0:0:0:
64,192,108950,1,2,0:0:0:0:
320,192,109035,1,2,0:0:0:0:
192,192,109121,1,2,0:0:0:0:
64,192,109121,1,0,0:0:0:0:
448,192,109207,1,2,0:0:0:0:
320,192,109293,1,2,0:0:0:0:
192,192,109378,1,2,0:0:0:0:
64,192,109464,1,8,0:0:0:0:
448,192,109464,1,2,0:0:0:0:
320,192,109550,1,2,0:0:0:0:
192,192,109635,1,2,0:0:0:0:
320,192,109721,1,2,0:0:0:0:
448,192,109807,1,0,0:0:0:100:boom.wav
64,192,109807,128,0,110150:0:0:0:0:
320,192,110150,128,0,110493:0:0:0:0:
192,192,110493,128,0,110835:0:0:0:0:
448,192,110835,128,0,111178:0:0:0:0:
320,192,111178,128,0,111521:0:0:0:0:
448,192,111521,128,0,111864:0:0:0:0:
64,192,111864,128,0,112207:0:0:0:0:
448,192,112207,128,0,112550:0:0:0:0:
64,192,112550,128,0,112893:0:0:0:0:
192,192,112893,128,0,113235:0:0:0:0:
320,192,113235,128,0,113578:0:0:0:0:
448,192,113578,128,0,113921:0:0:0:0:
64,192,113921,128,0,114264:0:0:0:0:
192,192,114264,128,0,114607:0:0:0:0:
448,192,114607,128,0,114950:0:0:0:0:
320,192,114950,128,0,115293:0:0:0:0:
64,192,115293,1,0,0:0:0:75:clap.wav
448,192,115293,1,0,0:0:0:0:
64,192,115464,1,0,0:0:0:0:
448,192,115635,1,0,0:0:0:75:clap.wav
192,192,115635,1,0,0:0:0:0:
448,192,115807,1,0,0:0:0:0:
64,192,115978,1,0,0:0:0:75:clap.wav
320,192,115978,1,0,0:0:0:0:
320,192,116150,1,0,0:0:0:0:
64,192,116321,1,0,0:0:0:75:clap.wav
448,192,116321,1,0,0:0:0:0:
64,192,116493,1,0,0:0:0:0:
192,192,116664,1,0,0:0:0:75:clap.wav
448,192,116664,1,0,0:0:0:0:
448,192,116835,1,0,0:0:0:0:
64,192,117007,1,0,0:0:0:75:clap.wav
320,192,117007,1,0,0:0:0:0:
64,192,117178,1,0,0:0:0:0:
192,192,117350,1,0,0:0:0:75:clap.wav
448,192,117350,1,0,0:0:0:0:
192,192,117521,1,0,0:0:0:0:
448,192,117693,1,0,0:0:0:75:clap.wav
64,192,117693,1,0,0:0:0:0:
448,192,117864,1,0,0:0:0:0:
320,192,118035,1,0,0:0:0:75:clap.wav
64,192,118035,1,0,0:0:0:0:
64,192,118207,1,0,0:0:0:0:
192,192,118378,1,0,0:0:0:75:clap.wav
448,192,118378,1,0,0:0:0:0:
192,192,118550,1,0,0:0:0:0:
320,192,118721,1,0,0:0:0:75:clap.wav
64,192,118721,1,0,0:0:0:0:
320,192,118893,1,0,0:0:0:0:
448,192,119064,1,0,0:0:0:75:clap.wav
192,192,119064,1,0,0:0:0:0:
448,192,119235,1,0,0:0:0:0:
320,192,119407,1,0,0:0:0:75:clap.wav
64,192,119407,1,0,0:0:0:0:
64,192,119578,1,0,0:0:0:0:
448,192,119750,1,0,0:0:0:75:clap.wav
192,192,119750,1,0,0:0:0:0:
192,192,119921,1,0,0:0:0:0:
64,192,120093,1,0,0:0:0:75:clap.wav
320,192,120093,1,0,0:0:0:0:
320,192,120264,1,0,0:0:0:0:
448,192,120435,1,0,0:0:0:75:clap.wav
192,192,120435,1,0,0:0:0:0:
192,192,120607,1,0,0:0:0:0:
64,192,120778,1,8,0:0:0:0:
448,192,120778,1,2,0:0:0:0:
320,192,120778,1,0,0:0:0:0:
192,192,120950,1,2,0:0:0:0:
320,192,121035,1,2,0:0:0:0:
64,192,121121,1,8,0:0:0:0:
448,192,121121,1,2,0:0:0:0:
192,192,121121,1,0,0:0:0:0:
320,192,121293,1,2,0:0:0:0:
64,192,121464,1,8,0:0:0:0:
192,192,121464,1,2,0:0:0:0:
448,192,121464,1,0,0:0:0:0:
320,192,121635,1,2,0:0:0:0:
192,192,121721,1,2,0:0:0:0:
64,192,121807,1,8,0:0:0:0:
448,192,121807,1,2,0:0:0:0:
320,192,121807,1,0,0:0:0:0:
192,192,121978,1,2,0:0:0:0:
64,192,122150,1,8,0:0:0:0:
320,192,122150,1,2,0:0:0:0:
448,192,122150,1,0,0:0:0:0:
192,192,122321,1,2,0:0:0:0:
448,192,122407,1,2,0:0:0:0:
64,192,122493,1,8,0:0:0:0:
192,192,122493,1,2,0:0:0:0:
320,192,122493,1,0,0:0:0:0:
448,192,122664,1,2,0:0:0:0:
64,192,122835,1,8,0:0:0:0:
320,192,122835,1,2,0:0:0:0:
192,192,122835,1,0,0:0:0:0:
448,192,123007,1,2,0:0:0:0:
64,192,123093,1,2,0:0:0:0:
192,192,123178,1,8,0:0:0:0:
320,192,123178,1,2,0:0:0:0:
448,192,123178,1,0,0:0:0:0:
64,192,123350,1,2,0:0:0:0:
192,192,123521,1,8,0:0:0:0:
320,192,123521,1,2,0:0:0:0:
448,192,123521,1,0,0:0:0:0:
64,192,123693,1,2,0:0:0:0:
320,192,123778,1,2,0:0:0:0:
192,192,123864,1,8,0:0:0:0:
448,192,123864,1,2,0:0:0:0:
64,192,123864,1,0,0:0:0:0:
320,192,124035,1,2,0:0:0:0:
64,192,124207,1,8,0:0:0:0:
448,192,124207,1,2,0:0:0:0:
192,192,124207,1,0,0:0:0:0:
320,192,124378,1,2,0:0:0:0:
192,192,124464,1,2,0:0:0:0:
320,192,124550,1,8,0:0:0:0:
448,192,124550,1,2,0:0:0:0:
64,192,124550,1,0,0:0:0:0:
192,192,124721,1,2,0:0:0:0:
448,192,124893,1,8,0:0:0:0:
320,192,124893,1,2,0:0:0:0:
64,192,124893,1,0,0:0:0:0:
192,192,125064,1,2,0:0:0:0:
448,192,125150,1,2,0:0:0:0:
192,192,125235,1,8,0:0:0:0:
64,192,125235,1,2,0:0:0:0:
320,192,125235,1,0,0:0:0:0:
448,192,125407,1,2,0:0:0:0:
320,192,125578,1,8,0:0:0:0:
64,192,125578,1,2,0:0:0:0:
192,192,125578,1,0,0:0:0:0:
448,192,125750,1,2,0:0:0:0:
64,192,125835,1,2,0:0:0:0:
320,192,125921,1,8,0:0:0:0:
192,192,125921,1,2,0:0:0:0:
448,192,125921,1,0,0:0:0:0:
64,192,126093,1,2,0:0:0:0:
320,192,126264,1,8,0:0:0:0:
448,192,126264,1,2,0:0:0:0:
192,192,126350,1,2,0:0:0:0:
320,192,126435,1,2,0:0:0:0:
64,192,126521,1,2,0:0:0:0:
192,192,126607,1,8,0:0:0:0:
448,192,126607,1,2,0:0:0:0:
320,192,126693,1,2,0:0:0:0:
192,192,126778,1,2,0:0:0:0:
64,192,126864,1,2,0:0:0:0:
320,192,126950,1,8,0:0:0:0:
448,192,126950,1,2,0:0:0:0:
192,192,127035,1,2,0:0:0:0:
320,192,127121,1,2,0:0:0:0:
64,192,127207,1,2,0:0:0:0:
192,192,127293,1,8,0:0:0:0:
448,192,127293,1,2,0:0:0:0:
320,192,127378,1,2,0:0:0:0:
192,192,127464,1,2,0:0:0:0:
320,192,127550,1,2,0:0:0:0:
64,192,127635,1,8,0:0:0:0:
448,192,127635,1,2,0:0:0:0:
192,192,127721,1,2,0:0:0:0:
64,192,127807,1,2,0:0:0:0:
320,192,127893,1,2,0:0:0:0:
192,192,127978,1,8,0:0:0:0:
448,192,127978,1,2,0:0:0:0:
320,192,128064,1,2,0:0:0:0:
192,192,128150,1,2,0:0:0:0:
64,192,128235,1,2,0:0:0:0:
448,192,128321,1,2,0:0:0:0:
320,192,128321,1,8,0:0:0:0:
192,192,128407,1,2,0:0:0:0:
320,192,128493,1,2,0:0:0:0:
448,192,128578,1,2,0:0:0:0:
64,192,128664,1,8,0:0:0:0:
192,192,128664,1,2,0:0:0:0:
320,192,128750,1,2,0:0:0:0:
192,192,128835,1,2,0:0:0:0:
64,192,128921,1,2,0:0:0:0:
320,192,129007,1,10,0:0:0:0:
448,192,129007,128,0,130378:0:0:0:0:
192,192,129093,1,2,0:0:0:0:
320,192,129178,1,2,0:0:0:0:
64,192,129264,1,2,0:0:0:0:
192,192,129350,1,10,0:0:0:0:
320,192,129435,1,2,0:0:0:0:
192,192,129521,1,2,0:0:0:0:
64,192,129607,1,2,0:0:0:0:
320,192,129693,1,10,0:0:0:0:
192,192,129778,1,2,0:0:0:0:
320,192,129864,1,2,0:0:0:0:
64,192,129950,1,2,0:0:0:0:
192,192,130035,1,10,0:0:0:0:
320,192,130121,1,2,0:0:0:0:
64,192,130207,1,2,0:0:0:0:
192,192,130293,1,2,0:0:0:0:
320,192,130378,1,10,0:0:0:0:
64,192,130378,128,0,131064:0:0:0:0:
192,192,130464,1,2,0:0:0:0:
320,192,130550,1,2,0:0:0:0:
448,192,130635,1,2,0:0:0:0:
192,192,130721,1,10,0:0:0:0:
320,192,130807,1,2,0:0:0:0:
448,192,130893,1,2,0:0:0:0:
192,192,130978,1,2,0:0:0:0:
320,192,131064,1,10,0:0:0:0:
448,192,131150,1,2,0:0:0:0:
192,192,131235,1,2,0:0:0:0:
64,192,131321,1,2,0:0:0:0:
448,192,131407,1,10,0:0:0:0:
320,192,131493,1,2,0:0:0:0:
192,192,131578,1,2,0:0:0:0:
320,192,131664,1,2,0:0:0:0:
64,192,131750,1,4,0:0:0:0:
192,192,131750,1,2,0:0:0:0:
448,192,131750,1,0,0:0:0:0:
64,192,131921,1,0,0:0:0:0:
320,192,132093,1,0,0:0:0:0:
192,192,132093,1,8,0:0:0:0:
448,192,132093,1,2,0:0:0:0:
448,192,132264,1,0,0:0:0:0:
320,192,132435,1,2,0:0:0:0:
192,192,132435,1,0,0:0:0:0:
192,192,132607,1,0,0:0:0:0:
64,192,132778,1,8,0:0:0:0:
448,192,132778,1,2,0:0:0:0:
320,192,132778,1,0,0:0:0:0:
64,192,132950,1,0,0:0:0:0:
320,192,133121,1,2,0:0:0:0:
448,192,133121,1,0,0:0:0:0:
320,192,133293,1,0,0:0:0:0:
64,192,133464,1,8,0:0:0:0:
448,192,133464,1,2,0:0:0:0:
192,192,133464,1,0,0:0:0:0:
192,192,133635,1,0,0:0:0:0:
320,192,133807,1,2,0:0:0:0:
64,192,133807,1,0,0:0:0:0:
192,192,133978,1,0,0:0:0:0:
448,192,133978,1,0,0:0:0:0:
64,192,134150,1,8,0:0:0:0:
448,192,134150,1,2,0:0:0:0:
320,192,134150,1,0,0:0:0:0:
64,192,134321,1,0,0:0:0:0:
192,192,134321,1,0,0:0:0:0:
320,192,134493,1,2,0:0:0:0:
448,192,134493,1,0,0:0:0:0:
320,192,134664,1,0,0:0:0:0:
192,192,134835,1,0,0:0:0:0:
64,192,134835,1,8,0:0:0:0:
448,192,134835,1,2,0:0:0:0:
64,192,135007,1,0,0:0:0:0:
320,192,135178,1,2,0:0:0:0:
192,192,135178,1,0,0:0:0:0:
320,192,135350,1,0,0:0:0:0:
192,192,135521,1,8,0:0:0:0:
448,192,135521,1,2,0:0:0:0:
64,192,135521,1,0,0:0:0:0:
192,192,135693,1,0,0:0:0:0:
64,192,135864,1,2,0:0:0:0:
448,192,135864,1,0,0:0:0:0:
64,192,136035,1,0,0:0:0:0:
320,192,136207,1,0,0:0:0:0:
192,192,136207,1,8,0:0:0:0:
448,192,136207,1,2,0:0:0:0:
320,192,136378,1,0,0:0:0:0:
448,192,136550,128,0,136721:0:0:0:0:
64,192,136550,128,2,136721:0:0:0:0:
192,192,136721,1,0,0:0:0:0:
448,192,136893,128,2,137064:0:0:0:0:
64,192,136893,128,8,137064:0:0:0:0:
320,192,137064,1,0,0:0:0:0:
64,192,137235,1,2,0:0:0:0:
448,192,137235,1,0,0:0:0:0:
192,192,137235,1,0,0:0:0:0:
64,192,137407,1,0,0:0:0:0:
448,192,137578,1,8,0:0:0:0:
192,192,137578,1,2,0:0:0:0:
320,192,137578,1,0,0:0:0:0:
448,192,137750,1,0,0:0:0:0:
64,192,137921,1,2,0:0:0:0:
192,192,137921,1,0,0:0:0:0:
192,192,138093,1,0,0:0:0:0:
320,192,138264,1,8,0:0:0:0:
64,192,138264,1,2,0:0:0:0:
448,192,138264,1,0,0:0:0:0:
320,192,138435,1,0,0:0:0:0:
192,192,138607,1,2,0:0:0:0:
448,192,138607,1,0,0:0:0:0:
192,192,138778,1,0,0:0:0:0:
64,192,138950,1,8,0:0:0:0:
320,192,138950,1,2,0:0:0:0:
448,192,138950,1,0,0:0:0:0:
320,192,139121,1,0,0:0:0:0:
64,192,139293,1,2,0:0:0:0:
192,192,139293,1,0,0:0:0:0:
64,192,139464,1,0,0:0:0:0:
448,192,139464,1,0,0:0:0:0:
320,192,139635,1,8,0:0:0:0:
192,192,139635,1,2,0:0:0:0:
448,192,139635,1,0,0:0:0:0:
320,192,139807,1,0,0:0:0:0:
64,192,139807,1,0,0:0:0:0:
448,192,139978,1,2,0:0:0:0:
192,192,139978,1,0,0:0:0:0:
192,192,140150,1,0,0:0:0:0:
64,192,140321,1,8,0:0:0:0:
320,192,140321,1,2,0:0:0:0:
448,192,140321,1,0,0:0:0:0:
320,192,140493,1,0,0:0:0:0:
192,192,140664,1,2,0:0:0:0:
448,192,140664,1,0,0:0:0:0:
192,192,140835,1,0,0:0:0:0:
64,192,141007,1,8,0:0:0:0:
448,192,141007,1,2,0:0:0:0:
320,192,141007,1,0,0:0:0:0:
448,192,141178,1,0,0:0:0:0:
192,192,141350,1,2,0:0:0:0:
64,192,141350,1,0,0:0:0:0:
320,192,141521,128,0,141693:0:0:0:0:
64,192,141693,1,8,0:0:0:0:
192,192,141693,1,2,0:0:0:0:
448,192,141864,1,0,0:0:0:0:
320,192,141950,1,0,0:0:0:0:
192,192,142035,1,2,0:0:0:0:
64,192,142035,1,0,0:0:0:0:
320,192,142121,1,0,0:0:0:0:
448,192,142207,128,0,142378:0:0:0:0:
64,192,142378,128,8,142550:0:0:0:0:
192,192,142378,1,2,0:0:0:0:
320,192,142550,128,0,142721:0:0:0:0:
192,192,142721,1,4,0:0:0:0:
448,192,142721,1,2,0:0:0:0:
64,192,142721,1,0,0:0:0:0:
64,192,142893,1,0,0:0:0:0:
192,192,143064,1,8,0:0:0:0:
448,192,143064,1,2,0:0:0:0:
448,192,143235,1,0,0:0:0:0:
320,192,143407,1,2,0:0:0:0:
64,192,143407,1,0,0:0:0:0:
320,192,143578,1,0,0:0:0:0:
192,192,143750,1,0,0:0:0:0:
64,192,143750,1,8,0:0:0:0:
448,192,143750,1,2,0:0:0:0:
192,192,143921,1,0,0:0:0:0:
64,192,144093,1,2,0:0:0:0:
320,192,144093,1,0,0:0:0:0:
320,192,144264,1,0,0:0:0:0:
192,192,144435,1,8,0:0:0:0:
448,192,144435,1,2,0:0:0:0:
64,192,144435,1,0,0:0:0:0:
448,192,144607,1,0,0:0:0:0:
320,192,144778,1,2,0:0:0:0:
192,192,144778,1,0,0:0:0:0:
192,192,144950,1,0,0:0:0:0:
448,192,144950,1,0,0:0:0:0:
320,192,145121,1,8,0:0:0:0:
64,192,145121,1,2,0:0:0:0:
448,192,145121,1,0,0:0:0:0:
192,192,145293,1,0,0:0:0:0:
64,192,145293,1,0,0:0:0:0:
320,192,145464,1,2,0:0:0:0:
448,192,145464,1,0,0:0:0:0:
320,192,145635,1,0,0:0:0:0:
64,192,145807,1,8,0:0:0:0:
448,192,145807,1,2,0:0:0:0:
192,192,145807,1,0,0:0:0:0:
192,192,145978,1,0,0:0:0:0:
64,192,146150,1,2,0:0:0:0:
320,192,146150,1,0,0:0:0:0:
320,192,146321,1,0,0:0:0:0:
192,192,146493,1,8,0:0:0:0:
448,192,146493,1,2,0:0:0:0:
64,192,146493,1,0,0:0:0:0:
64,192,146664,1,0,0:0:0:0:
192,192,146835,1,2,0:0:0:0:
448,192,146835,1,0,0:0:0:0:
192,192,147007,1,0,0:0:0:0:
64,192,147178,1,8,0:0:0:0:
320,192,147178,1,2,0:0:0:0:
448,192,147178,1,0,0:0:0:0:
320,192,147350,1,0,0:0:0:0:
64,192,147521,128,2,147693:0:0:0:0:
448,192,147521,128,0,147693:0:0:0:0:
192,192,147693,1,0,0:0:0:0:
64,192,147864,128,8,148035:0:0:0:0:
448,192,147864,128,2,148035:0:0:0:0:
320,192,148035,1,0,0:0:0:0:
64,192,148207,1,2,0:0:0:0:
448,192,148207,1,0,0:0:0:0:
192,192,148293,1,2,0:0:0:0:
448,192,148378,1,2,0:0:0:0:
320,192,148464,1,2,0:0:0:0:
64,192,148550,1,8,0:0:0:0:
192,192,148550,1,2,0:0:0:0:
448,192,148635,1,2,0:0:0:0:
64,192,148721,1,2,0:0:0:0:
192,192,148807,1,2,0:0:0:0:
448,192,148893,1,2,0:0:0:0:
320,192,148893,1,0,0:0:0:0:
64,192,148978,1,2,0:0:0:0:
448,192,149064,1,2,0:0:0:0:
320,192,149150,1,2,0:0:0:0:
64,192,149235,1,8,0:0:0:0:
192,192,149235,1,2,0:0:0:0:
448,192,149321,1,2,0:0:0:0:
192,192,149407,1,2,0:0:0:0:
320,192,149493,1,2,0:0:0:0:
64,192,149578,1,2,0:0:0:0:
448,192,149578,1,0,0:0:0:0:
192,192,149664,1,2,0:0:0:0:
448,192,149750,1,2,0:0:0:0:
320,192,149835,1,2,0:0:0:0:
64,192,149921,1,8,0:0:0:0:
192,192,149921,1,2,0:0:0:0:
448,192,150007,1,2,0:0:0:0:
64,192,150093,1,2,0:0:0:0:
192,192,150178,1,2,0:0:0:0:
448,192,150264,1,2,0:0:0:0:
320,192,150264,1,0,0:0:0:0:
64,192,150350,1,2,0:0:0:0:
448,192,150435,1,2,0:0:0:0:
320,192,150521,1,2,0:0:0:0:
64,192,150607,1,8,0:0:0:0:
192,192,150607,1,2,0:0:0:0:
320,192,150693,1,2,0:0:0:0:
192,192,150778,1,2,0:0:0:0:
320,192,150864,1,2,0:0:0:0:
64,192,150950,128,0,152321:0:0:0:0:
448,192,150950,1,0,0:0:0:100:boom.wav
192,192,151121,128,0,151293:0:0:0:0:
320,192,151293,128,0,151464:0:0:0:0:
448,192,151464,128,0,151635:0:0:0:0:
192,192,151635,128,0,151807:0:0:0:0:
448,192,151807,128,0,151978:0:0:0:0:
320,192,151978,128,0,152150:0:0:0:0:
448,192,152150,128,0,152321:0:0:0:0:
192,192,152321,128,0,152835:0:0:0:0:
320,192,152493,128,0,152664:0:0:0:0:
448,192,152835,1,0,0:0:0:0:
320,192,152921,1,0,0:0:0:0:
192,192,153007,1,0,0:0:0:0:
64,192,153093,1,0,0:0:0:0:
320,192,153178,128,0,153350:0:0:0:0:
64,192,153350,128,0,153521:0:0:0:0:
448,192,153521,128,0,153693:0:0:0:0:
192,192,153693,128,4,153864:0:0:0:0:
64,192,153693,1,2,0:0:0:0:
320,192,153693,128,0,153864:0:0:0:0:
448,192,153864,1,0,0:0:0:0:
320,192,154035,1,2,0:0:0:0:
192,192,154035,1,0,0:0:0:0:
64,192,154035,1,8,0:0:0:0:
64,192,154207,128,0,154378:0:0:0:0:
192,192,154378,1,2,0:0:0:0:
448,192,154378,1,0,0:0:0:0:
320,192,154550,128,0,154721:0:0:0:0:
64,192,154721,1,8,0:0:0:0:
448,192,154721,1,2,0:0:0:0:
192,192,154721,1,0,0:0:0:0:
448,192,154893,128,0,155064:0:0:0:0:
64,192,155064,1,2,0:0:0:0:
192,192,155064,1,0,0:0:0:0:
320,192,155235,128,0,155407:0:0:0:0:
64,192,155407,128,8,155578:0:0:0:0:
192,192,155407,1,2,0:0:0:0:
448,192,155407,1,0,0:0:0:0:
320,192,155578,128,0,155750:0:0:0:0:
192,192,155750,1,2,0:0:0:0:
448,192,155750,128,0,155921:0:0:0:0:
64,192,155921,128,0,156093:0:0:0:0:
192,192,156093,1,8,0:0:0:0:
320,192,156093,128,2,156264:0:0:0:0:
448,192,156093,1,0,0:0:0:0:
64,192,156264,128,0,156435:0:0:0:0:
192,192,156435,128,2,156607:0:0:0:0:
448,192,156435,1,0,0:0:0:0:
320,192,156607,1,0,0:0:0:0:
64,192,156778,1,8,0:0:0:0:
192,192,156778,1,2,0:0:0:0:
448,192,156778,1,0,0:0:0:0:
64,192,156950,128,0,157121:0:0:0:0:
448,192,157121,1,2,0:0:0:0:
320,192,157121,1,0,0:0:0:0:
192,192,157293,128,0,157464:0:0:0:0:
64,192,157464,1,8,0:0:0:0:
448,192,157464,1,2,0:0:0:0:
320,192,157464,1,0,0:0:0:0:
448,192,157635,128,0,157807:0:0:0:0:
64,192,157807,1,0,0:0:0:0:
320,192,157807,1,2,0:0:0:0:
192,192,157978,128,0,158150:0:0:0:0:
64,192,158150,1,8,0:0:0:0:
320,192,158150,128,2,158321:0:0:0:0:
448,192,158150,1,0,0:0:0:0:
192,192,158321,128,0,158493:0:0:0:0:
64,192,158493,1,2,0:0:0:0:
448,192,158493,128,0,158664:0:0:0:0:
320,192,158664,128,0,158835:0:0:0:0:
192,192,158835,1,8,0:0:0:0:
64,192,158835,128,2,159007:0:0:0:0:
448,192,158835,1,0,0:0:0:0:
320,192,159007,128,0,159178:0:0:0:0:
192,192,159178,128,2,159350:0:0:0:0:
64,192,159178,128,0,159350:0:0:0:0:
448,192,159350,1,0,0:0:0:0:
64,192,159521,1,2,0:0:0:0:
320,192,159521,1,0,0:0:0:0:
192,192,159521,1,8,0:0:0:0:
320,192,159693,128,0,159864:0:0:0:0:
448,192,159864,1,2,0:0:0:0:
64,192,159864,1,0,0:0:0:0:
192,192,160035,128,0,160207:0:0:0:0:
64,192,160207,1,8,0:0:0:0:
320,192,160207,1,2,0:0:0:0:
448,192,160207,1,0,0:0:0:0:
64,192,160378,128,0,160550:0:0:0:0:
192,192,160550,1,2,0:0:0:0:
320,192,160550,1,0,0:0:0:0:
448,192,160721,128,0,160893:0:0:0:0:
320,192,160893,1,8,0:0:0:0:
192,192,160893,128,2,161064:0:0:0:0:
64,192,160893,1,0,0:0:0:0:
448,192,161064,128,0,161235:0:0:0:0:
320,192,161235,1,2,0:0:0:0:
64,192,161235,128,0,161407:0:0:0:0:
192,192,161407,128,0,161578:0:0:0:0:
320,192,161578,128,8,161750:0:0:0:0:
448,192,161578,1,2,0:0:0:0:
64,192,161578,1,0,0:0:0:0:
192,192,161750,128,0,161921:0:0:0:0:
320,192,161921,1,2,0:0:0:0:
448,192,161921,128,0,162093:0:0:0:0:
64,192,162093,1,0,0:0:0:0:
192,192,162264,1,8,0:0:0:0:
320,192,162264,1,2,0:0:0:0:
448,192,162264,1,0,0:0:0:0:
320,192,162435,128,0,162607:0:0:0:0:
64,192,162607,1,2,0:0:0:0:
192,192,162607,1,0,0:0:0:0:
448,192,162778,128,0,162950:0:0:0:0:
64,192,162950,1,8,0:0:0:0:
320,192,162950,1,2,0:0:0:0:
192,192,162950,1,0,0:0:0:0:
448,192,163121,128,0,163293:0:0:0:0:
192,192,163293,128,2,163464:0:0:0:0:
64,192,163293,1,0,0:0:0:0:
320,192,163464,128,0,163635:0:0:0:0:
64,192,163635,128,8,163807:0:0:0:0:
448,192,163635,1,2,0:0:0:0:
192,192,163635,1,0,0:0:0:0:
320,192,163807,128,0,163978:0:0:0:0:
192,192,163978,1,2,0:0:0:0:
448,192,163978,128,0,164150:0:0:0:0:
64,192,164150,128,0,164321:0:0:0:0:
192,192,164321,1,8,0:0:0:0:
320,192,164321,128,2,164493:0:0:0:0:
448,192,164321,1,0,0:0:0:0:
64,192,164493,128,0,164664:0:0:0:0:
192,192,164664,128,4,164835:0:0:0:0:
320,192,164664,128,2,164835:0:0:0:0:
448,192,164664,1,0,0:0:0:0:
64,192,164835,1,0,0:0:0:0:
192,192,165007,1,8,0:0:0:0:
320,192,165007,1,0,0:0:0:0:
448,192,165007,1,2,0:0:0:0:
448,192,165178,128,0,165350:0:0:0:0:
192,192,165350,1,2,0:0:0:0:
64,192,165350,1,0,0:0:0:0:
320,192,165521,128,0,165693:0:0:0:0:
64,192,165693,1,8,0:0:0:0:
448,192,165693,1,2,0:0:0:0:
192,192,165693,1,0,0:0:0:0:
192,192,165864,128,0,166035:0:0:0:0:
64,192,166035,1,2,0:0:0:0:
448,192,166035,1,0,0:0:0:0:
320,192,166207,128,0,166378:0:0:0:0:
448,192,166378,1,8,0:0:0:0:
192,192,166378,128,2,166550:0:0:0:0:
64,192,166378,1,0,0:0:0:0:
320,192,166550,128,0,166721:0:0:0:0:
64,192,166721,1,2,0:0:0:0:
448,192,166721,128,0,166893:0:0:0:0:
192,192,166893,128,0,167064:0:0:0:0:
320,192,167064,1,8,0:0:0:0:
64,192,167064,128,2,167235:0:0:0:0:
448,192,167064,1,0,0:0:0:0:
192,192,167235,128,0,167407:0:0:0:0:
320,192,167407,128,2,167578:0:0:0:0:
64,192,167407,1,0,0:0:0:0:
448,192,167578,1,0,0:0:0:0:
64,192,167750,1,8,0:0:0:0:
192,192,167750,1,2,0:0:0:0:
320,192,167750,1,0,0:0:0:0:
64,192,167921,128,0,168093:0:0:0:0:
448,192,168093,1,2,0:0:0:0:
192,192,168093,1,0,0:0:0:0:
320,192,168264,128,0,168435:0:0:0:0:
192,192,168435,1,8,0:0:0:0:
64,192,168435,1,2,0:0:0:0:
448,192,168435,1,0,0:0:0:0:
192,192,168607,128,0,168778:0:0:0:0:
448,192,168778,1,2,0:0:0:0:
64,192,168778,1,0,0:0:0:0:
320,192,168950,128,0,169121:0:0:0:0:
64,192,169121,128,8,169293:0:0:0:0:
448,192,169121,1,2,0:0:0:0:
192,192,169121,1,0,0:0:0:0:
320,192,169293,128,0,169464:0:0:0:0:
448,192,169464,1,2,0:0:0:0:
192,192,169464,128,0,169635:0:0:0:0:
64,192,169635,128,0,169807:0:0:0:0:
448,192,169807,1,8,0:0:0:0:
320,192,169807,128,2,169978:0:0:0:0:
192,192,169807,1,0,0:0:0:0:
64,192,169978,128,0,170150:0:0:0:0:
192,192,170150,128,2,170321:0:0:0:0:
448,192,170150,128,0,170321:0:0:0:0:
320,192,170321,1,0,0:0:0:0:
64,192,170493,1,8,0:0:0:0:
448,192,170493,1,0,0:0:0:0:
192,192,170493,1,2,0:0:0:0:
64,192,170664,128,0,170835:0:0:0:0:
448,192,170835,1,2,0:0:0:0:
320,192,170835,1,0,0:0:0:0:
192,192,171007,128,0,171178:0:0:0:0:
320,192,171178,1,8,0:0:0:0:
448,192,171178,1,2,0:0:0:0:
64,192,171178,1,0,0:0:0:0:
448,192,171350,128,0,171521:0:0:0:0:
192,192,171521,1,2,0:0:0:0:
64,192,171521,1,0,0:0:0:0:
320,192,171693,128,0,171864:0:0:0:0:
64,192,171864,128,8,172035:0:0:0:0:
192,192,171864,1,2,0:0:0:0:
448,192,171864,1,0,0:0:0:0:
320,192,172035,128,0,172207:0:0:0:0:
192,192,172207,1,2,0:0:0:0:
448,192,172207,128,0,172378:0:0:0:0:
64,192,172378,128,0,172550:0:0:0:0:
192,192,172550,128,8,172721:0:0:0:0:
448,192,172550,1,2,0:0:0:0:
320,192,172550,1,0,0:0:0:0:
64,192,172721,128,0,172893:0:0:0:0:
320,192,172893,1,2,0:0:0:0:
448,192,172893,128,0,173064:0:0:0:0:
192,192,173064,1,0,0:0:0:0:
64,192,173235,1,8,0:0:0:0:
448,192,173235,1,2,0:0:0:0:
320,192,173235,1,0,0:0:0:0:
320,192,173407,128,0,173578:0:0:0:0:
64,192,173578,1,2,0:0:0:0:
192,192,173578,1,0,0:0:0:0:
448,192,173750,128,0,173921:0:0:0:0:
192,192,173921,1,8,0:0:0:0:
320,192,173921,1,2,0:0:0:0:
64,192,173921,1,0,0:0:0:0:
448,192,174093,128,0,174264:0:0:0:0:
192,192,174264,1,2,0:0:0:0:
64,192,174264,1,0,0:0:0:0:
320,192,174435,128,0,174607:0:0:0:0:
64,192,174607,128,8,174778:0:0:0:0:
192,192,174607,1,2,0:0:0:0:
448,192,174607,1,0,0:0:0:0:
320,192,174778,128,0,174950:0:0:0:0:
448,192,174950,1,2,0:0:0:0:
64,192,174950,1,0,0:0:0:0:
448,192,175121,1,0,0:0:0:0:
192,192,175121,1,0,0:0:0:0:
320,192,175293,1,8,0:0:0:0:
64,192,175293,128,2,175464:0:0:0:0:
448,192,175293,1,0,0:0:0:0:
192,192,175464,128,0,175635:0:0:0:0:
320,192,175635,1,2,0:0:0:0:
448,192,175635,1,4,0:0:0:0:
64,192,175635,1,0,0:0:0:0:
448,192,175807,1,0,0:0:0:0:
192,192,175978,1,2,0:0:0:0:
320,192,175978,128,0,176321:0:0:0:0:
64,192,176150,1,0,0:0:0:0:
448,192,176321,1,2,0:0:0:0:
192,192,176321,128,0,176664:0:0:0:0:
64,192,176493,1,0,0:0:0:0:
320,192,176664,1,2,0:0:0:0:
448,192,176664,128,0,177007:0:0:0:0:
192,192,176835,1,0,0:0:0:0:
320,192,177007,1,2,0:0:0:0:
64,192,177007,1,0,0:0:0:0:
192,192,177178,1,0,0:0:0:0:
320,192,177350,1,2,0:0:0:0:
448,192,177350,128,0,177693:0:0:0:0:
192,192,177521,1,0,0:0:0:0:
64,192,177693,1,2,0:0:0:0:
320,192,177693,128,0,178035:0:0:0:0:
192,192,177864,1,0,0:0:0:0:
448,192,178035,1,2,0:0:0:0:
64,192,178035,128,0,178378:0:0:0:0:
320,192,178207,1,0,0:0:0:0:
192,192,178378,1,2,0:0:0:0:
448,192,178378,1,0,0:0:0:0:
64,192,178550,1,0,0:0:0:0:
320,192,178721,1,2,0:0:0:0:
192,192,178721,128,0,179064:0:0:0:0:
448,192,178893,1,0,0:0:0:0:
64,192,179064,1,2,0:0:0:0:
320,192,179064,128,0,179407:0:0:0:0:
192,192,179235,1,0,0:0:0:0:
448,192,179407,1,2,0:0:0:0:
64,192,179407,128,0,179750:0:0:0:0:
320,192,179578,1,0,0:0:0:0:
448,192,179750,1,2,0:0:0:0:
192,192,179750,128,0,180093:0:0:0:0:
64,192,179921,1,0,0:0:0:0:
320,192,180093,1,2,0:0:0:0:
448,192,180093,128,0,180435:0:0:0:0:
64,192,180264,1,0,0:0:0:0:
192,192,180435,1,2,0:0:0:0:
320,192,180435,128,0,180778:0:0:0:0:
64,192,180607,1,0,0:0:0:0:
448,192,180778,1,2,0:0:0:0:
192,192,180778,128,0,181121:0:0:0:0:
320,192,180950,1,0,0:0:0:0:
448,192,181121,1,2,0:0:0:0:
64,192,181121,1,0,0:0:0:0:
192,192,181293,1,0,0:0:0:0:
320,192,181464,1,2,0:0:0:0:
448,192,181464,128,0,181807:0:0:0:0:
64,192,181635,1,0,0:0:0:0:
320,192,181807,1,2,0:0:0:0:
192,192,181807,128,0,182150:0:0:0:0:
64,192,181978,1,0,0:0:0:0:
448,192,182150,1,2,0:0:0:0:
320,192,182150,128,0,182493:0:0:0:0:
192,192,182321,1,0,0:0:0:0:
448,192,182493,1,2,0:0:0:0:
64,192,182493,1,0,0:0:0:0:
192,192,182664,1,0,0:0:0:0:
320,192,182835,1,2,0:0:0:0:
448,192,182835,128,0,183178:0:0:0:0:
192,192,183007,1,0,0:0:0:0:
320,192,183178,1,2,0:0:0:0:
64,192,183178,128,0,183521:0:0:0:0:
448,192,183350,1,0,0:0:0:0:
320,192,183521,1,2,0:0:0:0:
192,192,183521,128,0,183864:0:0:0:0:
64,192,183693,1,0,0:0:0:0:
320,192,183864,1,2,0:0:0:0:
448,192,183864,1,0,0:0:0:0:
192,192,184035,1,0,0:0:0:0:
448,192,184207,1,2,0:0:0:0:
64,192,184207,128,0,184550:0:0:0:0:
320,192,184378,1,0,0:0:0:0:
192,192,184550,1,2,0:0:0:0:
448,192,184550,128,0,184893:0:0:0:0:
64,192,184721,1,0,0:0:0:0:
320,192,184893,1,2,0:0:0:0:
192,192,184893,128,0,185235:0:0:0:0:
448,192,185064,1,0,0:0:0:0:
64,192,185235,1,2,0:0:0:0:
320,192,185235,128,0,185578:0:0:0:0:
192,192,185407,1,0,0:0:0:0:
64,192,185578,1,2,0:0:0:0:
448,192,185578,128,0,185921:0:0:0:0:
320,192,185750,1,0,0:0:0:0:
192,192,185921,1,2,0:0:0:0:
64,192,185921,128,0,186264:0:0:0:0:
320,192,186093,1,0,0:0:0:0:
448,192,186264,1,2,0:0:0:0:
192,192,186264,128,0,186607:0:0:0:0:
320,192,186435,1,0,0:0:0:0:
64,192,186607,1,2,0:0:0:0:
448,192,186607,128,0,189350:0:0:0:0:
320,192,186778,1,0,0:0:0:0:
64,192,186950,1,2,0:0:0:0:
192,192,186950,1,0,0:0:0:0:
192,192,187121,1,0,0:0:0:0:
64,192,187293,1,2,0:0:0:0:
320,192,187293,1,0,0:0:0:0:
192,192,187464,1,0,0:0:0:0:
64,192,187635,1,2,0:0:0:0:
192,192,187635,1,0,0:0:0:0:
320,192,187807,1,0,0:0:0:0:
192,192,187978,1,2,0:0:0:0:
64,192,187978,1,0,0:0:0:0:
320,192,188150,1,0,0:0:0:0:
64,192,188321,1,2,0:0:0:0:
192,192,188321,1,0,0:0:0:0:
64,192,188493,1,0,0:0:0:0:
192,192,188664,1,2,0:0:0:0:
320,192,188664,1,0,0:0:0:0:
64,192,188835,1,0,0:0:0:0:
64,192,189007,1,2,0:0:0:0:
320,192,189007,1,0,0:0:0:0:
192,192,189178,1,0,0:0:0:0:
64,192,189350,1,2,0:0:0:0:
320,192,189350,1,0,0:0:0:0:
192,192,189521,1,0,0:0:0:0:
448,192,189693,1,2,0:0:0:0:
320,192,189693,1,0,0:0:0:0:
320,192,189864,1,0,0:0:0:0:
192,192,190035,1,2,0:0:0:0:
448,192,190035,1,0,0:0:0:0:
320,192,190207,1,0,0:0:0:0:
64,192,190378,1,2,0:0:0:0:
320,192,190378,1,0,0:0:0:0:
192,192,190550,1,0,0:0:0:0:
320,192,190721,1,2,0:0:0:0:
448,192,190721,1,0,0:0:0:0:
64,192,190893,1,0,0:0:0:0:
192,192,191064,1,2,0:0:0:0:
320,192,191064,1,0,0:0:0:0:
192,192,191235,1,0,0:0:0:0:
64,192,191407,1,2,0:0:0:0:
448,192,191407,1,0,0:0:0:0:
192,192,191578,1,0,0:0:0:0:
448,192,191750,1,2,0:0:0:0:
192,192,191750,1,0,0:0:0:0:
320,192,191921,1,0,0:0:0:0:
64,192,192093,1,2,0:0:0:0:
448,192,192093,1,0,0:0:0:0:
192,192,192264,1,0,0:0:0:0:
64,192,192435,1,2,0:0:0:0:
320,192,192435,1,0,0:0:0:0:
64,192,192607,1,0,0:0:0:0:
448,192,192778,1,2,0:0:0:0:
192,192,192778,1,0,0:0:0:0:
64,192,192950,1,0,0:0:0:0:
64,192,193121,1,2,0:0:0:0:
448,192,193121,1,0,0:0:0:0:
320,192,193293,1,0,0:0:0:0:
192,192,193464,1,2,0:0:0:0:
448,192,193464,1,0,0:0:0:0:
64,192,193635,1,0,0:0:0:0:
448,192,193807,1,2,0:0:0:0:
320,192,193807,1,0,0:0:0:0:
320,192,193978,1,0,0:0:0:0:
64,192,194150,1,2,0:0:0:0:
448,192,194150,1,0,0:0:0:0:
320,192,194321,1,0,0:0:0:0:
320,192,194493,1,2,0:0:0:0:
64,192,194493,1,0,0:0:0:0:
192,192,194664,1,0,0:0:0:0:
320,192,194835,1,2,0:0:0:0:
448,192,194835,1,0,0:0:0:0:
64,192,195007,1,0,0:0:0:0:
192,192,195178,1,2,0:0:0:0:
320,192,195178,1,0,0:0:0:0:
320,192,195350,1,0,0:0:0:0:
64,192,195521,1,2,0:0:0:0:
192,192,195521,1,0,0:0:0:0:
320,192,195693,1,0,0:0:0:0:
64,192,195864,1,2,0:0:0:0:
320,192,195864,1,0,0:0:0:0:
192,192,196035,1,0,0:0:0:0:
64,192,196207,1,2,0:0:0:0:
448,192,196207,1,0,0:0:0:0:
320,192,196378,1,0,0:0:0:0:
192,192,196550,1,2,0:0:0:0:
448,192,196550,1,0,0:0:0:0:
192,192,196721,1,0,0:0:0:0:
320,192,196893,1,2,0:0:0:0:
448,192,196893,1,0,0:0:0:0:
192,192,197064,1,0,0:0:0:0:
192,192,197235,1,2,0:0:0:0:
320,192,197235,1,0,0:0:0:0:
64,192,197407,1,0,0:0:0:0:
448,192,197578,1,0,1:0:0:45:drum-hitnormal.wav
192,192,197921,1,0,1:0:0:45:drum-hitnormal.wav
448,192,198264,1,0,1:0:0:45:drum-hitnormal.wav
192,192,198435,1,0,1:0:0:45:drum-hitnormal.wav
320,192,198607,1,0,1:0:0:45:drum-hitnormal.wav
64,192,198693,1,0,1:0:0:45:drum-hitnormal.wav
448,192,198778,1,0,1:0:0:45:drum-hitnormal.wav
64,192,198864,1,0,1:0:0:45:drum-hitnormal.wav
448,192,198950,1,0,1:0:0:45:drum-hitnormal.wav
