osu file format v14

[General]
AudioFilename: audio.mp3
AudioLeadIn: 0
PreviewTime: 65921
Countdown: 0
SampleSet: Soft
StackLeniency: 1
Mode: 3
LetterboxInBreaks: 0
SpecialStyle: 0
WidescreenStoryboard: 0

[Editor]
Bookmarks: 16522,27493,43950,49436,71379,76865,82350,87836,93322,98807,109779,120750,131722,136522,141322,148179,153665,175607
DistanceSpacing: 1
BeatDivisor: 2
GridSize: 8
TimelineZoom: 0.8999999

[Metadata]
Title:Vitality (t+pazolite Remix)
TitleUnicode:Vitality (t+pazolite Remix)
Artist:Mittsies
ArtistUnicode:Mittsies
Creator:Lirai
Version:Easy
Source:Helltaker
Tags:soundtrack fanmade chs cutie and headshaking sounds video game instrumental electronic
BeatmapID:2558169
BeatmapSetID:1228135

[Difficulty]
HPDrainRate:6.6
CircleSize:4
OverallDifficulty:6.6
ApproachRate:5
SliderMultiplier:1.4
SliderTickRate:1

[Events]
//Background and Video events
0,0,"BG.jpg",0,0
//Break Periods
//Storyboard Layer 0 (Background)
//Storyboard Layer 1 (Fail)
//Storyboard Layer 2 (Pass)
//Storyboard Layer 3 (Foreground)
//Storyboard Layer 4 (Overlay)
//Storyboard Sound Samples

[TimingPoints]
93,342.857142857143,4,2,1,30,1,0
65921,-100,4,2,1,60,0,1
87864,-100,4,2,1,60,0,0
109721,-100,4,2,1,30,0,0
120778,-100,4,2,1,60,0,0
153693,-100,4,2,1,60,0,1
175635,-100,4,2,1,60,0,0

[HitObjects]
448,192,93,5,2,0:0:0:0:
448,192,435,1,2,0:0:0:0:
64,192,778,1,2,0:0:0:0:
64,192,1121,1,2,0:0:0:0:
320,192,1464,1,2,0:0:0:0:
320,192,1807,1,2,0:0:0:0:
192,192,2150,1,2,0:0:0:0:
192,192,2493,1,2,0:0:0:0:
448,192,2835,1,2,0:0:0:0:
448,192,3178,1,2,0:0:0:0:
64,192,3521,1,2,0:0:0:0:
64,192,3864,1,2,0:0:0:0:
320,192,4207,1,2,0:0:0:0:
320,192,4550,1,2,0:0:0:0:
192,192,4893,1,2,0:0:0:0:
192,192,5235,1,2,0:0:0:0:
448,192,5578,1,2,0:0:0:0:
448,192,5921,1,2,0:0:0:0:
192,192,6264,1,2,0:0:0:0:
192,192,6607,1,2,0:0:0:0:
448,192,6950,1,2,0:0:0:0:
448,192,7293,1,2,0:0:0:0:
64,192,7635,1,2,0:0:0:0:
64,192,7978,1,2,0:0:0:0:
320,192,8321,1,2,0:0:0:0:
320,192,8664,1,2,0:0:0:0:
64,192,9007,1,2,0:0:0:0:
64,192,9350,1,2,0:0:0:0:
320,192,9693,1,2,0:0:0:0:
320,192,10035,1,2,0:0:0:0:
192,192,10378,1,2,0:0:0:0:
192,192,10721,1,2,0:0:0:0:
320,192,11064,1,0,0:0:0:100:boom.wav
448,192,11064,1,0,0:0:0:0:
64,192,12093,1,0,0:0:0:0:
448,192,12435,1,0,0:0:0:0:
192,192,13464,1,0,0:0:0:0:
448,192,13807,1,0,0:0:0:0:
448,192,14835,1,0,0:0:0:0:
64,192,15178,1,0,0:0:0:0:
448,192,16207,1,0,0:0:0:0:
192,192,16550,128,0,16893:0:0:0:0:
320,192,16893,128,0,17235:0:0:0:0:
64,192,17235,128,0,17578:0:0:0:0:
448,192,17578,128,0,17921:0:0:0:0:
192,192,17921,128,0,18264:0:0:0:0:
320,192,18264,128,0,18607:0:0:0:0:
64,192,18607,128,0,18950:0:0:0:0:
448,192,18950,128,0,19293:0:0:0:0:
320,192,19293,128,0,19635:0:0:0:0:
64,192,19635,128,0,19978:0:0:0:0:
192,192,19978,128,0,20321:0:0:0:0:
320,192,20321,128,0,20664:0:0:0:0:
448,192,20664,128,0,21007:0:0:0:0:
64,192,21007,128,0,21350:0:0:0:0:
320,192,21350,128,0,21693:0:0:0:0:
192,192,21693,128,0,22035:0:0:0:0:
64,192,22035,1,0,0:0:0:75:clap.wav
64,192,22378,1,0,0:0:0:75:clap.wav
64,192,22721,1,0,0:0:0:75:clap.wav
448,192,23064,1,0,0:0:0:75:clap.wav
320,192,23407,1,0,0:0:0:75:clap.wav
320,192,23750,1,0,0:0:0:75:clap.wav
320,192,24093,1,0,0:0:0:75:clap.wav
64,192,24435,1,0,0:0:0:75:clap.wav
192,192,24778,1,0,0:0:0:75:clap.wav
320,192,25121,1,0,0:0:0:75:clap.wav
320,192,25464,1,0,0:0:0:75:clap.wav
448,192,25807,1,0,0:0:0:75:clap.wav
64,192,26150,1,0,0:0:0:75:clap.wav
64,192,26493,1,0,0:0:0:75:clap.wav
320,192,26835,1,0,0:0:0:75:clap.wav
192,192,27178,1,0,0:0:0:75:clap.wav
64,192,27521,1,10,0:0:0:0:
320,192,27693,1,2,0:0:0:0:
64,192,27864,1,10,0:0:0:0:
192,192,28207,1,10,0:0:0:0:
448,192,28378,1,2,0:0:0:0:
192,192,28550,1,10,0:0:0:0:
320,192,28893,1,10,0:0:0:0:
64,192,29064,1,2,0:0:0:0:
320,192,29235,1,10,0:0:0:0:
448,192,29578,1,10,0:0:0:0:
192,192,29750,1,2,0:0:0:0:
448,192,29921,1,10,0:0:0:0:
320,192,30264,1,10,0:0:0:0:
64,192,30435,1,2,0:0:0:0:
320,192,30607,1,10,0:0:0:0:
64,192,30950,1,10,0:0:0:0:
448,192,31121,1,2,0:0:0:0:
64,192,31293,1,10,0:0:0:0:
448,192,31635,1,10,0:0:0:0:
192,192,31807,1,2,0:0:0:0:
448,192,31978,1,10,0:0:0:0:
64,192,32321,1,10,0:0:0:0:
320,192,32493,1,2,0:0:0:0:
64,192,32664,1,10,0:0:0:0:
320,192,33007,1,8,0:0:0:0:
448,192,33007,128,2,34378:0:0:0:0:
192,192,33350,1,10,0:0:0:0:
64,192,33693,1,10,0:0:0:0:
320,192,34035,1,10,0:0:0:0:
64,192,34378,1,8,0:0:0:0:
192,192,34378,128,2,35750:0:0:0:0:
320,192,34721,1,10,0:0:0:0:
448,192,35064,1,10,0:0:0:0:
64,192,35407,1,10,0:0:0:0:
320,192,35750,128,8,37121:0:0:0:0:
448,192,35750,1,2,0:0:0:0:
64,192,36093,1,10,0:0:0:0:
448,192,36435,1,10,0:0:0:0:
64,192,36778,1,10,0:0:0:0:
192,192,37121,128,8,38493:0:0:0:0:
448,192,37121,1,2,0:0:0:0:
448,192,37464,1,10,0:0:0:0:
320,192,37807,1,10,0:0:0:0:
320,192,38150,1,10,0:0:0:0:
64,192,38493,1,4,0:0:0:0:
448,192,38493,1,2,0:0:0:0:
320,192,38664,1,0,0:0:0:0:
192,192,38835,1,0,0:0:0:0:
448,192,39178,1,0,0:0:0:0:
192,192,39521,1,0,0:0:0:0:
64,192,39864,1,0,0:0:0:0:
192,192,40035,1,0,0:0:0:0:
448,192,40207,1,2,0:0:0:0:
320,192,40550,1,2,0:0:0:0:
64,192,40893,1,2,0:0:0:0:
448,192,41235,1,2,0:0:0:0:
320,192,41407,1,2,0:0:0:0:
192,192,41578,1,2,0:0:0:0:
448,192,41921,1,2,0:0:0:0:
192,192,42264,1,2,0:0:0:0:
64,192,42607,1,2,0:0:0:0:
192,192,42778,1,2,0:0:0:0:
320,192,42950,1,2,0:0:0:0:
448,192,43121,1,2,0:0:0:0:
192,192,43293,128,2,43635:0:0:0:0:
320,192,43635,128,2,43978:0:0:0:0:
64,192,43978,1,4,0:0:0:0:
448,192,43978,1,2,0:0:0:0:
192,192,44321,1,2,0:0:0:0:
320,192,44493,1,0,0:0:0:0:
64,192,44835,1,0,0:0:0:0:
448,192,45178,1,0,0:0:0:0:
64,192,45521,1,0,0:0:0:0:
320,192,45864,1,0,0:0:0:0:
192,192,46207,1,0,0:0:0:0:
448,192,46378,1,2,0:0:0:0:
320,192,46550,1,0,0:0:0:0:
64,192,46721,1,2,0:0:0:0:
448,192,47064,1,2,0:0:0:0:
320,192,47235,1,0,0:0:0:0:
192,192,47578,1,0,0:0:0:0:
448,192,47921,1,0,0:0:0:0:
64,192,48264,1,0,0:0:0:0:
320,192,48607,1,0,0:0:0:0:
192,192,48950,1,0,0:0:0:0:
448,192,49121,1,2,0:0:0:0:
64,192,49293,1,0,0:0:0:0:
320,192,49464,1,2,0:0:0:0:
192,192,49807,1,2,0:0:0:0:
448,192,49978,1,0,0:0:0:0:
64,192,50321,1,0,0:0:0:0:
320,192,50664,1,0,0:0:0:0:
64,192,51007,1,0,0:0:0:0:
320,192,51350,1,0,0:0:0:0:
64,192,51693,1,0,0:0:0:0:
448,192,51864,1,2,0:0:0:0:
320,192,52035,1,0,0:0:0:0:
192,192,52207,1,2,0:0:0:0:
448,192,52550,1,2,0:0:0:0:
64,192,52721,1,0,0:0:0:0:
320,192,53064,1,0,0:0:0:0:
64,192,53407,1,0,0:0:0:0:
448,192,53750,1,0,0:0:0:0:
64,192,54093,128,0,54435:0:0:0:0:
448,192,54607,1,2,0:0:0:0:
320,192,54778,1,0,0:0:0:0:
192,192,54950,1,2,0:0:0:0:
64,192,55293,1,10,0:0:0:0:
320,192,55635,1,2,0:0:0:0:
64,192,55978,1,10,0:0:0:0:
192,192,56321,1,2,0:0:0:0:
448,192,56664,1,10,0:0:0:0:
192,192,57007,1,2,0:0:0:0:
448,192,57350,1,10,0:0:0:0:
192,192,57521,1,0,0:0:0:0:
320,192,57693,1,2,0:0:0:0:
64,192,58035,1,10,0:0:0:0:
320,192,58378,1,2,0:0:0:0:
64,192,58721,1,10,0:0:0:0:
192,192,59064,1,2,0:0:0:0:
448,192,59407,1,10,0:0:0:0:
192,192,59750,1,2,0:0:0:0:
448,192,60093,1,10,0:0:0:0:
320,192,60264,1,0,0:0:0:0:
192,192,60435,1,2,0:0:0:0:
64,192,60778,1,10,0:0:0:0:
320,192,61121,1,2,0:0:0:0:
64,192,61464,1,10,0:0:0:0:
320,192,61807,1,2,0:0:0:0:
448,192,62150,1,10,0:0:0:0:
192,192,62493,1,2,0:0:0:0:
64,192,62835,1,10,0:0:0:0:
320,192,63007,1,0,0:0:0:0:
192,192,63178,1,2,0:0:0:0:
448,192,63521,1,10,0:0:0:0:
192,192,63864,1,2,0:0:0:0:
448,192,64207,1,10,0:0:0:0:
64,192,64550,128,0,65235:0:0:0:100:boom.wav
320,192,65235,128,0,65921:0:0:0:0:
64,192,65921,1,4,0:0:0:0:
448,192,65921,1,2,0:0:0:0:
192,192,66264,1,10,0:0:0:0:
448,192,66435,1,0,0:0:0:0:
64,192,66778,1,0,0:0:0:0:
320,192,67121,1,0,0:0:0:0:
192,192,67464,1,0,0:0:0:0:
320,192,67635,1,10,0:0:0:0:
448,192,67807,1,0,0:0:0:0:
64,192,67978,128,2,68321:0:0:0:0:
448,192,68321,1,10,0:0:0:0:
320,192,68493,1,0,0:0:0:0:
192,192,68664,1,2,0:0:0:0:
64,192,69007,1,10,0:0:0:0:
448,192,69178,1,0,0:0:0:0:
192,192,69521,1,0,0:0:0:0:
448,192,69864,1,0,0:0:0:0:
192,192,70207,1,0,0:0:0:0:
320,192,70378,1,10,0:0:0:0:
64,192,70550,1,0,0:0:0:0:
448,192,70721,128,2,71064:0:0:0:0:
320,192,71064,128,10,71407:0:0:0:0:
64,192,71407,1,2,0:0:0:0:
192,192,71407,1,0,0:0:0:0:
448,192,71750,1,10,0:0:0:0:
192,192,71921,1,0,0:0:0:0:
64,192,72264,1,0,0:0:0:0:
320,192,72607,1,0,0:0:0:0:
192,192,72950,1,0,0:0:0:0:
64,192,73121,1,10,0:0:0:0:
448,192,73293,1,0,0:0:0:0:
320,192,73464,128,2,73807:0:0:0:0:
64,192,73807,1,10,0:0:0:0:
192,192,73978,1,0,0:0:0:0:
448,192,74150,1,2,0:0:0:0:
64,192,74493,1,10,0:0:0:0:
320,192,74664,1,0,0:0:0:0:
192,192,75007,1,0,0:0:0:0:
64,192,75350,1,0,0:0:0:0:
448,192,75521,128,2,75864:0:0:0:0:
64,192,75864,128,10,76207:0:0:0:0:
320,192,76207,128,2,76550:0:0:0:0:
192,192,76550,128,10,76893:0:0:0:0:
64,192,76893,1,4,0:0:0:0:
448,192,76893,1,2,0:0:0:0:
320,192,77235,1,10,0:0:0:0:
192,192,77407,1,0,0:0:0:0:
448,192,77750,1,0,0:0:0:0:
320,192,78093,1,0,0:0:0:0:
64,192,78435,1,0,0:0:0:0:
192,192,78607,1,10,0:0:0:0:
320,192,78778,1,0,0:0:0:0:
448,192,78950,128,2,79293:0:0:0:0:
192,192,79293,1,10,0:0:0:0:
64,192,79464,1,0,0:0:0:0:
320,192,79635,1,2,0:0:0:0:
192,192,79978,1,10,0:0:0:0:
448,192,80150,1,0,0:0:0:0:
64,192,80493,1,0,0:0:0:0:
448,192,80835,1,0,0:0:0:0:
64,192,81178,1,0,0:0:0:0:
320,192,81350,1,10,0:0:0:0:
192,192,81521,1,0,0:0:0:0:
448,192,81693,128,2,82035:0:0:0:0:
320,192,82035,128,10,82378:0:0:0:0:
64,192,82378,1,2,0:0:0:0:
192,192,82378,1,0,0:0:0:0:
448,192,82721,1,10,0:0:0:0:
64,192,82893,1,0,0:0:0:0:
192,192,83235,1,0,0:0:0:0:
320,192,83578,1,0,0:0:0:0:
64,192,83921,1,0,0:0:0:0:
320,192,84093,1,10,0:0:0:0:
448,192,84264,1,0,0:0:0:0:
192,192,84435,128,2,84778:0:0:0:0:
448,192,84778,1,10,0:0:0:0:
320,192,84950,1,0,0:0:0:0:
64,192,85121,1,2,0:0:0:0:
192,192,85464,1,10,0:0:0:0:
448,192,85635,1,0,0:0:0:0:
320,192,85978,1,0,0:0:0:0:
192,192,86321,1,0,0:0:0:0:
64,192,86664,1,0,0:0:0:0:
192,192,86835,1,10,0:0:0:0:
320,192,87007,1,0,0:0:0:0:
448,192,87178,128,2,87521:0:0:0:0:
64,192,87521,1,10,0:0:0:0:
192,192,87693,1,0,0:0:0:0:
320,192,87864,1,4,0:0:0:0:
448,192,87864,1,2,0:0:0:0:
64,192,88207,1,8,0:0:0:0:
192,192,88207,1,2,0:0:0:0:
448,192,88550,1,2,0:0:0:0:
64,192,88893,1,10,0:0:0:0:
320,192,89235,1,2,0:0:0:0:
448,192,89235,1,0,0:0:0:0:
64,192,89578,1,8,0:0:0:0:
192,192,89578,1,2,0:0:0:0:
448,192,89921,1,2,0:0:0:0:
320,192,90093,1,0,0:0:0:0:
192,192,90264,1,10,0:0:0:0:
64,192,90607,1,2,0:0:0:0:
448,192,90607,1,0,0:0:0:0:
192,192,90950,1,8,0:0:0:0:
320,192,90950,1,2,0:0:0:0:
64,192,91293,1,2,0:0:0:0:
320,192,91635,1,10,0:0:0:0:
64,192,91978,1,2,0:0:0:0:
448,192,91978,1,0,0:0:0:0:
192,192,92321,1,8,0:0:0:0:
320,192,92321,1,2,0:0:0:0:
64,192,92664,1,2,0:0:0:0:
192,192,92835,1,0,0:0:0:0:
320,192,93007,1,10,0:0:0:0:
192,192,93350,1,2,0:0:0:0:
448,192,93350,128,0,93693:0:0:0:0:
64,192,93693,128,10,94035:0:0:0:0:
320,192,94035,128,2,94378:0:0:0:0:
192,192,94378,128,10,94721:0:0:0:0:
448,192,94721,128,2,95064:0:0:0:0:
64,192,95064,128,10,95407:0:0:0:0:
192,192,95407,128,2,95750:0:0:0:0:
448,192,95750,128,10,96093:0:0:0:0:
64,192,96093,128,2,96435:0:0:0:0:
320,192,96435,128,10,96778:0:0:0:0:
448,192,96778,128,2,97121:0:0:0:0:
192,192,97121,128,10,97464:0:0:0:0:
320,192,97464,128,2,97807:0:0:0:0:
192,192,97807,128,10,98150:0:0:0:0:
64,192,98150,128,2,98493:0:0:0:0:
320,192,98493,128,10,98835:0:0:0:0:
64,192,98835,1,4,0:0:0:0:
448,192,98835,1,2,0:0:0:0:
192,192,99178,1,8,0:0:0:0:
320,192,99178,1,2,0:0:0:0:
448,192,99521,1,2,0:0:0:0:
192,192,99864,1,10,0:0:0:0:
64,192,100207,1,2,0:0:0:0:
448,192,100207,1,0,0:0:0:0:
192,192,100550,1,8,0:0:0:0:
320,192,100550,1,2,0:0:0:0:
448,192,100893,1,2,0:0:0:0:
320,192,101064,1,0,0:0:0:0:
192,192,101235,1,10,0:0:0:0:
320,192,101578,1,2,0:0:0:0:
448,192,101578,1,0,0:0:0:0:
64,192,101921,1,8,0:0:0:0:
192,192,101921,1,2,0:0:0:0:
448,192,102264,1,2,0:0:0:0:
64,192,102607,1,10,0:0:0:0:
320,192,102950,1,2,0:0:0:0:
448,192,102950,1,0,0:0:0:0:
64,192,103293,1,8,0:0:0:0:
192,192,103293,1,2,0:0:0:0:
448,192,103635,1,2,0:0:0:0:
320,192,103807,1,0,0:0:0:0:
192,192,103978,1,10,0:0:0:0:
64,192,104321,128,2,105693:0:0:0:0:
320,192,104321,1,0,0:0:0:0:
448,192,104664,1,10,0:0:0:0:
192,192,105007,1,2,0:0:0:0:
448,192,105350,1,10,0:0:0:0:
192,192,105693,128,2,107064:0:0:0:0:
448,192,106035,1,10,0:0:0:0:
64,192,106378,1,2,0:0:0:0:
320,192,106721,1,10,0:0:0:0:
448,192,107064,128,2,108435:0:0:0:0:
64,192,107407,1,10,0:0:0:0:
192,192,107750,1,2,0:0:0:0:
320,192,108093,1,10,0:0:0:0:
64,192,108435,128,2,109807:0:0:0:0:
192,192,108778,1,10,0:0:0:0:
448,192,109121,1,2,0:0:0:0:
192,192,109464,1,10,0:0:0:0:
320,192,109807,1,0,0:0:0:100:boom.wav
192,192,111178,1,0,0:0:0:0:
448,192,112550,1,0,0:0:0:0:
320,192,113921,1,0,0:0:0:0:
64,192,115293,1,0,0:0:0:75:clap.wav
64,192,115635,1,0,0:0:0:75:clap.wav
64,192,115978,1,0,0:0:0:75:clap.wav
448,192,116321,1,0,0:0:0:75:clap.wav
320,192,116664,1,0,0:0:0:75:clap.wav
320,192,117007,1,0,0:0:0:75:clap.wav
320,192,117350,1,0,0:0:0:75:clap.wav
64,192,117693,1,0,0:0:0:75:clap.wav
192,192,118035,1,0,0:0:0:75:clap.wav
320,192,118378,1,0,0:0:0:75:clap.wav
320,192,118721,1,0,0:0:0:75:clap.wav
64,192,119064,1,0,0:0:0:75:clap.wav
448,192,119407,1,0,0:0:0:75:clap.wav
448,192,119750,1,0,0:0:0:75:clap.wav
320,192,120093,1,0,0:0:0:75:clap.wav
192,192,120435,1,0,0:0:0:75:clap.wav
64,192,120778,1,10,0:0:0:0:
448,192,120950,1,2,0:0:0:0:
64,192,121121,1,10,0:0:0:0:
320,192,121464,1,10,0:0:0:0:
192,192,121635,1,2,0:0:0:0:
320,192,121807,1,10,0:0:0:0:
192,192,122150,1,10,0:0:0:0:
448,192,122321,1,2,0:0:0:0:
192,192,122493,1,10,0:0:0:0:
320,192,122835,1,10,0:0:0:0:
64,192,123007,1,2,0:0:0:0:
320,192,123178,1,10,0:0:0:0:
64,192,123521,1,10,0:0:0:0:
448,192,123693,1,2,0:0:0:0:
64,192,123864,1,10,0:0:0:0:
320,192,124207,1,10,0:0:0:0:
192,192,124378,1,2,0:0:0:0:
320,192,124550,1,10,0:0:0:0:
64,192,124893,1,10,0:0:0:0:
448,192,125064,1,2,0:0:0:0:
64,192,125235,1,10,0:0:0:0:
192,192,125578,1,10,0:0:0:0:
448,192,125750,1,2,0:0:0:0:
192,192,125921,1,10,0:0:0:0:
320,192,126264,1,10,0:0:0:0:
192,192,126435,1,2,0:0:0:0:
64,192,126607,1,8,0:0:0:0:
448,192,126607,1,2,0:0:0:0:
192,192,126950,1,10,0:0:0:0:
320,192,127121,1,2,0:0:0:0:
64,192,127293,1,8,0:0:0:0:
448,192,127293,1,2,0:0:0:0:
320,192,127635,1,10,0:0:0:0:
192,192,127807,1,2,0:0:0:0:
64,192,127978,1,8,0:0:0:0:
448,192,127978,1,2,0:0:0:0:
192,192,128321,1,10,0:0:0:0:
320,192,128493,1,2,0:0:0:0:
64,192,128664,1,8,0:0:0:0:
448,192,128664,1,2,0:0:0:0:
64,192,129007,128,8,130378:0:0:0:0:
448,192,129007,1,2,0:0:0:0:
192,192,129350,1,10,0:0:0:0:
320,192,129693,1,10,0:0:0:0:
448,192,130035,1,10,0:0:0:0:
192,192,130378,128,8,131407:0:0:0:0:
448,192,130378,128,2,131407:0:0:0:0:
320,192,131407,128,10,131750:0:0:0:0:
64,192,131750,1,4,0:0:0:0:
448,192,131750,1,2,0:0:0:0:
192,192,132093,1,10,0:0:0:0:
448,192,132435,1,2,0:0:0:0:
64,192,132778,1,10,0:0:0:0:
320,192,133121,1,2,0:0:0:0:
448,192,133464,1,10,0:0:0:0:
192,192,133807,1,2,0:0:0:0:
64,192,133978,1,0,0:0:0:0:
448,192,134150,1,10,0:0:0:0:
320,192,134321,1,0,0:0:0:0:
192,192,134493,1,2,0:0:0:0:
448,192,134835,1,10,0:0:0:0:
64,192,135178,1,2,0:0:0:0:
320,192,135521,1,10,0:0:0:0:
192,192,135864,1,2,0:0:0:0:
448,192,136207,1,10,0:0:0:0:
64,192,136550,1,2,0:0:0:0:
192,192,136550,1,0,0:0:0:0:
320,192,136893,1,8,0:0:0:0:
448,192,136893,1,2,0:0:0:0:
64,192,137235,1,2,0:0:0:0:
192,192,137578,1,10,0:0:0:0:
320,192,137921,1,2,0:0:0:0:
64,192,138264,1,10,0:0:0:0:
448,192,138607,1,2,0:0:0:0:
320,192,138950,1,10,0:0:0:0:
192,192,139293,1,2,0:0:0:0:
64,192,139464,1,0,0:0:0:0:
448,192,139635,1,10,0:0:0:0:
320,192,139807,1,0,0:0:0:0:
192,192,139978,1,2,0:0:0:0:
64,192,140321,1,10,0:0:0:0:
320,192,140664,1,2,0:0:0:0:
192,192,141007,1,10,0:0:0:0:
448,192,141350,1,2,0:0:0:0:
64,192,141693,1,10,0:0:0:0:
320,192,142035,128,2,142378:0:0:0:0:
64,192,142378,128,10,142721:0:0:0:0:
192,192,142721,1,4,0:0:0:0:
448,192,142721,1,2,0:0:0:0:
320,192,143064,1,10,0:0:0:0:
64,192,143407,1,2,0:0:0:0:
448,192,143750,1,10,0:0:0:0:
192,192,144093,1,2,0:0:0:0:
320,192,144435,1,10,0:0:0:0:
64,192,144778,1,2,0:0:0:0:
192,192,144950,1,0,0:0:0:0:
448,192,145121,1,10,0:0:0:0:
320,192,145293,1,0,0:0:0:0:
64,192,145464,1,2,0:0:0:0:
448,192,145807,1,10,0:0:0:0:
192,192,146150,1,2,0:0:0:0:
320,192,146493,1,10,0:0:0:0:
64,192,146835,1,2,0:0:0:0:
448,192,147178,1,10,0:0:0:0:
64,192,147521,1,2,0:0:0:0:
192,192,147521,1,0,0:0:0:0:
320,192,147864,1,8,0:0:0:0:
448,192,147864,1,2,0:0:0:0:
64,192,148207,128,2,150950:0:0:0:0:
192,192,148207,1,0,0:0:0:0:
448,192,148550,1,10,0:0:0:0:
320,192,148893,1,2,0:0:0:0:
448,192,149235,1,10,0:0:0:0:
192,192,149578,1,2,0:0:0:0:
448,192,149921,1,10,0:0:0:0:
192,192,150264,1,2,0:0:0:0:
320,192,150607,1,10,0:0:0:0:
448,192,150950,128,0,153350:0:0:0:100:boom.wav
64,192,151635,1,0,0:0:0:0:
192,192,152321,128,0,153350:0:0:0:0:
64,192,153693,1,4,0:0:0:0:
320,192,153693,1,2,0:0:0:0:
192,192,154035,1,10,0:0:0:0:
448,192,154207,1,0,0:0:0:0:
64,192,154550,1,0,0:0:0:0:
320,192,154893,1,0,0:0:0:0:
64,192,155235,1,0,0:0:0:0:
192,192,155407,1,10,0:0:0:0:
320,192,155578,1,0,0:0:0:0:
64,192,155750,128,2,156093:0:0:0:0:
448,192,156093,1,10,0:0:0:0:
320,192,156264,1,0,0:0:0:0:
192,192,156435,1,2,0:0:0:0:
64,192,156778,1,10,0:0:0:0:
448,192,156950,1,0,0:0:0:0:
192,192,157293,1,0,0:0:0:0:
448,192,157635,1,0,0:0:0:0:
64,192,157978,1,0,0:0:0:0:
320,192,158150,1,10,0:0:0:0:
192,192,158321,1,0,0:0:0:0:
448,192,158493,128,2,158835:0:0:0:0:
64,192,158835,128,10,159178:0:0:0:0:
320,192,159178,1,2,0:0:0:0:
448,192,159178,1,0,0:0:0:0:
192,192,159521,1,10,0:0:0:0:
448,192,159693,1,0,0:0:0:0:
64,192,160035,1,0,0:0:0:0:
320,192,160378,1,0,0:0:0:0:
192,192,160721,1,0,0:0:0:0:
320,192,160893,1,10,0:0:0:0:
448,192,161064,1,0,0:0:0:0:
64,192,161235,128,2,161578:0:0:0:0:
320,192,161578,1,10,0:0:0:0:
192,192,161750,1,0,0:0:0:0:
448,192,161921,1,2,0:0:0:0:
64,192,162264,1,10,0:0:0:0:
320,192,162435,1,0,0:0:0:0:
192,192,162778,1,0,0:0:0:0:
64,192,163121,1,0,0:0:0:0:
448,192,163293,128,2,163635:0:0:0:0:
192,192,163635,128,10,163978:0:0:0:0:
320,192,163978,128,2,164321:0:0:0:0:
64,192,164321,128,10,164664:0:0:0:0:
192,192,164664,1,4,0:0:0:0:
448,192,164664,1,2,0:0:0:0:
320,192,165007,1,10,0:0:0:0:
64,192,165178,1,0,0:0:0:0:
448,192,165521,1,0,0:0:0:0:
320,192,165864,1,0,0:0:0:0:
192,192,166207,1,0,0:0:0:0:
64,192,166378,1,10,0:0:0:0:
320,192,166550,1,0,0:0:0:0:
448,192,166721,128,2,167064:0:0:0:0:
64,192,167064,1,10,0:0:0:0:
192,192,167235,1,0,0:0:0:0:
320,192,167407,1,2,0:0:0:0:
448,192,167750,1,10,0:0:0:0:
64,192,167921,1,0,0:0:0:0:
320,192,168264,1,0,0:0:0:0:
64,192,168607,1,0,0:0:0:0:
192,192,168950,1,0,0:0:0:0:
320,192,169121,1,10,0:0:0:0:
448,192,169293,1,0,0:0:0:0:
64,192,169464,128,2,169807:0:0:0:0:
320,192,169807,128,10,170150:0:0:0:0:
192,192,170150,1,2,0:0:0:0:
448,192,170150,1,0,0:0:0:0:
64,192,170493,1,10,0:0:0:0:
448,192,170664,1,0,0:0:0:0:
192,192,171007,1,0,0:0:0:0:
320,192,171350,1,0,0:0:0:0:
64,192,171693,1,0,0:0:0:0:
192,192,171864,1,10,0:0:0:0:
448,192,172035,1,0,0:0:0:0:
320,192,172207,128,2,172550:0:0:0:0:
192,192,172550,1,10,0:0:0:0:
64,192,172721,1,0,0:0:0:0:
448,192,172893,1,2,0:0:0:0:
192,192,173235,1,10,0:0:0:0:
320,192,173407,1,0,0:0:0:0:
192,192,173750,1,0,0:0:0:0:
448,192,174093,1,0,0:0:0:0:
64,192,174435,1,0,0:0:0:0:
192,192,174607,1,10,0:0:0:0:
320,192,174778,1,0,0:0:0:0:
448,192,174950,128,2,175293:0:0:0:0:
192,192,175293,1,10,0:0:0:0:
320,192,175464,1,0,0:0:0:0:
64,192,175635,1,4,0:0:0:0:
448,192,175635,1,2,0:0:0:0:
64,192,175978,1,2,0:0:0:0:
320,192,176321,1,2,0:0:0:0:
320,192,176664,1,2,0:0:0:0:
192,192,177007,1,2,0:0:0:0:
192,192,177350,1,2,0:0:0:0:
448,192,177693,1,2,0:0:0:0:
448,192,178035,1,2,0:0:0:0:
64,192,178378,1,2,0:0:0:0:
64,192,178721,1,2,0:0:0:0:
192,192,179064,1,2,0:0:0:0:
192,192,179407,1,2,0:0:0:0:
320,192,179750,1,2,0:0:0:0:
320,192,180093,1,2,0:0:0:0:
448,192,180435,1,2,0:0:0:0:
448,192,180778,1,2,0:0:0:0:
64,192,181121,1,2,0:0:0:0:
64,192,181464,1,2,0:0:0:0:
320,192,181807,1,2,0:0:0:0:
320,192,182150,1,2,0:0:0:0:
192,192,182493,1,2,0:0:0:0:
192,192,182835,1,2,0:0:0:0:
448,192,183178,1,2,0:0:0:0:
448,192,183521,1,2,0:0:0:0:
64,192,183864,1,2,0:0:0:0:
64,192,184207,1,2,0:0:0:0:
192,192,184550,1,2,0:0:0:0:
192,192,184893,1,2,0:0:0:0:
320,192,185235,1,2,0:0:0:0:
320,192,185578,1,2,0:0:0:0:
448,192,185921,1,2,0:0:0:0:
448,192,186264,1,2,0:0:0:0:
64,192,186607,1,2,0:0:0:0:
320,192,186950,1,2,0:0:0:0:
192,192,187293,1,2,0:0:0:0:
448,192,187635,1,2,0:0:0:0:
64,192,187978,1,2,0:0:0:0:
320,192,188321,1,2,0:0:0:0:
192,192,188664,1,2,0:0:0:0:
448,192,189007,1,2,0:0:0:0:
64,192,189350,1,2,0:0:0:0:
192,192,189693,1,2,0:0:0:0:
320,192,190035,1,2,0:0:0:0:
448,192,190378,1,2,0:0:0:0:
192,192,190721,1,2,0:0:0:0:
64,192,191064,1,2,0:0:0:0:
448,192,191407,1,2,0:0:0:0:
320,192,191750,1,2,0:0:0:0:
64,192,192093,1,2,0:0:0:0:
320,192,192435,1,2,0:0:0:0:
192,192,192778,1,2,0:0:0:0:
448,192,193121,1,2,0:0:0:0:
64,192,193464,1,2,0:0:0:0:
320,192,193807,1,2,0:0:0:0:
192,192,194150,1,2,0:0:0:0:
448,192,194493,1,2,0:0:0:0:
64,192,194835,1,2,0:0:0:0:
192,192,195178,1,2,0:0:0:0:
320,192,195521,1,2,0:0:0:0:
448,192,195864,1,2,0:0:0:0:
192,192,196207,1,2,0:0:0:0:
64,192,196550,1,2,0:0:0:0:
448,192,196893,1,2,0:0:0:0:
320,192,197235,1,2,0:0:0:0:
