osu file format v14

[General]
AudioFilename: audio.mp3
AudioLeadIn: 0
PreviewTime: 45815
Countdown: 0
SampleSet: Soft
StackLeniency: 0.2
Mode: 0
LetterboxInBreaks: 0
WidescreenStoryboard: 1

[Editor]
Bookmarks: 15977,26356,36734,57491,67869,78248,88626,99004,109383,119761,134032,145707,155275,156086
DistanceSpacing: 1.2
BeatDivisor: 8
GridSize: 4
TimelineZoom: 4.299998

[Metadata]
Title:Amphisbaena
TitleUnicode:Amphisbaena
Artist:Mitsuyoshi Takenobu no Ani
ArtistUnicode:光吉猛修の兄
Creator:toybot
Version:Rumi's Extra
Source:BMS
Tags:team grimoire ice 光吉猛修 crossover orchestra BOFU2015 BMS OF FIGHTERS ULTIMATE 2015 チーム光吉猛修 Aeril Dynamix Rumia- Arusamour
BeatmapID:1347993
BeatmapSetID:576022

[Difficulty]
HPDrainRate:5
CircleSize:3.8
OverallDifficulty:8
ApproachRate:9.2
SliderMultiplier:1.6
SliderTickRate:1

[Events]
//Background and Video events
0,0,"nanomortis.png",0,0
//Break Periods
2,5799,15407
2,26556,34867
2,99204,108813
2,125150,133137
//Storyboard Layer 0 (Background)
//Storyboard Layer 1 (Fail)
//Storyboard Layer 2 (Pass)
//Storyboard Layer 3 (Foreground)
//Storyboard Sound Samples

[TimingPoints]
3005,324.324324324324,4,2,2,60,1,0
5518,-100,4,2,2,5,0,0
5599,-200,4,2,2,35,0,0
15004,-133.333333333333,4,2,2,35,0,0
15977,-133.333333333333,4,2,2,45,0,0
19869,-66.6666666666667,4,2,2,45,0,0
20356,-100,4,2,2,45,0,0
20518,-133.333333333333,4,2,2,45,0,0
25059,-66.6666666666667,4,2,2,45,0,0
25545,-100,4,2,2,45,0,0
25707,-66.6666666666667,4,2,2,45,0,0
26032,-33.3333333333333,4,2,2,45,0,0
26356,-66.6666666666667,4,2,2,25,0,0
36572,-66.6666666666667,4,2,2,50,0,0
36734,-133.333333333333,4,2,2,50,0,0
45491,-133.333333333333,4,2,1,50,0,0
46788,-100,4,2,1,50,0,0
47113,-41.6666666666667,4,2,1,65,0,0
47761,-66.6666666666667,4,2,1,65,0,0
48167,-57.1428571428571,4,2,1,65,0,0
48410,-66.6666666666667,4,2,1,65,0,0
48734,-41.6666666666667,4,2,1,65,0,0
49059,-66.6666666666667,4,2,1,65,0,0
49221,-57.1428571428571,4,2,1,65,0,0
49383,-50,4,2,1,65,0,0
49707,-41.6666666666667,4,2,1,65,0,0
51653,-66.6666666666667,4,2,1,65,0,0
51977,-50,4,2,1,65,0,0
52302,-100,4,2,1,65,0,0
52788,-66.6666666666667,4,2,1,65,0,0
53599,-50,4,2,1,65,0,0
54410,-66.6666666666667,4,2,1,65,0,0
54572,-50,4,2,1,65,0,0
55545,-66.6666666666667,4,2,1,65,0,0
55788,-50,4,2,1,65,0,0
57491,-66.6666666666667,4,2,1,65,0,0
59761,-41.6666666666667,4,2,1,65,0,0
60410,-66.6666666666667,4,2,1,65,0,0
61383,-50,4,2,1,65,0,0
62680,-100,4,2,1,65,0,0
63004,-66.6666666666667,4,2,1,65,0,0
64950,-50,4,2,1,65,0,0
65275,-41.6666666666667,4,2,1,65,0,0
65599,-66.6666666666667,4,2,1,65,0,0
66572,-50,4,2,1,65,0,0
67221,-41.6666666666667,4,2,1,65,0,0
67869,-100,4,2,1,65,0,0
68356,-66.6666666666667,4,2,1,65,0,0
76950,-50,4,2,1,65,0,0
77032,-55.5555555555556,4,2,1,65,0,0
77113,-62.5,4,2,1,65,0,0
77194,-71.4285714285714,4,2,1,65,0,0
77275,-83.3333333333333,4,2,1,65,0,0
77356,-100,4,2,1,65,0,0
77437,-125,4,2,1,65,0,0
77518,-166.666666666667,4,2,1,65,0,0
77599,-66.6666666666667,4,2,1,65,0,0
77923,-66.6666666666667,4,2,1,55,0,0
78248,-66.6666666666667,4,2,1,65,0,0
83437,-100,4,2,1,65,0,0
89113,-66.6666666666667,4,2,1,65,0,0
99004,-66.6666666666667,4,2,1,50,0,0
109383,-133.333333333333,4,2,2,50,0,0
119761,-200,4,2,1,35,0,0
133707,-100,4,2,1,35,0,0
133950,-100,4,2,1,5,0,0
134032,-200,4,2,1,65,0,0
134194,-66.6666666666667,4,2,1,65,0,0
135004,-41.6666666666667,4,2,1,65,0,0
135329,-41.6666666666667,4,2,1,65,0,0
135653,-66.6666666666667,4,2,1,65,0,0
136383,-57.1428571428571,4,2,1,65,0,0
136626,-66.6666666666667,4,2,1,65,0,0
136950,-41.6666666666667,4,2,1,65,0,0
137275,-66.6666666666667,4,2,1,65,0,0
137437,-57.1428571428571,4,2,1,65,0,0
137599,-50,4,2,1,65,0,0
137923,-41.6666666666667,4,2,1,65,0,0
140194,-50,4,2,1,65,0,0
140518,-100,4,2,1,65,0,0
141004,-66.6666666666667,4,2,1,65,0,0
141167,-41.6666666666667,4,2,1,65,0,0
141815,-50,4,2,1,65,0,0
142788,-41.6666666666667,4,2,1,65,0,0
143761,-66.6666666666667,4,2,1,65,0,0
144086,-50,4,2,1,65,0,0
145221,-50,4,2,1,65,0,0
145707,-66.6666666666667,4,2,1,65,0,0
147977,-41.6666666666667,4,2,1,65,0,0
148626,-66.6666666666667,4,2,1,65,0,0
149599,-50,4,2,1,65,0,0
150896,-100,4,2,1,65,0,0
151221,-66.6666666666667,4,2,1,65,0,0
153167,-50,4,2,1,65,0,0
153491,-41.6666666666667,4,2,1,65,0,0
153815,-66.6666666666667,4,2,1,65,0,0
154788,-50,4,2,1,65,0,0
155437,-41.6666666666667,4,2,1,65,0,0

[Colours]
Combo1 : 255,153,51
Combo2 : 141,141,141
Combo3 : 204,204,204
Combo4 : 183,11,36
Combo5 : 255,87,171
Combo6 : 150,247,252
Combo7 : 149,149,255
Combo8 : 210,210,0

[HitObjects]
256,192,5599,5,4,1:0:0:0:
120,232,15977,6,0,P|56:244|8:284,1,120.000004577637,0|0,1:0|0:0,0:0:0:0:
100,332,16464,1,0,1:0:0:0:
192,168,16626,2,0,P|164:140|120:128,1,60.0000022888184,8|0,0:0|0:0,0:0:0:0:
56,140,16950,1,0,0:0:0:0:
212,248,17113,1,0,1:0:0:0:
212,248,17275,102,0,L|296:232,1,60.0000022888184,0|0,1:0|0:0,0:0:0:0:
352,288,17599,2,0,L|323:368,1,60.0000022888184,0|0,1:0|0:0,0:0:0:0:
244,380,17923,2,0,L|188:315,1,60.0000022888184,8|0,0:0|0:0,0:0:0:0:
348,208,18248,1,0,0:0:0:0:
348,208,18410,1,0,0:0:0:0:
164,132,18572,6,0,P|172:96|184:68,1,60.0000022888184,0|0,1:0|0:0,0:0:0:0:
92,208,18896,2,0,P|56:219|26:222,1,60.0000022888184,0|0,0:0|1:0,0:0:0:0:
196,228,19221,2,0,P|240:272|260:332,1,120.000004577637,8|0,0:0|0:0,0:0:0:0:
364,168,19707,101,0,1:0:0:0:
364,168,19788,1,0,1:0:0:0:
364,168,19869,2,0,B|304:144|304:144|248:168,1,120.000004577637,0|0,1:0|0:0,0:0:0:0:
252,296,20113,2,0,B|308:320|308:320|362:293,1,120.000004577637,0|0,1:0|0:0,0:0:0:0:
416,232,20356,1,0,1:0:0:0:
196,228,20518,6,0,L|120:224,1,60.0000022888184,8|0,0:0|0:0,0:0:0:0:
312,228,20842,1,0,1:0:0:0:
312,228,21004,1,0,1:0:0:0:
344,16,21167,102,0,L|328:140,1,120.000004577637,0|0,1:0|0:0,0:0:0:0:
312,228,21653,1,0,0:0:0:0:
420,88,21815,2,0,L|412:156,1,60.0000022888184,8|0,0:0|0:0,0:0:0:0:
228,188,22140,1,0,0:0:0:0:
228,188,22302,1,0,1:0:0:0:
248,40,22464,6,0,L|240:108,1,60.0000022888184,0|0,1:0|0:0,0:0:0:0:
104,272,22788,2,0,L|158:231,1,60.0000022888184,0|0,1:0|0:0,0:0:0:0:
360,256,23113,2,0,L|297:228,1,60.0000022888184,8|0,0:0|0:0,0:0:0:0:
144,136,23437,2,0,L|80:148,1,60.0000022888184,0|0,0:0|0:0,0:0:0:0:
16,196,23761,101,0,1:0:0:0:
208,348,24086,1,0,0:0:0:0:
300,284,24248,1,0,1:0:0:0:
212,204,24410,2,0,L|208:276,1,60.0000022888184,8|0,0:0|0:0,0:0:0:0:
456,352,24734,2,0,L|460:288,1,60.0000022888184,0|0,0:0|1:0,0:0:0:0:
468,172,24977,1,0,1:0:0:0:
468,172,25059,6,0,B|408:188|408:188|340:168,1,120.000004577637,0|0,1:0|0:0,0:0:0:0:
364,32,25302,2,0,B|419:15|419:15|479:31,1,120.000004577637,0|0,1:0|0:0,0:0:0:0:
297,89,25545,2,0,L|236:82,1,40,0|0,1:0|0:0,0:0:0:0:
184,72,25707,1,8,0:0:0:0:
412,112,25869,1,0,0:0:0:0:
184,72,26032,102,0,B|264:84|264:84|304:72|304:72|336:96|336:96|416:112,1,240.000009155274,0|0,1:0|1:0,0:0:0:0:
284,176,26356,5,0,0:0:0:0:
256,192,35437,12,0,36410,0:0:0:0:
224,256,36734,101,4,1:2:0:0:
224,256,37059,2,0,L|232:184,1,60.0000022888184,0|0,0:0|1:0,0:0:0:0:
324,184,37383,2,0,L|308:308,1,120.000004577637,8|0,0:0|0:0,0:0:0:0:
112,332,37869,1,0,0:0:0:0:
112,332,38032,6,0,L|180:328,1,60.0000022888184,0|0,1:0|0:0,0:0:0:0:
244,192,38356,2,0,L|236:264,1,60.0000022888184,0|0,1:0|0:0,0:0:0:0:
132,228,38680,2,0,L|148:104,1,120.000004577637,8|0,0:0|0:0,0:0:0:0:
160,24,39167,1,0,0:0:0:0:
328,88,39329,101,0,1:0:0:0:
328,88,39653,2,0,L|264:92,1,60.0000022888184,0|0,0:0|0:0,0:0:0:0:
232,196,39977,2,0,L|356:188,1,120.000004577637,8|0,0:0|0:0,0:0:0:0:
448,188,40464,1,0,0:0:0:0:
448,188,40626,6,0,L|428:248,1,60.0000022888184,0|0,1:0|0:0,0:0:0:0:
456,96,40950,2,0,L|436:156,1,60.0000022888184,0|0,1:0|0:0,0:0:0:0:
332,268,41275,2,0,L|312:328,1,60.0000022888184,8|0,0:0|0:0,0:0:0:0:
340,176,41599,2,0,L|320:236,1,60.0000022888184,0|0,0:0|0:0,0:0:0:0:
180,332,41923,101,0,1:0:0:0:
180,332,42248,2,0,P|140:344|104:340,1,60.0000022888184,0|0,0:0|0:0,0:0:0:0:
24,224,42572,2,0,P|96:224|140:264,1,120.000004577637,8|0,0:0|0:0,0:0:0:0:
180,332,43059,1,0,0:0:0:0:
228,192,43221,6,0,L|212:264,1,60.0000022888184,0|0,1:0|0:0,0:0:0:0:
172,112,43545,2,0,L|104:124,1,60.0000022888184,0|0,1:0|0:0,0:0:0:0:
268,100,43869,2,0,L|388:124,1,120.000004577637,8|0,0:0|0:0,0:0:0:0:
456,216,44356,1,0,0:0:0:0:
352,256,44518,102,0,L|360:184,1,60.0000022888184,0|0,1:0|0:0,0:0:0:0:
476,72,44842,2,0,L|469:131,1,60.0000022888184,0|0,0:0|1:0,0:0:0:0:
416,320,45167,2,0,P|376:340|295:317,1,120.000004577637,8|0,0:0|1:0,0:0:0:0:
219,282,45653,1,0,0:0:0:0:
328,172,45815,5,2,0:0:0:0:
224,362,46140,1,2,0:0:0:0:
224,362,46221,1,0,0:0:0:0:
224,362,46302,2,0,L|172:354,1,30.0000011444092,0|0,0:0|0:0,0:0:0:0:
112,336,46464,1,2,0:0:0:0:
332,228,46788,102,0,L|336:196,6,20
224,144,47113,22,0,B|268:96|268:96|424:112|424:112|452:176,1,287.999991210938,4|0,1:2|0:0,0:0:0:0:
460,200,47437,1,8,0:0:0:0:
368,332,47599,1,0,0:0:0:0:
368,332,47680,1,0,1:0:0:0:
368,332,47761,2,0,P|340:324|308:324,1,60.0000022888184,0|0,0:0|0:0,0:0:0:0:
200,252,47923,2,0,P|244:232|260:216,1,60.0000022888184,2|0,1:0|0:0,0:0:0:0:
352,108,48086,1,8,0:0:0:0:
364,92,48167,2,0,L|344:244,1,140.000001335144,2|0,0:1|0:0,0:0:0:0:
264,140,48410,6,0,L|276:52,1,60.0000022888184,0|0,1:0|0:0,0:0:0:0:
304,316,48572,2,0,L|316:228,1,60.0000022888184
448,267,48734,2,0,P|409:217|493:220,1,191.999994140625,8|0,0:0|1:0,0:0:0:0:
448,267,48977,1,0,1:0:0:0:
448,267,49059,2,0,L|436:339,1,60.0000022888184
304,316,49221,2,0,L|290:385,1,70.000000667572,0|0,1:0|0:0,0:0:0:0:
176,243,49383,2,0,L|153:320,1,80,12|0,0:0|0:0,0:0:0:0:
42,293,49545,1,0,0:0:0:0:
42,293,49707,102,0,B|1:209|1:209|102:210|102:210|101:217|101:217|204:212,1,287.999991210938,4|0,1:2|0:0,0:0:0:0:
273,209,50032,1,8,0:0:0:0:
240,376,50194,1,0,0:0:0:0:
240,376,50275,1,0,1:0:0:0:
240,376,50356,2,0,L|232:316,14,47.9999985351563,2|0|0|0|0|0|0|0|0|0|0|0|0|0|0,0:1|0:0|0:0|0:0|0:0|0:0|0:0|0:0|0:0|0:0|0:0|0:0|0:0|0:0|0:0,0:0:0:0:
332,308,51004,6,0,B|352:260|352:260|340:212,1,95.9999970703126,0|0,1:0|0:0,0:0:0:0:
172,116,51167,2,0,B|156:164|156:164|164:212,1,95.9999970703126,0|0,0:0|0:0,0:0:0:0:
233,328,51329,2,0,B|283:248|283:248|238:164|238:164|249:224|249:224|236:268,1,287.999991210938,8|0,0:0|0:0,0:0:0:0:
238,259,51653,102,0,L|230:347,1,60.0000022888184
110,252,51815,2,0,L|118:340,1,60.0000022888184,0|0,1:0|0:0,0:0:0:0:
151,41,51977,2,0,B|155:85|184:124|184:124|156:166|156:166|104:144|52:168,1,240,12|0,0:0|0:0,0:0:0:0:
137,259,52302,6,0,P|72:262|115:311,1,160,2|8,1:0|0:0,0:0:0:0:
200,324,52788,1,0,0:0:0:0:
216,336,52869,2,0,L|344:336,1,120.000004577637,0|0,1:0|0:0,0:0:0:0:
340,252,53113,2,0,L|252:252,1,60.0000022888184,0|0,0:0|0:0,0:0:0:0:
420,332,53275,1,8,0:0:0:0:
408,116,53437,1,0,1:0:0:0:
452,228,53599,102,0,L|464:172,6,40,2|0|0|0|0|0|0,1:1|0:0|0:0|0:0|0:0|0:0|0:0,0:0:0:0:
448,252,53923,1,8,0:0:0:0:
225,254,54086,1,0,0:0:0:0:
225,254,54167,1,0,1:0:0:0:
225,254,54248,2,0,P|237:230|229:170,1,80,2|2,0:1|0:1,0:0:0:0:
136,48,54410,2,0,P|124:76|128:120,1,60.0000022888184,2|0,1:0|0:0,0:0:0:0:
0,209,54572,2,0,B|79:206|79:206|84:212|84:212|199:206,1,160,12|0,0:0|0:0,0:0:0:0:
352,88,54896,6,0,P|296:60|184:116,1,160,4|0,1:2|0:0,0:0:0:0:
265,309,55221,1,8,0:0:0:0:
278,157,55383,1,0,0:0:0:0:
278,157,55464,1,0,1:0:0:0:
278,157,55545,2,0,L|270:241,3,60.0000022888184,0|0|0|0,0:0|0:0|0:0|0:0,0:0:0:0:
179,108,55869,2,0,B|193:25|193:25|112:29|112:29|125:108,1,240,8|0,0:0|0:0,0:0:0:0:
152,184,56194,101,0,1:0:0:0:
160,360,56356,2,0,B|148:320|148:320|164:272,1,80,2|0,0:1|0:0,0:0:0:0:
152,184,56518,5,8,0:0:0:0:
160,360,56680,2,0,B|169:321|169:321|157:273,1,80,2|0,0:1|1:0,0:0:0:0:
152,184,56842,101,0,0:0:0:0:
8,328,57004,2,0,L|88:320,1,80,2|0,1:0|0:0,0:0:0:0:
244,312,57167,2,0,L|324:304,1,80,8|0,0:0|0:0,0:0:0:0:
452,264,57329,1,0,0:0:0:0:
456,240,57410,1,0,0:0:0:0:
460,216,57491,22,0,L|472:136,2,60.0000022888184,6|0|0,1:2|0:0|0:0,0:0:0:0:
370,220,57734,1,0,0:0:0:0:
376,196,57815,1,10,0:0:0:0:
380,172,57896,1,0,0:0:0:0:
384,148,57977,1,0,0:0:0:0:
388,124,58059,1,0,1:0:0:0:
392,100,58140,6,0,P|392:68|384:20,1,60.0000022888184,2|0,0:0|0:0,0:0:0:0:
208,172,58302,2,0,P|180:156|134:138,1,60.0000022888184,2|0,1:2|0:0,0:0:0:0:
288,100,58464,2,0,P|272:72|241:34,1,60.0000022888184,10|0,0:0|0:0,0:0:0:0:
200,280,58626,2,0,P|168:280|120:288,1,60.0000022888184,2|0,0:0|0:0,0:0:0:0:
483,250,58788,102,0,P|443:268|424:290,1,60.0000022888184,2|0,1:2|0:0,0:0:0:0:
384,352,58950,1,0,0:0:0:0:
380,308,59032,1,0,0:0:0:0:
352,276,59113,1,10,0:0:0:0:
320,248,59194,1,2,0:0:0:0:
308,208,59275,1,2,0:0:0:0:
312,168,59356,1,0,1:0:0:0:
336,132,59437,2,0,P|364:120|408:116,3,60.0000022888184,2|2|0|0,0:0|0:0|1:0|0:0,0:0:0:0:
236,160,59761,6,0,B|208:168|184:188|184:188|169:50|169:50|288:64,1,287.999991210938,12|0,0:0|0:0,0:0:0:0:
452,236,60086,102,0,B|388:276|320:228|320:228|240:220|180:316,1,287.999991210938,4|0,1:2|0:0,0:0:0:0:
180,324,60410,1,10,0:0:0:0:
392,176,60572,1,0,0:0:0:0:
392,176,60653,1,0,1:0:0:0:
392,176,60734,2,0,L|408:112,3,60.0000022888184,2|0|0|0,0:0|0:0|1:0|0:0,0:0:0:0:
283,101,61059,2,0,L|276:41,3,60.0000022888184,8|0|0|0,0:0|0:0|0:0|0:0,0:0:0:0:
176,124,61383,6,0,P|176:80|184:24,1,80,0|0,1:0|0:0,0:0:0:0:
76,236,61545,2,0,P|52:188|44:144,1,80,0|2,0:0|0:0,0:0:0:0:
217,219,61707,2,0,P|238:180|273:136,1,80,10|2,0:0|0:0,0:0:0:0:
108,380,61869,2,0,P|63:350|34:316,1,80,2|0,0:0|1:0,0:0:0:0:
512,240,62032,102,0,B|472:220|472:220|437:226,1,80,2|2,0:0|0:0,0:0:0:0:
213,325,62194,2,0,B|253:305|253:305|287:311,1,80,2|0,1:2|0:0,0:0:0:0:
360,384,62356,2,0,B|380:308|380:308|348:236|348:236|364:144,1,240,12|0,0:0|0:0,0:0:0:0:
356,88,62680,6,0,L|332:220,1,120,0|2,1:0|0:0,0:0:0:0:
332,224,63004,102,0,L|320:308,1,60.0000022888184,10|0,0:0|0:0,0:0:0:0:
208,344,63167,2,0,L|200:284,1,60.0000022888184,2|2,0:0|1:2,0:0:0:0:
88,140,63329,1,2,0:0:0:0:
84,164,63410,1,0,0:0:0:0:
80,188,63491,2,0,L|68:260,1,60.0000022888184,2|0,1:2|0:0,0:0:0:0:
176,192,63653,1,10,0:0:0:0:
212,184,63734,1,0,0:0:0:0:
244,204,63815,1,0,0:0:0:0:
264,232,63896,1,0,0:0:0:0:
276,264,63977,6,0,L|264:336,1,60.0000022888184,2|0,1:2|0:0,0:0:0:0:
429,323,64140,2,0,L|420:264,1,60.0000022888184,2|0,0:0|0:0,0:0:0:0:
268,244,64302,2,0,L|248:300,1,60.0000022888184,10|0,0:0|0:0,0:0:0:0:
450,290,64464,2,0,L|430:234,1,60.0000022888184,2|0,0:0|1:0,0:0:0:0:
364,40,64626,1,2,0:0:0:0:
360,100,64707,1,2,0:0:0:0:
356,160,64788,2,0,L|344:252,1,60.0000022888184,0|0,1:0|0:0,0:0:0:0:
180,320,64950,102,0,B|164:224|164:224|261:230|261:230|244:280,1,240,12|0,0:0|0:0,0:0:0:0:
304,340,65275,6,0,B|348:220|348:220|304:152|304:152|224:144,1,287.999991210938,6|0,1:2|0:0,0:0:0:0:
184,144,65599,1,10,0:0:0:0:
48,356,65761,1,2,0:0:0:0:
48,356,65842,1,0,1:0:0:0:
48,356,65923,2,0,P|28:308|24:248,1,60.0000022888184,2|0,0:0|0:0,0:0:0:0:
172,328,66086,2,0,P|180:296|204:264,1,60.0000022888184,2|0,1:2|0:0,0:0:0:0:
367,342,66248,1,10,0:0:0:0:
263,209,66410,1,2,0:0:0:0:
272,356,66572,101,2,1:2:0:0:
368,168,66734,2,0,P|376:208|368:276,1,80,0|0,0:0|0:0,0:0:0:0:
272,356,66896,1,10,0:0:0:0:
184,168,67059,2,0,P|176:208|184:276,1,80,0|0,0:0|0:0,0:0:0:0:
272,312,67221,6,0,B|272:248|272:248|260:216|260:216|272:184|272:184|272:88,1,191.999994140625,4|0,0:0|1:0,0:0:0:0:
179,28,67464,2,0,B|115:92|115:92|191:176,1,191.999994140625,4|0,0:0|0:0,0:0:0:0:
356,152,67707,2,0,B|392:108|392:108|348:76,1,95.9999970703126,4|0,0:0|0:0,0:0:0:0:
272,32,67869,6,0,L|277:195,1,160,4|8,1:3|0:0,0:0:0:0:
482,294,68356,5,0,0:0:0:0:
452,313,68437,1,0,1:0:0:0:
416,318,68518,1,0,0:0:0:0:
380,316,68599,1,0,0:0:0:0:
329,296,68680,1,0,1:0:0:0:
275,286,68761,1,0,0:0:0:0:
221,288,68842,102,0,P|198:295|172:323,1,60.0000022888184,8|0,0:0|0:0,0:0:0:0:
417,237,69004,2,0,P|434:203|431:159,1,60.0000022888184
240,83,69167,5,0,1:0:0:0:
489,94,69329,1,0,0:0:0:0:
418,82,69410,1,0,0:0:0:0:
351,109,69491,1,8,0:0:0:0:
315,171,69572,1,0,0:0:0:0:
229,170,69653,101,0,0:0:0:0:
211,168,69734,1,0,1:0:0:0:
194,161,69815,2,0,L|195:246,1,60.0000022888184
26,251,69977,1,0,0:0:0:0:
44,249,70058,1,0,1:0:0:0:
61,242,70139,2,0,L|59:327,1,60.0000022888184
180,347,70302,1,4,0:3:0:0:
226,336,70383,1,0,0:0:0:0:
273,328,70464,6,0,L|257:264,3,60.0000022888184,4|0|0|0,0:3|0:0|0:0|0:0,0:0:0:0:
361,282,70788,1,8,0:0:0:0:
403,260,70869,1,0,0:0:0:0:
446,280,70950,2,0,L|443:340,1,60.0000022888184,0|0,0:0|1:0,0:0:0:0:
449,160,71113,2,0,L|377:168,1,60.0000022888184
199,103,71275,2,0,P|203:63|191:11,1,60.0000022888184,0|0,1:0|0:0,0:0:0:0:
85,194,71437,2,0,L|157:198,1,60.0000022888184,8|0,0:0|0:0,0:0:0:0:
313,101,71599,2,0,P|309:61|321:9,1,60.0000022888184
291,375,71761,102,0,L|287:279,3,60.0000022888184,0|0|0|0,1:0|0:0|0:0|0:0,0:0:0:0:
228,232,72086,1,8,0:0:0:0:
222,249,72167,1,0,0:0:0:0:
218,266,72248,1,0,0:0:0:0:
213,283,72329,1,0,1:0:0:0:
202,317,72410,6,0,L|190:237,1,60.0000022888184
84,154,72572,2,0,L|75:213,1,60.0000022888184,0|0,1:0|0:0,0:0:0:0:
203,82,72734,2,0,L|194:22,1,60.0000022888184,8|0,0:0|0:0,0:0:0:0:
367,130,72896,2,0,L|355:210,1,60.0000022888184,4|4,0:3|0:3,0:0:0:0:
213,269,73059,101,4,0:3:0:0:
205,278,73140,1,0,0:0:0:0:
194,275,73221,1,0,0:0:0:0:
186,267,73302,1,0,0:0:0:0:
193,257,73383,2,0,L|265:261,1,60.0000022888184,8|0,0:0|0:0,0:0:0:0:
486,138,73545,2,0,L|414:134,1,60.0000022888184
337,350,73707,5,0,1:0:0:0:
351,304,73788,1,0,0:0:0:0:
348,256,73869,1,0,1:0:0:0:
325,213,73950,1,0,0:0:0:0:
302,170,74032,1,8,0:0:0:0:
287,124,74113,1,0,0:0:0:0:
294,76,74194,2,0,P|330:64|378:60,1,60.0000022888184
372,55,74356,102,0,L|356:139,1,60.0000022888184,0|0,1:0|0:0,0:0:0:0:
236,324,74518,2,0,L|220:408,1,60.0000022888184,0|0,0:0|0:0,0:0:0:0:
127,191,74680,2,0,L|67:186,1,60.0000022888184,8|0,0:0|0:0,0:0:0:0:
351,231,74842,2,0,L|411:236,1,60.0000022888184
152,296,75004,6,0,P|144:324|136:364,1,60.0000022888184,0|0,1:0|0:0,0:0:0:0:
216,88,75167,2,0,P|209:58|201:29,1,60.0000022888184,0|0,1:0|0:0,0:0:0:0:
349,319,75329,2,0,P|417:315|433:315,1,60.0000022888184,8|0,0:0|0:0,0:0:0:0:
320,99,75492,2,0,L|336:39,1,60.0000022888184
184,208,75653,101,4,1:3:0:0:
184,208,75734,1,0,0:0:0:0:
184,208,75815,2,0,L|196:140,1,60.0000022888184,0|0,0:0|0:0,0:0:0:0:
56,276,75977,1,8,0:0:0:0:
92,279,76058,1,0,0:0:0:0:
120,299,76139,1,0,0:0:0:0:
156,340,76221,1,0,0:0:0:0:
212,352,76302,1,0,1:0:0:0:
264,328,76383,1,0,0:0:0:0:
296,284,76464,6,0,L|284:244,4,30.0000011444092,0|0|0|0|8,0:0|0:0|0:0|0:0|0:0,0:0:0:0:
380,123,76788,2,0,L|388:151,3,30.0000011444092,0|0|0|0,0:0|0:0|0:0|0:0,0:0:0:0:
467,80,76950,102,0,P|445:56|415:47,1,40,2|0,1:2|0:0,0:0:0:0:
445,43,77032,6,0,P|415:30|387:33,1,35.9999989013672
405,23,77113,102,0,P|372:24|349:39,1,32
368,17,77194,6,0,P|339:32|328:46,1,27.9999991455078
337,24,77275,102,0,P|317:49|315:60,1,23.9999992675781,8|0,0:0|0:0,0:0:0:0:
316,36,77356,6,0,P|306:52|307:70,1,20
300,52,77437,102,0,P|298:68|303:79,1,16
296,68,77518,6,0,L|292:88,1,11.9999996337891,0|0,1:0|0:0,0:0:0:0:
300,88,77599,21,0,1:0:0:0:
288,128,77680,1,0,1:0:0:0:
260,160,77761,1,0,1:0:0:0:
220,172,77842,1,0,1:0:0:0:
176,164,77923,1,0,1:0:0:0:
144,136,78004,1,0,1:0:0:0:
132,96,78086,1,0,1:0:0:0:
144,56,78167,1,0,1:0:0:0:
176,28,78248,70,0,L|312:56,1,120.000004577637,4|0,0:0|0:0,0:0:0:0:
420,80,78572,1,8,0:0:0:0:
328,244,78734,1,0,0:0:0:0:
320,220,78815,1,0,0:0:0:0:
316,196,78896,2,0,P|312:148|320:108,1,60.0000022888184,0|0,1:0|0:0,0:0:0:0:
468,176,79059,2,0,P|469:205|465:235,1,60.0000022888184,0|0,0:0|0:0,0:0:0:0:
382,304,79221,2,0,L|257:301,1,120.000004577637,8|0,0:0|0:0,0:0:0:0:
130,121,79545,6,0,B|108:240|108:240|136:292,2,180.000006866455,0|0|0,1:0|0:0|0:0,0:0:0:0:
392,208,80194,1,0,1:0:0:0:
204,220,80356,1,0,0:0:0:0:
364,340,80518,1,8,0:0:0:0:
216,116,80680,1,0,1:0:0:0:
452,144,80842,102,0,P|372:120|304:220,1,180.000006866455,4|0,1:2|0:0,0:0:0:0:
296,208,81167,1,8,0:0:0:0:
248,332,81329,1,0,0:0:0:0:
244,316,81410,1,0,1:0:0:0:
240,300,81491,1,0,1:0:0:0:
344,288,81653,1,0,1:0:0:0:
152,328,81815,1,8,0:0:0:0:
344,288,81977,1,0,0:0:0:0:
160,212,82140,6,0,B|116:192|116:192|44:216,1,120.000004577637,4|0,1:2|0:0,0:0:0:0:
232,276,82464,2,0,B|252:212|252:212|232:108,1,120.000004577637,8|0,0:0|0:0,0:0:0:0:
220,80,82707,1,0,0:0:0:0:
220,80,82788,1,4,1:2:0:0:
388,152,82950,1,0,1:0:0:0:
396,180,83032,1,0,0:0:0:0:
404,208,83113,1,8,0:0:0:0:
412,236,83194,1,0,0:0:0:0:
404,264,83275,1,0,1:0:0:0:
392,292,83356,1,0,0:0:0:0:
376,316,83437,102,0,P|291:311|212:308,1,160,4|8,1:2|0:0,0:0:0:0:
68,104,83923,2,0,P|140:92|212:164,1,160,0|0,0:0|0:0,0:0:0:0:
88,328,84410,1,8,0:0:0:0:
116,184,84572,1,0,0:0:0:0:
280,332,84734,6,0,P|296:256|296:168,1,160,0|8,1:0|0:0,0:0:0:0:
200,92,85221,1,0,0:0:0:0:
116,184,85383,2,0,P|108:224|108:280,1,80,0|0,1:0|0:0,0:0:0:0:
140,360,85707,1,8,0:0:0:0:
28,308,85869,1,0,1:0:0:0:
200,224,86032,101,4,1:2:0:0:
312,312,86194,2,0,L|304:368,2,40,0|0|8,0:0|0:0|0:0,0:0:0:0:
392,216,86518,2,0,L|388:184,4,20,0|0|0|0|4,3:0|3:0|3:0|3:0|1:2,0:0:0:0:
184,136,86842,2,0,L|128:128,2,40,0|0|8,3:0|3:0|3:2,0:0:0:0:
280,216,87166,2,0,L|312:212,4,20,0|0|0|0|4,0:0|0:0|3:0|3:0|1:2,0:0:0:0:
160,288,87491,2,0,L|128:284,4,20,0|0|0|0|8,3:0|3:0|3:0|3:0|0:0,0:0:0:0:
256,348,87815,1,0,1:0:0:0:
432,332,87977,5,4,1:2:0:0:
444,316,88059,1,0,0:0:0:0:
452,296,88140,1,0,1:0:0:0:
460,276,88221,1,0,0:0:0:0:
464,256,88302,1,12,0:0:0:0:
464,236,88383,1,0,0:0:0:0:
460,216,88464,2,0,P|452:188|440:160,1,40,0|0,3:0|3:0,0:0:0:0:
440,88,88626,102,0,L|280:96,1,160,4|8,1:2|0:0,0:0:0:0:
172,168,89113,1,0,0:0:0:0:
172,168,89194,1,0,0:0:0:0:
172,168,89275,2,0,L|180:240,1,60.0000022888184,0|0,1:0|0:0,0:0:0:0:
316,348,89437,2,0,L|324:280,1,60.0000022888184,0|0,0:0|0:0,0:0:0:0:
384,216,89599,2,0,P|328:192|260:224,1,120.000004577637,8|0,0:0|0:0,0:0:0:0:
184,336,89923,6,0,B|108:328|108:328|80:336|80:336|0:328,2,180.000006866455,0|0|0,1:0|0:0|0:0,0:0:0:0:
417,180,90572,2,0,B|437:116|437:116|416:61,1,120.000004577637,0|0,1:0|0:0,0:0:0:0:
203,238,90896,1,8,0:0:0:0:
341,118,91059,1,0,1:0:0:0:
60,284,91221,102,0,B|120:280|152:332|152:332|220:352|284:304,1,240.000009155274,4|8,1:2|0:0,0:0:0:0:
340,117,91707,2,0,L|351:237,1,120.000004577637,0|0,0:0|1:0,0:0:0:0:
418,66,92032,2,0,L|465:63,4,30.0000011444092,0|0|0|0|8,3:0|3:0|3:0|3:0|0:0,0:0:0:0:
234,164,92356,2,0,L|204:165,3,30.0000011444092,0|0|0|0,3:0|3:0|3:0|0:0,0:0:0:0:
232,144,92518,6,0,P|220:96|248:16,1,120.000004577637,4|0,1:2|0:0,0:0:0:0:
392,96,92842,2,0,P|410:152|398:210,1,120.000004577637,8|0,0:0|0:0,0:0:0:0:
321,298,93086,1,0,0:0:0:0:
300,310,93167,2,0,L|176:294,1,120.000004577637,4|0,1:2|3:0,0:0:0:0:
60,278,93410,1,0,0:0:0:0:
36,210,93491,1,8,0:0:0:0:
71,147,93572,1,0,0:0:0:0:
138,122,93653,2,0,L|179:127,3,30.0000011444092
140,133,93815,102,0,B|201:138|201:138|245:114|245:114|318:125,1,180.000006866455,4|0,1:2|0:0,0:0:0:0:
353,132,94140,1,8,0:0:0:0:
250,354,94302,2,0,L|256:193,1,120.000004577637,0|0,0:0|1:0,0:0:0:0:
361,288,94626,1,0,1:0:0:0:
161,315,94788,2,0,P|153:252|176:182,1,120.000004577637,8|0,0:0|0:0,0:0:0:0:
200,123,95032,1,0,0:0:0:0:
211,112,95113,6,0,L|334:131,1,120.000004577637,4|0,1:2|0:0,0:0:0:0:
353,115,95356,2,0,L|356:74,2,30.0000011444092,0|0|8,0:0|0:0|0:0,0:0:0:0:
338,248,95599,1,0,1:0:0:0:
420,303,95761,101,0,1:0:0:0:
311,147,95923,1,0,0:0:0:0:
275,338,96086,5,8,0:0:0:0:
311,147,96248,1,0,1:0:0:0:
479,218,96410,102,0,B|446:195|399:206|399:206|337:272|234:237,1,240.000009155274,4|8,1:2|0:0,0:0:0:0:
311,147,96896,2,0,L|307:117,2,30.0000011444092,4|0|0,0:0|0:0|0:0,0:0:0:0:
251,46,97059,1,0,1:0:0:0:
191,124,97221,2,0,L|186:165,2,30.0000011444092,0|0|0,3:0|3:0|3:0,0:0:0:0:
112,215,97383,1,12,0:0:0:0:
50,144,97545,2,0,L|46:114,2,30.0000011444092,0|0|0,3:0|3:0|3:0,0:0:0:0:
109,42,97707,5,4,1:2:0:0:
121,39,97869,101,0,1:0:0:0:
133,37,98032,5,8,0:0:0:0:
145,34,98194,101,0,1:0:0:0:
303,135,98356,5,0,1:0:0:0:
318,133,98437,1,0,1:0:0:0:
333,131,98518,1,0,1:0:0:0:
348,129,98599,1,0,1:0:0:0:
363,127,98680,2,0,L|358:198,1,60.0000022888184,8|0,0:0|1:0,0:0:0:0:
189,258,98842,2,0,L|178:195,1,60.0000022888184,0|0,1:0|1:0,0:0:0:0:
293,346,99004,101,8,1:0:0:0:
105,225,109383,22,0,P|155:255|211:241,1,120.000004577637,0|0,1:0|0:0,0:0:0:0:
272,176,109869,1,0,0:0:0:0:
272,176,110032,2,0,P|280:136|280:112,1,60.0000022888184,8|0,0:0|0:0,0:0:0:0:
360,64,110356,2,0,P|362:94|369:124,1,60.0000022888184,0|0,0:0|1:0,0:0:0:0:
432,176,110680,5,0,1:0:0:0:
200,128,111004,1,0,1:0:0:0:
432,176,111329,2,0,L|444:236,2,40.000001525879,8|2|2,0:0|0:1|0:1,0:0:0:0:
396,100,111653,2,0,L|456:88,2,40.000001525879,2|2|2,0:1|0:1|0:1,0:0:0:0:
336,160,111977,102,0,B|297:160|297:160|261:143|261:143|193:142,1,120.000004577637,0|0,1:0|0:0,0:0:0:0:
69,180,112464,1,0,1:0:0:0:
152,236,112626,2,0,L|140:104,1,120.000004577637,8|0,0:0|0:0,0:0:0:0:
72,264,113113,1,0,0:0:0:0:
72,264,113275,6,0,P|68:296|77:353,2,90.0000034332277,0|0|0,1:0|1:0|1:0,0:0:0:0:
152,236,113923,2,0,L|212:248,1,60.0000022888184,8|0,0:0|0:0,0:0:0:0:
316,264,114248,1,0,1:0:0:0:
316,264,114410,1,0,1:0:0:0:
316,264,114572,101,0,1:0:0:0:
232,318,114896,2,0,P|213:267|245:190,2,120.000004577637,0|8|0,0:0|0:0|0:0,0:0:0:0:
405,320,115707,1,0,1:0:0:0:
405,320,115869,6,0,P|422:263|403:207,1,120.000004577637,0|0,1:0|1:0,0:0:0:0:
229,136,116518,2,0,L|288:132,1,60.0000022888184,8|0,0:0|0:0,0:0:0:0:
332,48,116842,2,0,L|264:52,1,60.0000022888184,0|0,0:0|0:0,0:0:0:0:
160,84,117167,102,0,B|140:120|140:120|156:208,1,120.000004577637,0|0,1:0|0:0,0:0:0:0:
284,296,117653,1,0,1:0:0:0:
328,224,117815,2,0,P|280:212|212:252,1,120.000004577637,8|0,0:0|0:0,0:0:0:0:
156,368,118302,1,0,0:0:0:0:
156,368,118383,1,0,0:0:0:0:
156,368,118464,6,0,L|144:260,2,90.0000034332277,0|0|0,1:0|1:0|1:0,0:0:0:0:
232,320,119113,2,0,L|312:328,1,60.0000022888184,8|0,0:0|0:0,0:0:0:0:
200,194,119437,2,0,L|120:186,1,60.0000022888184,0|0,1:0|1:0,0:0:0:0:
271,103,119761,21,2,0:0:0:0:
256,192,119842,12,4,124950,0:3:0:0:
281,50,133707,102,0,L|265:193,1,120
265,197,134032,1,8,0:0:0:0:
331,302,134194,5,0,1:0:0:0:
354,306,134275,1,0,1:0:0:0:
377,311,134356,1,0,1:0:0:0:
400,314,134437,1,0,1:0:0:0:
423,315,134518,1,8,0:0:0:0:
315,162,134680,101,0,1:0:0:0:
267,169,134761,1,0,1:0:0:0:
219,171,134842,1,0,1:0:0:0:
171,177,134923,1,0,1:0:0:0:
79,136,135004,6,0,P|133:236|4:196,1,287.999991210938,8|0,0:0|0:0,0:0:0:0:
72,204,135329,102,0,B|144:204|144:204|180:232|180:232|208:176|208:176|248:204|248:204|332:204,1,287.999991210938,4|0,1:2|0:0,0:0:0:0:
336,208,135653,1,8,0:0:0:0:
244,344,135815,1,0,0:0:0:0:
244,344,135896,1,0,1:0:0:0:
244,344,135977,2,0,L|252:272,1,60.0000022888184,2|2,0:1|0:1,0:0:0:0:
272,108,136140,2,0,L|280:36,1,60.0000022888184,2|0,1:0|0:0,0:0:0:0:
384,152,136302,1,8,0:0:0:0:
396,172,136383,2,0,L|412:32,1,140.000001335144,2|0,0:1|0:0,0:0:0:0:
244,196,136626,6,0,L|320:220,1,60.0000022888184,0|0,1:0|0:0,0:0:0:0:
424,336,136788,2,0,L|508:360,1,60.0000022888184,0|0,0:0|0:0,0:0:0:0:
320,324,136950,2,0,B|384:248|384:248|372:124,1,191.999994140625,8|0,0:0|0:0,0:0:0:0:
296,104,137194,1,0,1:0:0:0:
288,92,137275,102,0,L|276:168,1,60.0000022888184
170,189,137437,2,0,L|180:120,1,70.000000667572,0|0,1:0|0:0,0:0:0:0:
87,46,137599,2,0,L|75:130,1,80,12|0,0:0|0:0,0:0:0:0:
56,312,137761,1,0,0:0:0:0:
269,221,137923,6,0,B|261:304|261:304|149:360|149:360|77:328,1,287.999991210938,4|0,1:2|0:0,0:0:0:0:
56,312,138248,1,8,0:0:0:0:
152,248,138410,1,0,1:0:0:0:
152,248,138491,1,0,0:0:0:0:
152,248,138572,2,0,L|144:188,14,47.9999985351563,2|0|0|0|0|0|0|0|0|0|0|0|0|0|0,0:1|0:0|0:0|0:0|0:0|0:0|0:0|0:0|0:0|0:0|0:0|0:0|0:0|0:0|0:0,0:0:0:0:
248,112,139221,101,0,1:0:0:0:
320,340,139383,2,0,B|336:292|336:292|328:244,1,95.9999970703126,2|0,0:1|0:0,0:0:0:0:
248,112,139545,5,8,0:0:0:0:
332,344,139707,2,0,B|348:296|348:296|340:248,1,95.9999970703126,2|0,0:1|1:0,0:0:0:0:
248,112,139869,101,0,0:0:0:0:
344,348,140032,2,0,B|360:300|360:300|352:252,1,95.9999970703126,2|0,1:0|0:0,0:0:0:0:
248,112,140194,2,0,B|227:87|171:87|171:87|135:131|135:131|91:107|39:131,1,240,12|0,0:0|0:0,0:0:0:0:
76,288,140518,6,0,B|116:292|144:252|144:252|116:208|68:212,1,160,0|8,1:2|0:0,0:0:0:0:
236,308,141004,1,0,0:0:0:0:
236,308,141086,1,0,1:0:0:0:
236,308,141167,2,0,B|252:269|299:232|299:232|271:131|150:131,1,287.999991210938,2|0,0:1|0:0,0:0:0:0:
376,43,141491,2,0,B|338:61|234:59|234:59|326:76|353:153,1,287.999991210938,8|0,0:0|0:0,0:0:0:0:
384,215,141815,102,0,P|386:240|374:276,8,40,0|0|0|0|0|0|0|0|8,1:0|0:0|0:0|0:0|0:0|0:0|0:0|0:0|0:0,0:0:0:0:
226,226,142302,1,0,0:0:0:0:
226,226,142383,1,0,1:0:0:0:
226,226,142464,2,0,L|305:229,1,80,2|2,0:1|0:1,0:0:0:0:
79,168,142626,2,0,L|-5:164,1,80,2|0,1:0|0:0,0:0:0:0:
142,373,142788,6,0,B|158:277|158:277|146:225|146:225|158:165|158:165|134:77,1,287.999991210938,12|0,0:0|0:0,0:0:0:0:
356,80,143113,2,0,B|335:153|335:153|347:213|347:213|335:265|335:265|351:361,1,287.999991210938,4|0,1:2|0:0,0:0:0:0:
252,182,143437,1,8,0:0:0:0:
248,352,143599,1,0,0:0:0:0:
248,352,143680,1,0,1:0:0:0:
248,352,143761,102,0,P|252:308|252:272,3,60.0000022888184
232,56,144086,2,0,B|256:24|264:4|264:4|252:196,1,240,8|0,0:0|0:0,0:0:0:0:
252,232,144410,5,0,1:0:0:0:
56,186,144572,2,0,P|104:178|148:190,1,80,2|0,0:1|0:0,0:0:0:0:
252,232,144734,101,8,0:0:0:0:
448,278,144896,2,0,P|400:286|356:274,1,80,2|0,0:1|1:0,0:0:0:0:
252,232,145058,5,0,0:0:0:0:
168,128,145221,2,0,L|160:48,1,80,2|0,1:0|0:0,0:0:0:0:
344,128,145383,2,0,L|352:48,1,80,12|0,0:0|0:0,0:0:0:0:
372,224,145545,1,0,0:0:0:0:
372,224,145626,1,0,0:0:0:0:
372,224,145707,22,0,P|400:208|420:160,1,60.0000022888184,4|0,1:2|0:0,0:0:0:0:
474,90,145869,1,0,0:0:0:0:
474,90,145950,1,0,0:0:0:0:
474,90,146032,2,0,P|499:129|507:154,1,60.0000022888184,0|2,1:0|0:0,1:0:0:0:
306,331,146194,2,0,P|318:303|335:279,1,60.0000022888184,0|0,0:0|1:0,1:0:0:0:
476,233,146356,102,0,L|408:229,1,60.0000022888184,2|0,0:0|0:0,0:0:0:0:
276,188,146518,2,0,P|268:144|273:106,2,60.0000022888184,2|0|10,1:2|0:0|0:0,0:0:0:0:
395,340,146842,1,0,0:0:0:0:
214,316,147004,1,2,1:2:0:0:
186,312,147086,1,0,0:0:0:0:
158,308,147167,1,0,0:0:0:0:
130,304,147248,1,0,0:0:0:0:
102,300,147329,2,0,P|42:292|38:292,3,60.0000022888184,10|2|0|0,0:0|0:0|0:0|1:0,0:0:0:0:
176,167,147653,2,0,P|236:159|240:159,3,60.0000022888184,2|2|0|0,0:0|0:0|1:0|0:0,0:0:0:0:
316,48,147977,6,0,B|405:37|405:37|390:175|390:175|366:155|338:147,1,287.999991210938,12|0,0:0|0:0,0:0:0:0:
208,304,148302,102,0,B|251:231|331:239|331:239|399:287|463:247,1,287.999991210938,4|0,1:2|0:0,0:0:0:0:
480,236,148626,1,8,0:0:0:0:
392,176,148788,1,0,0:0:0:0:
392,176,148869,1,0,1:0:0:0:
392,176,148950,2,0,L|408:112,3,60.0000022888184,2|0|0|0,0:0|0:0|1:0|0:0,0:0:0:0:
280,128,149275,2,0,L|284:48,3,60.0000022888184,8|0|0|0,0:0|0:0|0:0|0:0,0:0:0:0:
164,152,149599,6,0,P|164:96|172:64,1,80,0|0,1:0|0:0,0:0:0:0:
280,264,149761,2,0,P|312:240|364:228,1,80,2|2,0:0|0:0,0:0:0:0:
84,244,149923,2,0,P|80:192|84:144,1,80,10|0,0:0|0:0,0:0:0:0:
108,380,150086,2,0,P|63:350|34:316,1,80,0|0,0:0|1:0,0:0:0:0:
220,328,150248,102,0,B|260:308|260:308|328:320,1,80,2|0,0:0|0:0,0:0:0:0:
512,240,150410,2,0,B|472:220|472:220|404:232,1,80,2|0,1:2|0:0,0:0:0:0:
360,384,150572,2,0,B|380:308|380:308|348:236|348:236|364:144,1,240,12|0,0:0|0:0,0:0:0:0:
356,88,150896,6,0,L|340:196,1,80,0|0,1:0|0:0,0:0:0:0:
330,240,151140,1,0,0:0:0:0:
326,256,151221,102,0,L|314:331,3,60.0000022888184,10|0|2|2,0:0|0:0|0:0|1:2,0:0:0:0:
212,300,151545,2,0,L|200:372,3,60.0000022888184,0|0|0|0,0:0|0:0|1:0|0:0,0:0:0:0:
196,192,151869,1,10,0:0:0:0:
200,176,151950,1,2,0:0:0:0:
204,160,152032,1,0,0:0:0:0:
208,144,152113,1,0,0:0:0:0:
216,128,152194,6,0,L|280:128,1,60.0000022888184,2|0,1:2|0:0,0:0:0:0:
429,323,152356,2,0,L|420:264,1,60.0000022888184,2|0,0:0|0:0,0:0:0:0:
296,248,152518,102,0,L|276:304,1,60.0000022888184,10|0,0:0|0:0,0:0:0:0:
464,136,152680,2,0,L|444:80,1,60.0000022888184,2|0,0:0|1:0,0:0:0:0:
344,160,152842,1,2,0:0:0:0:
284,156,152923,1,2,0:0:0:0:
224,152,153004,2,0,L|128:144,1,60.0000022888184,0|0,1:0|0:0,0:0:0:0:
184,324,153167,6,0,B|168:228|168:228|265:234|265:234|248:284,1,240,12|2,0:0|0:0,0:0:0:0:
440,291,153491,2,0,B|456:340|456:340|320:336|320:336|352:240,1,287.999991210938,6|0,1:2|0:0,0:0:0:0:
420,184,153815,102,0,L|432:116,1,60.0000022888184,10|0,0:0|0:0,0:0:0:0:
332,152,153977,2,0,L|344:84,1,60.0000022888184,2|0,0:0|1:0,0:0:0:0:
212,168,154140,2,0,L|224:236,1,60.0000022888184,2|0,0:0|0:0,0:0:0:0:
124,200,154302,2,0,L|136:268,1,60.0000022888184,2|0,1:2|0:0,0:0:0:0:
272,356,154464,1,10,0:0:0:0:
272,108,154626,1,2,0:0:0:0:
272,356,154788,5,2,1:2:0:0:
368,168,154950,2,0,P|376:208|368:276,1,80,0|0,0:0|0:0,0:0:0:0:
272,356,155113,1,10,0:0:0:0:
184,168,155275,2,0,P|176:208|184:276,1,80,0|0,0:0|1:0,0:0:0:0:
272,312,155437,102,0,B|272:248|272:248|260:216|260:216|272:184|272:184|272:88,1,191.999994140625,4|0,0:0|1:0,0:0:0:0:
179,28,155680,2,0,B|115:92|115:92|191:176,1,191.999994140625,4|0,0:0|0:0,0:0:0:0:
356,152,155923,2,0,B|392:108|392:108|348:76,1,95.9999970703126,4|0,0:0|0:0,0:0:0:0:
264,224,156086,1,8,1:0:0:0:
