osu file format v14

[General]
AudioFilename: audio.mp3
AudioLeadIn: 0
PreviewTime: 45815
Countdown: 0
SampleSet: Soft
StackLeniency: 0.4
Mode: 0
LetterboxInBreaks: 0
WidescreenStoryboard: 1

[Editor]
Bookmarks: 119761
DistanceSpacing: 0.5
BeatDivisor: 4
GridSize: 4
TimelineZoom: 2.799999

[Metadata]
Title:Amphisbaena
TitleUnicode:Amphisbaena
Artist:Mitsuyoshi Takenobu no Ani
ArtistUnicode:光吉猛修の兄
Creator:toybot
Version:Insane
Source:BMS
Tags:team grimoire ice 光吉猛修 crossover orchestra BOFU2015 BMS OF FIGHTERS ULTIMATE 2015 チーム光吉猛修 Aeril Dynamix Rumia- Arusamour
BeatmapID:1225664
BeatmapSetID:576022

[Difficulty]
HPDrainRate:5.5
CircleSize:4
OverallDifficulty:7
ApproachRate:9
SliderMultiplier:1.6
SliderTickRate:1

[Events]
//Background and Video events
0,0,"nanomortis.png",0,0
//Break Periods
2,26556,36134
2,99204,108783
2,125150,133432
//Storyboard Layer 0 (Background)
//Storyboard Layer 1 (Fail)
//Storyboard Layer 2 (Pass)
//Storyboard Layer 3 (Foreground)
//Storyboard Sound Samples

[TimingPoints]
3005,324.324324324324,4,2,2,30,1,0
3653,-100,4,2,2,40,0,0
4302,-100,4,2,2,50,0,0
5518,-200,4,2,2,5,0,0
5599,-200,4,2,2,35,0,0
15977,-133.333333333333,4,2,2,45,0,0
36572,-133.333333333333,4,2,2,50,0,0
45167,-100,4,2,2,50,0,0
45491,-80,4,2,1,50,0,0
45815,-200,4,2,1,50,0,0
46788,-86.9565217391304,4,2,1,50,0,0
47113,-100,4,2,1,65,0,0
49383,-80,4,2,1,65,0,0
50032,-100,4,2,1,65,0,0
51977,-80,4,2,1,65,0,0
52302,-100,4,2,1,65,0,0
54572,-80,4,2,1,65,0,0
54896,-100,4,2,1,65,0,0
57167,-80,4,2,1,65,0,0
57491,-100,4,2,1,65,0,0
59761,-80,4,2,1,65,0,0
60086,-100,4,2,1,65,0,0
62356,-80,4,2,1,65,0,0
62680,-100,4,2,1,65,0,0
64950,-80,4,2,1,65,0,0
65275,-100,4,2,1,65,0,0
67221,-80,4,2,1,65,0,0
67869,-90.9090909090909,4,2,1,65,0,0
77923,-90.9090909090909,4,2,1,55,0,0
78248,-90.9090909090909,4,2,1,65,0,1
87977,-90.9090909090909,4,2,1,65,0,0
88626,-90.9090909090909,4,2,1,65,0,1
99004,-90.9090909090909,4,2,1,50,0,0
109383,-133.333333333333,4,2,2,50,0,0
119761,-133.333333333333,4,2,1,35,0,0
134032,-111.111111111111,4,2,1,65,0,0
135329,-100,4,2,1,65,0,0
137599,-80,4,2,1,65,0,0
138248,-100,4,2,1,65,0,0
140194,-80,4,2,1,65,0,0
140518,-100,4,2,1,65,0,0
142788,-80,4,2,1,65,0,0
143113,-100,4,2,1,65,0,0
145383,-80,4,2,1,65,0,0
145707,-100,4,2,1,65,0,0
150572,-80,4,2,1,65,0,0
150896,-100,4,2,1,65,0,0
155437,-80,4,2,1,65,0,0

[Colours]
Combo1 : 255,153,51
Combo2 : 141,141,141
Combo3 : 204,204,204
Combo4 : 183,11,36
Combo5 : 255,87,171
Combo6 : 150,247,252
Combo7 : 149,149,255
Combo8 : 210,210,0

[HitObjects]
256,192,3005,12,4,5599,1:0:0:0:
136,128,5923,6,0,L|120:48,2,80,2|2|0,0:0|0:0|0:0,0:0:0:0:
96,219,6896,2,0,P|134:211|171:224,1,80,0|2,0:0|0:0,0:0:0:0:
228,280,7545,2,0,P|244:315|240:355,1,80,2|0,0:0|0:0,0:0:0:0:
392,320,8194,5,0,0:0:0:0:
472,316,8518,1,2,0:0:0:0:
468,236,8842,1,2,0:0:0:0:
388,240,9167,1,0,0:0:0:0:
240,355,9491,102,0,P|244:315|228:280,1,80,0|2,0:0|0:0,0:0:0:0:
171,224,10140,2,0,P|134:211|96:219,1,80,0|2,0:0|0:0,0:0:0:0:
36,272,10788,1,0,0:0:0:0:
128,132,11113,6,0,L|120:44,2,80,2|2|0,0:0|0:0|0:0,0:0:0:0:
212,176,12086,2,0,P|251:177|286:158,1,80,0|2,0:0|0:0,0:0:0:0:
324,88,12734,2,0,P|318:48|293:17,1,80,2|0,0:0|0:0,0:0:0:0:
408,96,13383,101,0,0:0:0:0:
504,88,13707,1,2,0:0:0:0:
407,117,14032,5,2,0:0:0:0:
502,125,14356,1,0,0:0:0:0:
401,136,14680,101,0,0:0:0:0:
493,161,15004,1,2,0:0:0:0:
376,43,15329,1,0,0:0:0:0:
333,204,15653,1,2,0:0:0:0:
488,52,15977,5,0,1:0:0:0:
260,156,16302,1,0,0:0:0:0:
260,156,16464,1,0,1:0:0:0:
260,156,16626,2,0,P|192:156|128:144,1,120.000004577637,8|0,0:0|0:0,0:0:0:0:
140,147,17113,1,0,1:0:0:0:
216,12,17275,102,0,L|227:70,1,60.0000022888184,0|0,1:0|0:0,0:0:0:0:
344,194,17599,2,0,L|356:136,1,60.0000022888184,0|0,1:0|0:0,0:0:0:0:
440,44,17923,2,0,P|372:44|308:56,1,120.000004577637,8|0,0:0|0:0,0:0:0:0:
196,236,18572,5,0,1:0:0:0:
180,316,18896,1,0,0:0:0:0:
134,182,19059,1,0,1:0:0:0:
273,209,19221,2,0,L|400:192,1,120.000004577637,8|0,0:0|0:0,0:0:0:0:
300,120,19707,101,0,1:0:0:0:
300,120,19788,1,0,1:0:0:0:
299,119,19869,2,0,P|254:116|215:137,2,90.0000034332277,0|0|0,1:0|1:0|1:0,0:0:0:0:
391,193,20518,2,0,L|399:129,1,60.0000022888184,8|0,0:0|0:0,0:0:0:0:
332,276,20842,1,0,1:0:0:0:
472,248,21004,1,0,1:0:0:0:
332,276,21167,6,0,L|204:264,1,120.000004577637,0|0,1:0|0:0,0:0:0:0:
212,264,21653,1,0,0:0:0:0:
96,228,21815,2,0,P|80:192|88:112,1,120.000004577637,8|0,0:0|0:0,0:0:0:0:
140,56,22302,1,0,1:0:0:0:
220,156,22464,102,0,L|156:164,1,60.0000022888184,0|0,1:0|0:0,0:0:0:0:
0,300,22788,2,0,L|64:308,1,60.0000022888184,0|0,1:0|0:0,0:0:0:0:
188,358,23113,2,0,P|199:300|180:244,1,120.000004577637,8|0,0:0|0:0,0:0:0:0:
96,228,23761,5,0,1:0:0:0:
312,280,24086,1,0,0:0:0:0:
264,200,24248,1,0,1:0:0:0:
336,136,24410,2,0,L|348:16,1,120.000004577637,8|0,0:0|0:0,0:0:0:0:
212,84,24896,101,0,1:0:0:0:
212,84,24977,1,0,1:0:0:0:
212,84,25059,2,0,P|176:88|128:52,2,90.0000034332277,0|0|0,1:0|1:0|1:0,0:0:0:0:
336,136,25707,2,0,L|324:72,1,60.0000022888184,8|0,0:0|0:0,0:0:0:0:
264,12,26032,5,0,1:0:0:0:
292,212,26194,1,0,1:0:0:0:
452,88,26356,1,0,1:0:0:0:
80,172,36734,101,4,1:2:0:0:
80,172,37059,2,0,P|88:212|84:240,1,60.0000022888184,0|0,0:0|1:0,0:0:0:0:
168,148,37383,2,0,L|180:24,1,120.000004577637,8|0,0:0|0:0,0:0:0:0:
96,52,37869,1,0,0:0:0:0:
251,107,38032,6,0,P|281:110|309:99,1,60.0000022888184,0|0,1:0|0:0,0:0:0:0:
96,52,38356,2,0,P|66:49|38:60,1,60.0000022888184,0|0,1:0|0:0,0:0:0:0:
251,107,38680,2,0,P|291:107|343:43,1,120.000004577637,8|0,0:0|0:0,0:0:0:0:
268,32,39167,1,0,0:0:0:0:
204,176,39329,101,0,1:0:0:0:
204,176,39653,2,0,P|176:164|136:168,1,60.0000022888184,0|0,0:0|0:0,0:0:0:0:
272,236,39977,2,0,L|400:216,1,120.000004577637,8|0,0:0|0:0,0:0:0:0:
390,217,40464,1,0,0:0:0:0:
316,92,40626,6,0,B|312:126|312:126|320:150,1,60.0000022888184,0|0,1:0|0:0,0:0:0:0:
480,268,40950,2,0,B|483:233|483:233|475:209,1,60.0000022888184,0|0,1:0|0:0,0:0:0:0:
320,150,41275,2,0,P|376:166|426:137,1,120.000004577637,8|0,0:0|0:0,0:0:0:0:
460,64,41761,1,0,0:0:0:0:
268,20,41923,101,0,1:0:0:0:
268,20,42248,2,0,P|233:27|200:32,1,60.0000022888184,0|0,0:0|0:0,0:0:0:0:
72,108,42572,2,0,P|128:118|196:128,1,120.000004577637,8|0,0:0|0:0,0:0:0:0:
300,196,43059,2,0,P|265:203|232:208,1,60.0000022888184,0|0,0:0|1:0,0:0:0:0:
64,232,43383,6,0,P|93:236|122:242,2,60.0000022888184,0|0|0,0:0|1:0|0:0,0:0:0:0:
184,312,43869,2,0,P|212:268|204:196,1,120.000004577637,8|0,0:0|0:0,0:0:0:0:
168,136,44356,1,0,0:0:0:0:
64,232,44518,101,0,1:0:0:0:
64,232,44842,2,0,P|59:200|52:172,1,60.0000022888184,0|0,0:0|1:0,0:0:0:0:
328,176,45167,2,0,P|332:140|340:96,1,80,8|0,0:0|0:0,0:0:0:0:
136,112,45491,2,0,P|128:64|112:4,1,100,0|0,1:0|0:0,0:0:0:0:
160,228,45815,6,0,L|244:220,2,80,2|2|2,0:0|0:0|0:0,0:0:0:0:
160,228,46788,102,0,B|132:220|132:220|172:172|248:224,1,138.000002632141,0|0,0:0|0:0,0:0:0:0:
239,220,47113,22,0,B|244:180|244:180|232:148|232:148|244:116|244:116|236:64,1,160,4|8,1:2|0:0,0:0:0:0:
148,24,47599,1,0,0:0:0:0:
328,152,47761,6,0,L|376:144,2,40,0|0|2,0:0|0:0|1:0,0:0:0:0:
448,88,48086,1,8,0:0:0:0:
448,88,48167,2,0,L|464:184,1,80,2|0,0:1|0:0,0:0:0:0:
312,268,48410,102,0,P|329:258|349:256,1,40,0|0,1:0|0:0,0:0:0:0:
328,240,48572,2,0,P|347:244|362:257,1,40,0|0,0:0|0:0,0:0:0:0:
484,316,48734,6,0,P|473:299|456:288,1,40,8|0,0:0|0:0,0:0:0:0:
482,283,48896,2,0,P|463:277|443:282,1,40,0|0,0:0|1:0,0:0:0:0:
264,332,49059,102,0,L|252:204,1,120,0|0,0:0|0:0,0:0:0:0:
176,160,49383,2,0,P|160:206|170:255,1,100,12|0,0:0|0:0,0:0:0:0:
392,272,49707,2,0,P|407:225|397:176,1,100,4|0,1:2|0:0,0:0:0:0:
392,168,49950,1,0,0:0:0:0:
386,159,50032,6,0,L|342:163,3,40,8|0|0|0,0:0|0:0|0:0|1:0,0:0:0:0:
268,216,50356,2,0,B|153:202|153:202|192:176,1,160,2|8,0:1|0:0,0:0:0:0:
96,88,50842,1,0,0:0:0:0:
96,88,50923,1,0,0:0:0:0:
96,88,51004,102,0,P|94:68|84:52,1,40,0|0,1:0|0:0,0:0:0:0:
75,160,51167,2,0,P|64:176|48:188,1,40
110,75,51329,6,0,P|114:55|112:36,1,40,8|0,0:0|0:0,0:0:0:0:
79,178,51491,2,0,P|74:197|63:214,1,40,0|0,0:0|1:0,0:0:0:0:
20,104,51653,101,0,0:0:0:0:
144,228,51815,1,0,1:0:0:0:
248,88,51977,2,0,P|314:58|373:98,1,150,12|0,0:0|0:0,0:0:0:0:
373,98,52302,6,0,L|360:16,1,80,2|0,1:0|0:0,0:0:0:0:
484,156,52626,2,0,L|497:73,1,80,8|0,0:0|0:0,0:0:0:0:
497,77,52869,1,0,1:0:0:0:
497,77,52950,101,2,0:1:0:0:
336,184,53113,1,0,0:0:0:0:
492,256,53275,5,8,0:0:0:0:
332,164,53437,1,0,1:0:0:0:
480,212,53599,102,0,B|448:221|416:204|416:204|392:256|342:258,1,160,2|8,1:1|0:0,0:0:0:0:
332,164,54086,1,0,0:0:0:0:
452,300,54248,2,0,L|456:340,2,40,2|2|2,0:1|0:1|1:0,0:0:0:0:
332,164,54572,2,0,L|340:60,1,100,12|0,0:0|0:0,0:0:0:0:
412,20,54896,6,0,P|460:56|440:160,1,160,4|8,1:2|0:0,0:0:0:0:
287,178,55383,1,0,0:0:0:0:
282,172,55464,1,0,1:0:0:0:
277,166,55545,102,0,L|251:129,1,40,0|0,0:0|0:0,0:0:0:0:
364,191,55707,2,0,L|344:231,1,40,0|0,0:0|0:0,0:0:0:0:
342,103,55869,2,0,L|397:95,2,53.3333333333333,8|0|0,0:0|0:0|0:0,0:0:0:0:
184,176,56194,5,0,1:0:0:0:
175,26,56356,2,0,L|181:102,1,40,2|0,0:1|0:0,0:0:0:0:
186,187,56518,101,8,0:0:0:0:
96,63,56680,2,0,L|79:14,1,40,2|0,0:1|0:0,0:0:0:0:
188,199,56842,5,0,0:0:0:0:
257,46,57004,2,0,L|266:-1,1,40,2|0,1:0|0:0,0:0:0:0:
104,176,57167,2,0,B|40:196|0:168|0:168|20:168|42:155,1,150,8|0,0:0|0:0,0:0:0:0:
177,122,57491,6,0,B|193:162|193:162|185:214,1,80,6|0,1:2|0:0,0:0:0:0:
186,210,57734,1,0,0:0:0:0:
184,221,57815,2,0,L|194:278,3,40,10|0|0|0,0:0|0:0|0:0|1:0,0:0:0:0:
140,328,58140,5,2,0:0:0:0:
140,328,58221,1,0,0:0:0:0:
140,328,58302,2,0,L|92:352,1,40,2|0,1:2|0:0,0:0:0:0:
272,304,58464,101,10,0:0:0:0:
272,304,58545,1,0,0:0:0:0:
272,304,58626,2,0,L|324:316,1,40,2|0,0:0|0:0,0:0:0:0:
388,272,58788,5,2,1:2:0:0:
328,156,58950,1,0,0:0:0:0:
325,148,59032,1,0,0:0:0:0:
322,140,59113,2,0,L|328:84,3,40,10|2|2|0,0:0|0:0|0:0|1:0,0:0:0:0:
232,124,59437,2,0,L|229:67,3,40,2|2|0|0,0:0|0:0|1:0|0:0,0:0:0:0:
132,160,59761,2,0,P|84:180|36:168,1,100,12|0,0:0|0:0,0:0:0:0:
16,60,60086,102,0,P|87:31|150:74,1,160,4|10,1:2|0:0,0:0:0:0:
232,124,60572,1,0,0:0:0:0:
232,124,60653,1,0,1:0:0:0:
232,124,60734,2,0,L|328:112,1,80,2|0,0:0|1:0,0:0:0:0:
380,60,61059,1,8,0:0:0:0:
336,192,61221,1,0,0:0:0:0:
456,136,61383,6,0,L|464:88,3,40,0|0|0|2,1:0|0:0|0:0|0:0,0:0:0:0:
444,144,61707,2,0,B|462:182|462:182|448:240,1,80,10|2,0:0|0:0,0:0:0:0:
372,304,62032,1,2,0:0:0:0:
336,192,62194,1,2,1:2:0:0:
480,304,62356,2,0,L|380:313,1,100,12|0,0:0|0:0,0:0:0:0:
176,232,62680,102,0,P|232:220|284:316,1,160,0|10,1:0|0:0,0:0:0:0:
96,288,63167,1,2,0:0:0:0:
92,280,63248,1,2,1:2:0:0:
88,272,63329,2,0,L|84:220,3,40,2|0|2|0,0:0|0:0|1:2|0:0,0:0:0:0:
24,176,63653,2,0,L|28:124,3,40,10|0|0|0,0:0|0:0|0:0|0:0,0:0:0:0:
88,72,63977,6,0,L|148:64,1,40,2|0,1:2|0:0,0:0:0:0:
124,160,64140,2,0,L|184:152,1,40,2|0,0:0|0:0,0:0:0:0:
148,64,64302,102,0,L|208:56,1,40,10|0,0:0|0:0,0:0:0:0:
184,152,64465,2,0,L|244:144,1,40,2|0,0:0|1:0,0:0:0:0:
284,68,64626,6,0,L|288:24,2,40,2|2|0,0:0|0:0|1:0,0:0:0:0:
368,124,64950,2,0,L|380:0,1,100,12|0,0:0|0:0,0:0:0:0:
424,195,65275,102,0,P|390:213|350:214,1,80,6|2,1:2|0:0,0:0:0:0:
151,118,65599,2,0,P|190:123|222:145,1,80,10|2,0:0|0:0,0:0:0:0:
327,341,65923,2,0,P|298:313|285:276,1,80,2|2,0:0|1:2,0:0:0:0:
316,57,66248,2,0,P|323:96|311:133,1,80,10|2,0:0|0:0,0:0:0:0:
205,233,66572,6,0,L|104:244,1,80,2|0,1:2|0:0,0:0:0:0:
120,248,66815,1,0,0:0:0:0:
114,254,66896,2,0,L|106:198,1,40,10|0,0:0|0:0,0:0:0:0:
222,145,67059,2,0,L|230:89,1,40,0|0,0:0|0:0,0:0:0:0:
140,48,67221,102,0,B|100:36|100:36|4:60,1,100,4|0,0:0|1:0,0:0:0:0:
0,120,67464,2,0,B|40:132|40:132|136:108,1,100,4|0,0:0|0:0,0:0:0:0:
140,48,67707,1,4,0:0:0:0:
240,168,67869,22,0,B|148:152|172:232|64:208,1,176.000005371094,4|8,1:3|0:0,0:0:0:0:
20,320,68356,1,0,0:0:0:0:
20,320,68437,1,0,1:0:0:0:
20,320,68518,2,0,L|8:252,1,44.0000013427735,0|0,0:0|0:0,0:0:0:0:
104,336,68680,2,0,L|96:379,1,44.0000013427735,0|0,1:0|0:0,0:0:0:0:
184,296,68842,2,0,L|176:252,3,44.0000013427735,8|0|0|0,0:0|0:0|0:0|0:0,0:0:0:0:
260,332,69167,5,0,1:0:0:0:
380,196,69329,1,0,0:0:0:0:
372,200,69410,1,0,0:0:0:0:
364,204,69491,2,0,L|284:196,3,44.0000013427735,8|0|0|0,0:0|0:0|0:0|1:0,0:0:0:0:
260,152,69815,2,0,L|248:84,3,44.0000013427735,0|0|0|0,0:0|0:0|1:0|0:0,0:0:0:0:
196,60,70140,2,0,L|116:52,1,44.0000013427735,8|0,0:0|0:0,0:0:0:0:
168,136,70302,2,0,L|88:128,1,44.0000013427735,4|0,0:3|0:0,0:0:0:0:
140,212,70464,101,4,0:3:0:0:
212,288,70626,1,0,0:0:0:0:
242,300,70707,1,0,0:0:0:0:
275,298,70788,1,8,0:0:0:0:
304,283,70869,1,0,0:0:0:0:
324,257,70950,2,0,L|328:200,3,44.0000013427735,0|0|0|0,0:0|1:0|0:0|0:0,0:0:0:0:
404,152,71275,1,0,1:0:0:0:
402,143,71356,1,0,0:0:0:0:
400,134,71437,2,0,L|396:80,3,44.0000013427735,8|0|0|0,0:0|0:0|0:0|0:0,0:0:0:0:
320,44,71761,6,0,P|277:36|238:56,1,88.000002685547,0|0,1:0|0:0,0:0:0:0:
234,64,72004,1,0,0:0:0:0:
229,71,72086,2,0,L|159:62,3,44.0000013427735,8|0|0|0,0:0|0:0|0:0|1:0,0:0:0:0:
96,40,72410,1,0,0:0:0:0:
124,184,72572,1,0,1:0:0:0:
124,184,72653,1,0,0:0:0:0:
124,184,72734,1,8,0:0:0:0:
64,120,72896,1,4,0:3:0:0:
208,156,73059,102,0,L|280:148,3,44.0000013427735,4|0|0|0,0:3|0:0|0:0|0:0,0:0:0:0:
332,123,73383,2,0,P|327:145|327:167,1,44.0000013427735,8|0,0:0|0:0,0:0:0:0:
124,152,73545,2,0,P|132:172|135:194,1,44.0000013427735,0|0,0:0|0:0,0:0:0:0:
248,248,73707,5,0,1:0:0:0:
215,244,73788,1,0,0:0:0:0:
184,256,73869,1,0,1:0:0:0:
162,280,73950,1,0,0:0:0:0:
153,311,74032,2,0,L|144:368,3,44.0000013427735,8|0|0|0,0:0|0:0|0:0|0:0,0:0:0:0:
228,352,74356,102,0,L|340:344,1,88.000002685547,0|0,1:0|0:0,0:0:0:0:
324,340,74599,1,0,0:0:0:0:
332,334,74680,2,0,B|344:294|344:294|320:222,1,88.000002685547,8|0,0:0|0:0,0:0:0:0:
368,96,75004,2,0,B|356:136|356:136|380:208,1,88.000002685547,0|0,1:0|1:0,0:0:0:0:
284,176,75329,1,8,0:0:0:0:
412,256,75491,1,0,0:0:0:0:
452,112,75653,6,0,L|440:20,1,88.000002685547,4|0,1:3|0:0,0:0:0:0:
432,20,75896,1,0,0:0:0:0:
423,15,75977,2,0,B|378:6|378:6|326:26,1,88.000002685547,8|0,0:0|0:0,0:0:0:0:
188,100,76302,1,0,1:0:0:0:
240,0,76464,2,0,L|248:36,4,22.0000006713867,0|0|0|0|8,0:0|0:0|0:0|0:0|0:0,0:0:0:0:
302,145,76788,1,0,0:0:0:0:
302,145,76869,1,0,0:0:0:0:
302,145,76950,101,0,1:0:0:0:
193,264,77113,1,0,0:0:0:0:
140,108,77275,1,8,0:0:0:0:
210,179,77437,1,0,0:0:0:0:
48,160,77599,6,0,L|52:116,3,44.0000013427735,0|0|0|0,1:0|1:0|1:0|1:0,0:0:0:0:
124,68,77923,1,0,1:0:0:0:
135,86,78004,1,0,1:0:0:0:
140,108,78085,1,0,1:0:0:0:
139,130,78166,1,0,1:0:0:0:
132,150,78248,102,0,B|252:126|252:126|228:176,1,176.000005371094,4|8,0:0|0:0,0:0:0:0:
172,288,78734,1,0,0:0:0:0:
168,280,78815,1,0,0:0:0:0:
164,272,78896,2,0,L|168:224,3,44.0000013427735,0|0|0|0,1:0|0:0|0:0|0:0,0:0:0:0:
248,256,79221,2,0,L|336:248,1,88.000002685547,8|0,0:0|0:0,0:0:0:0:
478,160,79545,6,0,P|425:123|362:134,2,132.00000402832,0|0|0,1:0|0:0|0:0,0:0:0:0:
425,288,80194,2,0,L|409:200,1,88.000002685547,0|0,1:0|0:0,0:0:0:0:
422,37,80518,1,8,0:0:0:0:
280,126,80680,1,0,1:0:0:0:
332,56,80842,102,0,B|368:108|368:108|340:232,1,176.000005371094,4|8,1:2|0:0,0:0:0:0:
184,204,81329,1,0,0:0:0:0:
180,196,81410,1,0,1:0:0:0:
176,188,81491,2,0,L|188:92,1,88.000002685547,0|0,1:0|1:0,0:0:0:0:
256,248,81815,1,8,0:0:0:0:
128,268,81977,1,0,0:0:0:0:
264,164,82140,6,0,P|320:164|364:264,1,176.000005371094,4|8,1:2|0:0,0:0:0:0:
128,268,82626,1,0,0:0:0:0:
124,260,82707,1,0,0:0:0:0:
120,252,82788,2,0,L|136:104,1,132.00000402832,4|0,1:2|0:0,0:0:0:0:
134,120,83113,2,0,L|76:128,1,44.0000013427735,8|0,0:0|0:0,0:0:0:0:
32,28,83275,2,0,L|90:35,1,44.0000013427735,0|0,1:0|0:0,0:0:0:0:
216,76,83437,102,0,B|264:64|264:64|312:112|392:84,1,176.000005371094,4|8,1:2|0:0,0:0:0:0:
512,200,83923,2,0,B|464:212|464:212|416:164|336:192,1,176.000005371094,0|0,0:0|0:0,0:0:0:0:
256,272,84410,2,0,L|240:156,1,88.000002685547,8|0,0:0|0:0,0:0:0:0:
329,316,84734,6,0,P|289:352|177:308,1,176.000005371094,0|8,1:0|0:0,0:0:0:0:
243,184,85221,1,0,0:0:0:0:
252,188,85302,1,0,0:0:0:0:
260,192,85383,2,0,L|368:184,1,88.000002685547,0|0,1:0|0:0,0:0:0:0:
164,224,85707,2,0,B|152:184|152:184|168:108,1,88.000002685547,8|0,0:0|1:0,0:0:0:0:
216,56,86032,101,4,1:2:0:0:
72,144,86194,1,0,0:0:0:0:
243,184,86356,1,8,0:0:0:0:
76,120,86518,6,0,L|44:116,4,22.0000006713867,0|0|0|0|4,3:0|3:0|3:0|3:0|1:2,0:0:0:0:
168,132,86842,1,0,3:0:0:0:
176,133,86923,1,0,3:0:0:0:
184,134,87004,1,8,3:2:0:0:
64,204,87167,102,0,L|32:200,4,22.0000006713867,0|0|0|0|4,0:0|0:0|3:0|3:0|1:2,0:0:0:0:
156,216,87491,1,0,3:0:0:0:
164,217,87572,1,0,3:0:0:0:
172,218,87653,1,8,0:0:0:0:
52,288,87816,6,0,L|20:284,4,22.0000006713867,0|0|0|0|4,1:0|0:0|0:0|0:0|1:2,0:0:0:0:
144,300,88140,1,0,1:0:0:0:
152,301,88221,1,0,0:0:0:0:
160,302,88302,1,12,0:0:0:0:
168,303,88383,1,0,0:0:0:0:
176,304,88464,1,0,3:0:0:0:
184,305,88545,1,0,3:0:0:0:
192,306,88626,102,0,P|228:242|160:160,1,176.000005371094,4|8,1:2|0:0,0:0:0:0:
64,212,89113,1,0,0:0:0:0:
64,212,89194,1,0,0:0:0:0:
64,212,89275,2,0,L|128:204,1,44.0000013427735,0|0,1:0|0:0,0:0:0:0:
212,88,89437,2,0,L|148:80,1,44.0000013427735,0|0,0:0|0:0,0:0:0:0:
92,40,89599,2,0,P|80:80|96:132,1,88.000002685547,8|0,0:0|0:0,0:0:0:0:
288,140,89923,6,0,B|340:136|340:136|368:144|368:144|424:140,2,132.00000402832,0|0|0,1:0|0:0|0:0,0:0:0:0:
208,192,90572,2,0,P|183:252|210:313,1,132.00000402832,0|0,1:0|0:0,0:0:0:0:
207,311,90896,1,8,0:0:0:0:
392,256,91059,1,0,1:0:0:0:
304,344,91221,102,0,L|292:248,1,88.000002685547,4|0,1:2|0:0,0:0:0:0:
272,116,91545,1,8,0:0:0:0:
352,164,91707,2,0,P|394:171|452:104,1,132.00000402832,0|0,0:0|0:0,0:0:0:0:
451,111,92032,2,0,L|447:75,4,22.0000006713867,0|0|0|0|8,3:0|3:0|3:0|3:0|0:0,0:0:0:0:
352,44,92356,1,0,3:0:0:0:
272,116,92518,6,0,L|180:108,2,88.000002685547,4|0|8,1:2|0:0|0:0,0:0:0:0:
404,216,93004,1,0,0:0:0:0:
404,216,93086,1,0,0:0:0:0:
404,216,93167,2,0,L|496:208,2,88.000002685547,4|0|8,1:2|3:0|0:0,0:0:0:0:
364,228,93572,1,0,0:0:0:0:
336,256,93653,1,0,3:0:0:0:
328,296,93734,1,0,3:0:0:0:
336,336,93815,102,0,B|272:328|272:328|228:352|228:352|144:344,1,176.000005371094,4|8,1:2|0:0,0:0:0:0:
69,222,94302,1,0,0:0:0:0:
132,160,94464,1,0,1:0:0:0:
91,308,94626,1,0,1:0:0:0:
212,192,94788,2,0,P|216:144|196:100,1,88.000002685547,8|0,0:0|0:0,0:0:0:0:
194,101,95032,1,0,0:0:0:0:
186,94,95113,6,0,L|80:106,1,88.000002685547,4|0,1:2|0:0,0:0:0:0:
98,103,95356,2,0,L|100:76,2,22.0000006713867,0|0|8,0:0|0:0|0:0,0:0:0:0:
32,192,95599,1,0,1:0:0:0:
116,248,95761,101,0,1:0:0:0:
8,96,95923,1,0,0:0:0:0:
4,296,96086,5,8,0:0:0:0:
20,104,96248,1,0,1:0:0:0:
116,248,96410,102,0,P|199:248|233:172,1,176.000005371094,4|8,1:2|0:0,0:0:0:0:
212,64,96896,1,4,0:0:0:0:
157,183,97059,1,0,1:0:0:0:
304,240,97221,2,0,L|340:236,4,22.0000006713867,0|0|0|0|12,3:0|3:0|3:0|3:0|0:0,0:0:0:0:
128,100,97545,6,0,L|97:96,4,22.0000006713867,0|0|0|0|4,3:0|3:0|3:0|0:0|1:2,0:0:0:0:
203,106,97869,1,0,1:0:0:0:
279,113,98032,1,8,0:0:0:0:
354,120,98193,1,0,1:0:0:0:
430,127,98356,101,0,1:0:0:0:
428,112,98437,1,0,1:0:0:0:
426,97,98518,1,0,1:0:0:0:
424,82,98599,1,0,1:0:0:0:
422,67,98680,6,0,L|472:72,1,44.0000013427735,8|0,0:0|1:0,0:0:0:0:
448,200,98842,2,0,L|404:195,1,44.0000013427735,0|0,1:0|1:0,0:0:0:0:
280,112,99004,101,8,1:0:0:0:
407,159,109383,22,0,P|357:129|301:143,1,120.000004577637,0|0,1:0|0:0,0:0:0:0:
240,208,109869,1,0,0:0:0:0:
240,208,109950,1,0,0:0:0:0:
240,208,110032,2,0,P|232:248|232:272,1,60.0000022888184,8|0,0:0|0:0,0:0:0:0:
152,320,110356,2,0,P|150:290|143:260,1,60.0000022888184,0|0,0:0|1:0,0:0:0:0:
80,208,110680,5,0,1:0:0:0:
312,256,111004,1,0,1:0:0:0:
80,208,111329,2,0,L|68:148,2,40.000001525879,8|2|2,0:0|0:1|0:1,0:0:0:0:
116,284,111653,2,0,L|56:296,2,40.000001525879,2|2|2,0:1|0:1|0:1,0:0:0:0:
176,224,111977,102,0,B|215:224|215:224|251:241|251:241|319:242,1,120.000004577637,0|0,1:0|0:0,0:0:0:0:
440,204,112464,1,0,1:0:0:0:
360,148,112626,2,0,L|372:280,1,120.000004577637,8|0,0:0|0:0,0:0:0:0:
440,120,113113,1,0,0:0:0:0:
440,120,113194,1,0,1:0:0:0:
440,120,113275,6,0,P|444:88|412:40,2,90.0000034332277,0|0|0,1:0|1:0|1:0,0:0:0:0:
360,148,113923,2,0,L|300:136,1,60.0000022888184,8|0,0:0|0:0,0:0:0:0:
196,120,114248,1,0,1:0:0:0:
196,120,114410,1,0,1:0:0:0:
196,120,114572,101,0,1:0:0:0:
276,56,114896,2,0,P|300:104|276:184,2,120.000004577637,0|8|0,0:0|0:0|0:0,0:0:0:0:
103,72,115707,1,0,1:0:0:0:
103,72,115869,6,0,P|91:130|116:184,1,120.000004577637,0|0,1:0|1:0,0:0:0:0:
283,248,116518,2,0,L|224:252,1,60.0000022888184,8|0,0:0|0:0,0:0:0:0:
180,336,116842,2,0,L|248:332,1,60.0000022888184,0|0,0:0|0:0,0:0:0:0:
352,300,117167,102,0,B|372:264|372:264|356:176,1,120.000004577637,0|0,1:0|0:0,0:0:0:0:
228,88,117653,1,0,1:0:0:0:
184,160,117815,2,0,P|232:172|300:132,1,120.000004577637,8|0,0:0|0:0,0:0:0:0:
356,16,118302,1,0,0:0:0:0:
356,16,118383,1,0,0:0:0:0:
356,16,118464,6,0,L|368:124,2,90.0000034332277,0|0|0,1:0|1:0|1:0,0:0:0:0:
280,64,119113,2,0,L|200:56,1,60.0000022888184,8|0,0:0|0:0,0:0:0:0:
440,48,119437,2,0,L|520:56,1,60.0000022888184,0|0,1:0|1:0,0:0:0:0:
365,105,119761,21,2,0:0:0:0:
256,192,119842,12,4,124950,0:3:0:0:
100,96,134032,102,0,L|108:176,1,71.9999978027344,8|0,0:0|1:0,0:0:0:0:
108,178,134275,1,0,1:0:0:0:
109,188,134356,1,0,1:0:0:0:
300,240,134518,6,0,L|308:160,1,71.9999978027344,8|0,0:0|1:0,0:0:0:0:
308,158,134761,1,0,1:0:0:0:
309,148,134842,1,0,1:0:0:0:
312,138,134923,1,0,0:0:0:0:
313,128,135004,102,0,L|261:136,1,35.9999989013672,0|0,1:0|1:0,0:0:0:0:
176,252,135167,2,0,L|228:260,1,35.9999989013672,0|0,1:0|1:0,0:0:0:0:
414,216,135329,6,0,B|370:225|370:225|356:236|356:236|338:232|338:232|279:243,1,120,4|0,1:2|0:0,0:0:0:0:
299,239,135653,2,0,L|316:104,1,120,8|0,0:0|1:0,0:0:0:0:
268,40,135977,102,0,L|208:32,2,40,2|2|2,0:1|0:1|1:0,0:0:0:0:
400,124,136302,1,8,0:0:0:0:
400,124,136383,2,0,L|464:116,2,40,2|0|0,0:1|0:0|0:0,0:0:0:0:
317,102,136626,6,0,P|304:121|300:140,1,40,0|0,1:0|0:0,0:0:0:0:
292,112,136788,2,0,P|290:134|296:152,1,40,0|0,0:0|0:0,0:0:0:0:
392,244,136950,102,0,P|369:240|352:228,1,40,8|0,0:0|0:0,0:0:0:0:
367,255,137112,2,0,P|349:241|340:224,1,40,0|0,0:0|1:0,0:0:0:0:
220,168,137275,6,0,L|136:160,1,80,0|0,0:0|1:0,0:0:0:0:
72,288,137599,2,0,P|119:300|165:283,1,100,12|0,0:0|0:0,0:0:0:0:
156,64,137923,2,0,P|108:51|62:68,1,100,4|0,1:2|0:0,0:0:0:0:
56,76,138167,1,0,0:0:0:0:
49,83,138248,102,0,L|45:43,3,40,8|0|0|0,0:0|0:0|1:0|0:0,0:0:0:0:
24,172,138572,2,0,B|92:180|144:148|144:148|120:188,1,160,2|8,0:1|0:0,0:0:0:0:
212,232,139059,1,0,0:0:0:0:
212,232,139140,1,0,0:0:0:0:
212,232,139221,5,0,1:0:0:0:
184,68,139383,1,2,0:1:0:0:
292,200,139545,101,8,0:0:0:0:
272,76,139707,1,2,0:1:0:0:
380,204,139869,5,0,0:0:0:0:
352,40,140031,1,2,1:0:0:0:
504,128,140194,2,0,P|452:136|396:100,1,100,12|0,0:0|0:0,0:0:0:0:
280,20,140518,102,0,B|328:0|392:20|392:20|364:24|344:48,1,160,0|8,1:2|0:0,0:0:0:0:
292,136,141004,1,0,0:0:0:0:
292,136,141086,1,0,1:0:0:0:
291,136,141167,2,0,P|278:173|287:211,1,80,2|0,0:1|0:0,0:0:0:0:
432,216,141491,2,2,P|445:178|436:140,1,80,8|0,0:0|0:0,0:1:0:0:
360,244,141815,6,0,P|308:288|208:240,1,160,0|8,1:0|0:0,0:0:0:0:
176,188,142302,1,0,0:0:0:0:
132,293,142464,2,0,L|124:349,2,40,2|2|2,0:1|0:1|1:0,0:0:0:0:
176,188,142788,2,0,L|164:84,1,100,12|0,0:0|0:0,0:0:0:0:
68,32,143113,102,0,P|24:68|48:172,1,160,4|8,1:2|0:0,0:0:0:0:
124,212,143599,1,0,0:0:0:0:
124,212,143680,1,0,1:0:0:0:
124,212,143761,2,0,L|224:200,1,80,0|0,0:0|0:0,0:0:0:0:
305,132,144086,2,0,L|308:74,2,53.3333333333333,8|0|0,0:0|0:0|0:0,0:0:0:0:
377,192,144410,5,0,1:0:0:0:
244,36,144572,2,0,L|233:74,1,40,2|0,0:1|0:0,0:0:0:0:
222,184,144734,101,8,0:0:0:0:
380,43,144896,2,0,L|387:105,1,40,2|0,0:1|0:0,0:0:0:0:
302,251,145059,5,0,0:0:0:0:
305,132,145221,2,0,L|303:171,1,40,2|0,1:0|0:0,0:0:0:0:
410,240,145383,2,0,P|368:266|319:262,1,100,12|0,0:0|0:0,0:0:0:0:
311,257,145626,1,0,0:0:0:0:
302,251,145707,22,0,L|304:195,3,40,4|0|0|0,1:2|0:0|0:0|0:0,0:0:0:0:
248,154,146032,1,10,0:0:0:0:
220,143,146113,1,2,0:0:0:0:
190,143,146194,1,0,0:0:0:0:
162,155,146275,1,0,1:0:0:0:
141,175,146356,2,0,L|153:263,1,80,2|2,0:0|1:2,0:0:0:0:
24,108,146680,2,0,L|14:188,1,80,10|2,0:0|0:0,0:0:0:0:
136,44,147004,101,2,1:2:0:0:
228,92,147167,1,0,0:0:0:0:
236,96,147248,1,0,0:0:0:0:
244,100,147329,2,0,L|312:96,3,40,10|2|0|0,0:0|0:0|0:0|1:0,0:0:0:0:
352,56,147653,6,0,L|348:0,1,40,2|2,0:0|0:0,0:0:0:0:
432,60,147815,2,0,L|428:4,1,40,0|0,1:0|0:0,0:0:0:0:
512,64,147977,1,12,0:0:0:0:
420,176,148140,1,0,0:0:0:0:
504,304,148302,102,0,L|412:296,1,80,4|0,1:2|0:0,0:0:0:0:
416,295,148545,1,0,0:0:0:0:
408,293,148626,2,0,L|416:348,3,40,8|0|0|0,0:0|0:0|0:0|1:0,0:0:0:0:
328,244,148950,2,0,L|333:204,3,40,2|0|0|0,0:0|0:0|1:0|0:0,0:0:0:0:
244,292,149275,2,0,L|176:300,1,40,8|0,0:0|0:0,0:0:0:0:
112,224,149437,2,0,L|151:228,1,40,0|0,0:0|0:0,0:0:0:0:
224,172,149599,5,0,1:0:0:0:
237,145,149680,1,0,0:0:0:0:
239,115,149761,1,2,0:0:0:0:
229,87,149842,1,2,0:0:0:0:
210,64,149923,2,0,L|126:52,1,80,10|0,0:0|0:0,0:0:0:0:
152,136,150248,101,2,0:0:0:0:
272,8,150410,1,2,1:2:0:0:
68,0,150572,2,0,P|48:45|59:92,1,100,12|0,0:0|0:0,0:0:0:0:
188,152,150896,6,0,B|100:144|132:200|36:188,1,160,0|10,1:0|0:0,0:0:0:0:
172,240,151383,1,2,0:0:0:0:
180,240,151464,1,2,1:2:0:0:
188,240,151545,2,0,L|248:236,3,40,0|0|0|0,0:0|0:0|1:0|0:0,0:0:0:0:
308,208,151869,2,0,L|304:268,3,40,10|2|0|0,0:0|0:0|0:0|0:0,0:0:0:0:
380,288,152194,102,0,L|388:184,1,80,2|2,1:2|0:0,0:0:0:0:
220,72,152518,2,0,L|226:151,1,80,10|2,0:0|0:0,0:0:0:0:
375,107,152842,1,2,0:0:0:0:
375,107,152923,1,2,0:0:0:0:
375,107,153004,2,0,L|311:103,1,40,0|0,1:0|0:0,0:0:0:0:
226,151,153167,5,12,0:0:0:0:
193,173,153248,1,0,0:0:0:0:
153,175,153329,1,2,0:0:0:0:
119,156,153410,1,2,0:0:0:0:
99,120,153491,102,0,P|91:82|101:43,1,80,6|2,1:2|0:0,0:0:0:0:
128,248,153815,2,0,P|88:243|55:222,1,80,10|2,0:0|0:0,0:0:0:0:
257,260,154140,2,0,P|240:296|210:321,1,80,2|2,0:0|1:2,0:0:0:0:
308,141,154464,2,0,P|337:167|352:204,1,80,10|2,0:0|0:0,0:0:0:0:
210,55,154788,6,0,P|244:35|283:32,1,80,2|0,1:2|0:0,0:0:0:0:
292,36,155032,1,0,0:0:0:0:
300,39,155113,2,0,L|360:36,3,40,10|0|0|0,0:0|0:0|0:0|1:0,0:0:0:0:
416,64,155437,102,0,B|432:104|432:104|420:184,1,100,4|0,0:0|1:0,0:0:0:0:
360,212,155680,2,0,B|344:172|344:172|356:92,1,100,4|0,0:0|0:0,0:0:0:0:
416,64,155923,1,4,0:0:0:0:
439,243,156086,5,8,1:0:0:0:
