osu file format v14

[General]
AudioFilename: audio.mp3
AudioLeadIn: 0
PreviewTime: 45815
Countdown: 0
SampleSet: Soft
StackLeniency: 0.3
Mode: 0
LetterboxInBreaks: 0
WidescreenStoryboard: 1

[Editor]
Bookmarks: 15977,26356,36734,57491,67869,99004,109383,119761,134032,145707,155275,156086
DistanceSpacing: 0.74
BeatDivisor: 8
GridSize: 4
TimelineZoom: 2.799999

[Metadata]
Title:Amphisbaena
TitleUnicode:Amphisbaena
Artist:Mitsuyoshi Takenobu no Ani
ArtistUnicode:光吉猛修の兄
Creator:toybot
Version:Dynamix's Extra
Source:BMS
Tags:team grimoire ice 光吉猛修 crossover orchestra BOFU2015 BMS OF FIGHTERS ULTIMATE 2015 チーム光吉猛修 Aeril Dynamix Rumia- Arusamour
BeatmapID:1223252
BeatmapSetID:576022

[Difficulty]
HPDrainRate:6
CircleSize:3.8
OverallDifficulty:8.5
ApproachRate:9.4
SliderMultiplier:1.6
SliderTickRate:1

[Events]
//Background and Video events
0,0,"nanomortis.png",0,0
//Break Periods
2,26556,36194
2,99204,108843
2,119961,124410
2,125150,133167
//Storyboard Layer 0 (Background)
//Storyboard Layer 1 (Fail)
//Storyboard Layer 2 (Pass)
//Storyboard Layer 3 (Foreground)
//Storyboard Sound Samples

[TimingPoints]
3005,324.324324324324,4,2,2,30,1,0
3653,-100,4,2,2,40,0,0
4302,-100,4,2,2,50,0,0
5518,-100,4,2,2,5,0,0
5599,-200,4,2,2,35,0,0
15004,-133.333333333333,4,2,2,35,0,0
15977,-133.333333333333,4,2,2,45,0,0
19869,-66.6666666666667,4,2,2,45,0,0
20356,-100,4,2,2,45,0,0
20518,-133.333333333333,4,2,2,45,0,0
25059,-66.6666666666667,4,2,2,45,0,0
25545,-100,4,2,2,45,0,0
25707,-66.6666666666667,4,2,2,45,0,0
36572,-66.6666666666667,4,2,2,50,0,0
36734,-133.333333333333,4,2,2,50,0,0
45491,-133.333333333333,4,2,1,50,0,0
47113,-66.6666666666667,4,2,1,65,0,0
48410,-100,4,2,1,65,0,0
48532,-100,4,2,1,5,0,0
48572,-80,4,2,1,65,0,0
48694,-80,4,2,1,5,0,0
48734,-66.6666666666667,4,2,1,65,0,0
48856,-66.6666666666667,4,2,1,5,0,0
48896,-57.1428571428571,4,2,1,65,0,0
49221,-66.6666666666667,4,2,1,65,0,0
49383,-50,4,2,1,65,0,0
50194,-66.6666666666667,4,2,1,65,0,0
51004,-50,4,2,1,65,0,0
51613,-50,4,2,1,5,0,0
51653,-50,4,2,1,65,0,0
52302,-100,4,2,1,65,0,0
52788,-66.6666666666667,4,2,1,65,0,0
53599,-50,4,2,1,65,0,0
54410,-66.6666666666667,4,2,1,65,0,0
54532,-66.6666666666667,4,2,1,5,0,0
54572,-50,4,2,1,65,0,0
55545,-66.6666666666667,4,2,1,65,0,0
55761,-50,4,2,1,65,0,0
61950,-50,4,2,1,5,0,0
62032,-50,4,2,1,65,0,0
64383,-50,4,2,1,5,0,0
64464,-50,4,2,1,65,0,0
67707,-100,4,2,1,65,0,0
67869,-100,4,2,1,65,0,0
76950,-66.6666666666667,4,2,1,65,0,0
99004,-66.6666666666667,4,2,1,50,0,0
109383,-200,4,2,2,50,0,0
119761,-200,4,2,1,35,0,0
133707,-100,4,2,1,35,0,0
134032,-200,4,2,1,65,0,0
134153,-200,4,2,1,5,0,0
134194,-66.6666666666667,4,2,1,65,0,0
136626,-100,4,2,1,65,0,0
136707,-100,4,2,1,5,0,0
136788,-80,4,2,1,65,0,0
136869,-80,4,2,1,5,0,0
136950,-66.6666666666667,4,2,1,65,0,0
137032,-66.6666666666667,4,2,1,5,0,0
137113,-57.1428571428571,4,2,1,65,0,0
137275,-50,4,2,1,65,0,0
138572,-66.6666666666667,4,2,1,65,0,0
140194,-50,4,2,1,65,0,0
140518,-100,4,2,1,65,0,0
141167,-66.6666666666667,4,2,1,65,0,0
142788,-50,4,2,1,65,0,0
143761,-66.6666666666667,4,2,1,65,0,0
145302,-50,4,2,1,65,0,0
150167,-50,4,2,1,5,0,0
150248,-50,4,2,1,65,0,0

[Colours]
Combo1 : 255,153,51
Combo2 : 141,141,141
Combo3 : 204,204,204
Combo4 : 183,11,36
Combo5 : 255,87,171
Combo6 : 150,247,252
Combo7 : 149,149,255
Combo8 : 210,210,0

[HitObjects]
256,192,3005,12,0,5518,0:0:0:0:
160,160,5599,6,0,L|244:152,1,80,4|2,1:0|0:0,0:0:0:0:
300,92,6086,1,0,0:0:0:0:
239,152,6248,2,0,P|235:176|239:196,1,40,2|0,0:0|0:0,0:0:0:0:
232,204,6572,2,0,P|246:223|263:235,1,40,0|0,0:0|0:0,0:0:0:0:
388,96,6896,2,0,P|360:80|308:84,2,80,0|2|0,0:0|0:0|0:0,0:0:0:0:
336,160,7707,1,0,0:0:0:0:
324,172,7869,2,0,L|328:216,1,40,2|0,0:0|0:0,0:0:0:0:
472,104,8194,6,0,L|468:60,1,40,0|0,0:0|0:0,0:0:0:0:
460,156,8518,2,0,L|464:112,1,40,2|0,0:0|0:0,0:0:0:0:
475,247,8842,2,0,L|468:168,1,80,2|2,0:0|0:0,0:0:0:0:
404,296,9329,1,0,0:0:0:0:
392,304,9491,2,0,L|388:344,1,40,0|0,0:0|0:0,0:0:0:0:
400,360,9815,2,0,L|440:364,1,40,2|0,0:0|0:0,0:0:0:0:
324,256,10140,2,0,L|242:264,1,80,0|2,0:0|0:0,0:0:0:0:
376,192,10626,1,0,0:0:0:0:
392,184,10788,102,0,P|400:140|384:108,1,80,0|2,0:0|0:0,0:0:0:0:
312,72,11275,1,0,0:0:0:0:
385,109,11437,2,0,P|416:104|428:96,1,40,2|0,0:0|0:0,0:0:0:0:
440,88,11761,2,0,P|458:62|461:48,1,40,0|0,0:0|0:0,0:0:0:0:
300,52,12086,2,0,L|292:132,2,80,0|2|0,0:0|0:0|0:0,0:0:0:0:
232,8,12896,1,0,0:0:0:0:
220,20,13059,2,0,L|216:64,1,40,2|0,0:0|0:0,0:0:0:0:
128,200,13383,6,0,P|120:176|120:156,1,40,0|0,0:0|0:0,0:0:0:0:
124,140,13707,2,0,P|135:117|149:103,1,40,2|0,0:0|0:0,0:0:0:0:
228,276,14032,2,0,L|220:196,1,80,2|2,0:0|0:0,0:0:0:0:
312,312,14518,1,0,0:0:0:0:
320,296,14680,2,0,P|336:284|360:280,1,40,0|0,0:0|0:0,0:0:0:0:
376,280,15004,2,0,P|402:283|429:302,1,60.0000022888184,2|0,0:0|0:0,0:0:0:0:
480,120,15329,2,0,B|496:152|480:180|480:180|460:212|488:244,1,120.000004577637,0|2,0:0|0:0,0:0:0:0:
320,64,15977,102,0,P|364:80|420:32,1,120.000004577637,0|0,1:0|0:0,0:0:0:0:
260,204,16464,1,0,1:0:0:0:
248,192,16626,2,0,B|244:104|244:104|254:123|276:136,1,120.000004577637,8|0,0:0|0:0,0:0:0:0:
332,340,17113,1,0,1:0:0:0:
348,268,17275,2,0,L|344:336,1,60.0000022888184,0|0,1:0|0:0,0:0:0:0:
412,204,17599,1,0,1:0:0:0:
424,220,17761,1,0,0:0:0:0:
340,160,17923,2,0,B|342:125|342:125|324:80|324:80|328:40,1,120.000004577637,8|0,0:0|0:0,0:0:0:0:
412,204,18410,1,0,0:0:0:0:
340,160,18572,6,0,B|312:148|312:148|264:172|216:152,1,120.000004577637,0|0,1:0|0:0,0:0:0:0:
404,292,19059,1,0,1:0:0:0:
412,276,19221,2,0,B|408:252|408:252|412:228|412:228|408:208,1,60.0000022888184,8|0,0:0|0:0,0:0:0:0:
480,336,19545,1,0,0:0:0:0:
480,56,19707,1,0,1:0:0:0:
472,68,19788,1,0,1:0:0:0:
464,80,19869,102,0,B|456:112|468:148|468:148|448:128|412:128,1,120.000004577637,0|0,1:0|0:0,0:0:0:0:
304,36,20113,2,0,B|348:24|380:48|380:48|388:24|416:8,1,120.000004577637,0|0,1:0|0:0,0:0:0:0:
292,48,20356,2,0,P|268:56|248:56,1,40,0|0,1:0|0:0,0:0:0:0:
192,144,20518,2,0,B|164:132|160:88|168:64|168:64|172:84|184:100,1,120.000004577637,8|0,0:0|1:0,0:0:0:0:
164,264,21004,1,0,1:0:0:0:
160,248,21167,6,0,P|196:240|244:268,1,90.0000034332277,0|0,1:0|0:0,0:0:0:0:
248,280,21491,2,0,P|252:312|240:340,1,60.0000022888184,0|0,0:0|0:0,0:0:0:0:
312,192,21815,2,0,P|360:200|404:148,1,120.000004577637,8|0,0:0|0:0,0:0:0:0:
464,304,22302,1,0,1:0:0:0:
456,316,22464,2,0,B|452:292|452:292|456:272|456:272|452:244,1,60.0000022888184,0|0,1:0|0:0,0:0:0:0:
401,91,22788,2,0,B|405:115|405:115|401:135|401:135|405:163,1,60.0000022888184,0|0,1:0|0:0,0:0:0:0:
476,44,23113,2,0,P|448:32|388:88,1,120.000004577637,8|0,0:0|0:0,0:0:0:0:
284,20,23599,1,0,0:0:0:0:
272,32,23761,102,0,B|240:48|212:32|212:32|180:12|148:40,1,120.000004577637,0|0,1:0|0:0,0:0:0:0:
292,176,24248,1,0,1:0:0:0:
304,164,24410,2,0,B|308:144|308:144|304:124|304:124|308:104,1,60.0000022888184,8|0,0:0|0:0,0:0:0:0:
360,232,24734,1,0,0:0:0:0:
208,120,24896,1,0,1:0:0:0:
200,132,24977,1,0,1:0:0:0:
192,144,25059,6,0,B|203:163|176:180|176:180|128:152|88:172,1,120.000004577637,0|0,1:0|0:0,0:0:0:0:
88,280,25302,2,0,B|109:268|124:244|124:244|100:280|116:328,1,120.000004577637,0|0,1:0|0:0,0:0:0:0:
232,276,25545,2,0,P|208:284|184:284,1,40,0|0,1:0|0:0,0:0:0:0:
312,304,25707,2,0,B|292:332|320:356|320:356|372:316|436:352,1,180.000006866455,8|0,0:0|0:0,0:0:0:0:
496,228,26032,2,0,B|480:244|480:244|472:304,1,60.0000022888184,0|0,1:0|0:0,0:0:0:0:
400,124,26194,2,0,B|416:140|416:140|424:200,1,60.0000022888184,0|0,1:0|0:0,0:0:0:0:
448,56,26356,101,0,1:0:0:0:
320,72,36734,117,4,1:2:0:0:
332,80,36896,1,0,0:0:0:0:
444,24,37059,1,0,0:0:0:0:
441,39,37221,1,0,1:0:0:0:
416,120,37383,2,0,B|424:148|424:148|416:208|416:208|424:240,1,120.000004577637,8|0,0:0|0:0,0:0:0:0:
508,164,37869,1,0,0:0:0:0:
416,248,38032,2,0,P|384:228|352:228,1,60.0000022888184,0|0,1:0|0:0,0:0:0:0:
278,101,38356,2,0,P|307:96|331:79,1,60.0000022888184,0|0,1:0|0:0,0:0:0:0:
362,226,38680,1,8,0:0:0:0:
276,24,39004,1,0,0:0:0:0:
276,24,39167,1,0,0:0:0:0:
196,256,39329,6,0,B|192:216|192:216|204:176|204:176|200:136,1,120.000004577637,0|0,1:0|0:0,0:0:0:0:
272,296,39815,1,0,0:0:0:0:
128,308,39977,2,0,P|108:284|44:284,1,90.0000034332277,8|0,0:0|0:0,0:0:0:0:
36,288,40302,2,0,P|16:304|8:344,1,60.0000022888184,0|0,0:0|0:0,0:0:0:0:
28,180,40626,1,0,1:0:0:0:
32,196,40788,1,0,0:0:0:0:
100,112,40950,1,0,1:0:0:0:
104,128,41112,1,0,0:0:0:0:
40,32,41275,1,8,0:0:0:0:
44,48,41599,2,0,P|80:28|112:28,1,60.0000022888184,0|0,0:0|0:0,0:0:0:0:
200,138,41923,101,0,1:0:0:0:
196,156,42086,1,0,0:0:0:0:
336,104,42248,1,0,0:0:0:0:
347,118,42411,1,0,0:0:0:0:
284,184,42572,2,0,B|304:212|288:244|288:244|272:276|292:304,1,120.000004577637,8|0,0:0|0:0,0:0:0:0:
380,204,43059,1,0,0:0:0:0:
287,297,43221,2,0,P|258:299|232:314,1,60.0000022888184,0|0,1:0|0:0,0:0:0:0:
428,136,43545,2,0,P|408:124|368:120,1,60.0000022888184,0|0,1:0|0:0,0:0:0:0:
284,184,43869,1,8,0:0:0:0:
488,80,44194,2,0,B|492:60|492:60|484:36|484:36|488:16,1,60.0000022888184,0|0,0:0|0:0,0:0:0:0:
468,212,44518,6,0,B|476:244|476:244|468:296|468:296|480:336,1,120.000004577637,0|0,1:0|0:0,0:0:0:0:
477,328,45004,1,0,1:0:0:0:
392,264,45167,2,0,P|360:256|324:264,1,60.0000022888184,8|0,0:0|0:0,0:0:0:0:
320,268,45491,2,0,P|291:284|271:316,1,60.0000022888184,0|0,1:0|0:0,0:0:0:0:
304,176,45815,101,2,0:0:0:0:
405,134,46140,1,2,0:0:0:0:
391,138,46221,1,0,0:0:0:0:
376,138,46302,1,0,0:0:0:0:
385,58,46464,1,2,0:0:0:0:
228,80,46788,6,0,B|206:87|231:106|231:106|268:112|281:83,1,90.0000034332277
288,76,47113,6,0,B|264:200|264:200|288:176|320:172,1,180.000006866455,4|0,1:2|0:0,0:0:0:0:
332,316,47437,2,0,P|334:275|320:244,1,60.0000022888184,8|0,0:0|0:0,0:0:0:0:
230,295,47599,1,0,0:0:0:0:
246,293,47680,1,0,1:0:0:0:
352,320,47761,2,0,L|344:384,2,60.0000022888184,0|0|2,0:0|0:0|1:0,0:0:0:0:
436,180,48086,1,8,0:0:0:0:
424,196,48167,2,0,B|412:248|444:272|444:272|434:253|440:232,1,120.000004577637,2|0,0:1|0:0,0:0:0:0:
496,116,48410,6,0,P|464:96|440:92,1,60,0|0,1:0|0:0,0:0:0:0:
440,48,48572,102,0,P|401:71|373:76,1,75,0|0,0:0|0:0,0:0:0:0:
360,116,48734,6,0,P|311:85|275:79,1,90.0000034332277,8|0,0:0|0:0,0:0:0:0:
258,45,48896,102,0,P|231:67|198:79,1,70.000000667572
166,98,49059,2,0,L|158:54,2,35.000000333786
72,20,49221,1,0,1:0:0:0:
60,36,49302,1,0,0:0:0:0:
48,52,49383,6,0,B|68:168|68:168|48:131|16:116,1,160,12|0,0:0|0:0,0:0:0:0:
40,336,49707,102,0,B|52:288|20:236|20:236|48:256|84:256,1,160,4|0,1:2|0:0,0:0:0:0:
120,380,50032,5,8,0:0:0:0:
152,208,50194,1,0,0:0:0:0:
168,212,50275,1,0,1:0:0:0:
184,216,50356,2,0,P|184:176|172:148,1,60.0000022888184,2|0,0:1|0:0,0:0:0:0:
240,280,50518,2,0,P|240:320|228:348,1,60.0000022888184,0|0,0:0|0:0,0:0:0:0:
240,96,50680,1,8,0:0:0:0:
328,280,50842,1,0,0:0:0:0:
340,268,50923,1,0,0:0:0:0:
352,256,51004,102,0,P|400:256|428:272,3,80,0|0|0|0,1:0|0:0|0:0|0:0,0:0:0:0:
440,292,51329,6,0,L|448:248,2,40,8|0|0,0:0|0:0|0:0,0:0:0:0:
464,240,51491,102,0,B|472:208|460:188|460:188|468:180|468:180|448:152|468:104,1,120,0|0,0:0|0:0,0:0:0:0:
472,112,51653,2,0,B|488:116|488:116|452:144|412:120,1,80,0|0,0:0|0:0,0:0:0:0:
296,24,51815,2,0,B|280:20|280:20|316:-8|356:16,1,80,0|0,1:0|0:0,0:0:0:0:
412,136,51977,2,0,B|368:120|344:136|344:136|320:128|320:128|280:140|236:112,1,160,12|0,0:0|0:0,0:0:0:0:
72,80,52302,6,0,B|104:72|104:72|112:60|112:60|144:52,1,80,2|0,1:0|0:0,0:0:0:0:
0,36,52626,1,8,0:0:0:0:
132,180,52788,1,0,0:0:0:0:
148,188,52869,1,0,1:0:0:0:
164,196,52950,2,0,P|164:156|176:124,1,60.0000022888184,2|0,0:1|0:0,0:0:0:0:
216,272,53113,2,0,P|216:312|204:344,1,60.0000022888184,0|0,0:0|0:0,0:0:0:0:
184,120,53275,1,8,0:0:0:0:
192,344,53437,1,0,1:0:0:0:
268,88,53599,102,0,L|260:20,2,40,2|0|0,1:1|0:0|0:0,0:0:0:0:
288,32,53761,2,0,B|292:52|292:52|280:92|280:92|284:120,2,80,0|0|8,0:0|0:0|0:0,0:0:0:0:
368,0,54086,1,0,0:0:0:0:
388,12,54167,1,0,1:0:0:0:
408,24,54248,2,0,L|456:16,1,40,2|0,0:1|0:0,0:0:0:0:
428,36,54329,2,0,L|476:28,1,40,2|0,0:1|0:0,0:0:0:0:
388,104,54410,6,0,B|380:128|380:128|384:168|384:168|376:200,1,90.0000034332277,2|0,1:0|0:0,0:0:0:0:
388,208,54572,2,0,B|428:200|444:168|444:168|424:272,1,160,12|0,0:0|0:0,0:0:0:0:
320,360,54896,2,0,B|304:252|304:252|321:276|352:288,1,160,4|0,1:2|0:0,0:0:0:0:
408,384,55221,101,8,0:0:0:0:
216,224,55383,1,0,0:0:0:0:
208,244,55464,1,0,1:0:0:0:
200,264,55545,2,0,L|204:300,6,30.0000011444092
196,320,55869,2,0,B|160:300|127:309|127:309|151:317|168:340,2,120,8|0|0,0:0|0:0|0:0,0:0:0:0:
104,384,56194,5,0,1:0:0:0:
260,200,56356,2,0,P|244:188|224:180,1,40,2|0,0:1|0:0,0:0:0:0:
84,376,56518,101,8,0:0:0:0:
225,164,56680,2,0,P|244:172|260:184,1,40,2|0,0:1|0:0,0:0:0:0:
64,368,56842,5,0,0:0:0:0:
312,36,57004,1,2,1:0:0:0:
324,48,57086,2,0,B|328:72|328:72|324:100|324:100|332:136,1,80,0|12,0:0|0:0,0:0:0:0:
420,288,57329,1,0,0:0:0:0:
432,292,57410,1,0,0:0:0:0:
444,296,57491,5,6,1:2:0:0:
456,258,57572,1,0,0:0:0:0:
443,221,57653,1,0,0:0:0:0:
410,200,57734,1,0,0:0:0:0:
424,164,57815,5,10,0:0:0:0:
384,168,57896,1,0,0:0:0:0:
344,173,57977,1,0,0:0:0:0:
304,178,58058,1,0,1:0:0:0:
276,208,58140,101,2,0:0:0:0:
236,203,58221,1,0,0:0:0:0:
207,173,58302,5,2,1:2:0:0:
167,178,58383,1,0,0:0:0:0:
138,207,58464,101,10,0:0:0:0:
98,202,58545,1,0,0:0:0:0:
69,172,58626,5,2,0:0:0:0:
29,177,58707,1,0,0:0:0:0:
24,192,58788,101,2,1:2:0:0:
188,20,58950,5,0,0:0:0:0:
180,12,59032,1,0,0:0:0:0:
172,0,59113,1,10,0:0:0:0:
138,19,59194,1,2,0:0:0:0:
133,57,59275,1,2,0:0:0:0:
161,84,59356,1,0,1:0:0:0:
200,88,59437,101,2,0:0:0:0:
226,87,59518,1,2,0:0:0:0:
253,86,59599,1,0,1:0:0:0:
279,85,59680,1,0,0:0:0:0:
304,52,59761,2,0,B|420:28|420:28|408:43|400:76,1,160,12|0,0:0|0:0,0:0:0:0:
172,168,60086,5,4,1:2:0:0:
202,193,60167,1,0,0:0:0:0:
214,231,60248,1,0,0:0:0:0:
206,269,60329,1,0,0:0:0:0:
178,298,60410,101,10,0:0:0:0:
205,293,60491,1,0,0:0:0:0:
231,288,60572,1,0,0:0:0:0:
257,283,60653,1,0,1:0:0:0:
288,256,60734,5,2,0:0:0:0:
330,271,60815,1,0,0:0:0:0:
374,261,60896,1,0,1:0:0:0:
405,229,60977,1,0,0:0:0:0:
413,184,61058,101,8,0:0:0:0:
395,143,61139,1,0,0:0:0:0:
358,118,61220,1,0,0:0:0:0:
313,118,61301,1,0,0:0:0:0:
280,144,61383,6,0,B|292:168|292:168|288:192|288:192|296:224,1,80,0|0,1:0|0:0,0:0:0:0:
372,80,61545,2,0,B|384:56|384:56|380:32|380:32|388:0,1,80,0|2,0:0|0:0,0:0:0:0:
284,236,61707,2,0,L|280:288,2,40,10|0|2,0:0|0:0|0:0,0:0:0:0:
292,292,61869,2,0,B|328:296|352:280|352:280|368:288|368:288|384:276|416:280,1,120,2|0,0:0|0:0,0:0:0:0:
420,288,62032,2,0,B|428:312|428:312|420:340|420:340|428:372,1,80,2|2,0:0|0:0,0:0:0:0:
192,160,62194,2,0,B|184:136|184:136|192:108|192:108|184:76,1,80,2|0,1:2|0:0,0:0:0:0:
468,172,62356,102,0,B|468:204|484:228|484:228|436:176|376:192,1,160,12|0,0:0|0:0,0:0:0:0:
492,44,62599,1,0,0:0:0:0:
504,36,62680,5,0,1:0:0:0:
487,71,62761,1,0,0:0:0:0:
453,90,62842,1,0,0:0:0:0:
414,84,62923,1,2,0:0:0:0:
387,55,63004,101,10,0:0:0:0:
312,176,63167,1,2,0:0:0:0:
300,168,63248,1,2,1:2:0:0:
288,160,63329,5,2,0:0:0:0:
249,153,63410,1,0,0:0:0:0:
214,172,63491,1,2,1:2:0:0:
199,208,63572,1,0,0:0:0:0:
176,244,63653,101,10,0:0:0:0:
137,250,63734,1,0,0:0:0:0:
102,231,63815,1,0,0:0:0:0:
87,195,63896,1,0,0:0:0:0:
104,156,63977,6,0,L|64:164,2,40,2|0|0,1:2|0:0|0:0,0:0:0:0:
120,124,64140,2,0,B|112:100|112:100|120:72|120:72|112:32,1,80,2|0,0:0|0:0,0:0:0:0:
196,176,64302,2,0,B|216:204|200:236|200:236|184:268|200:289,1,120.000004577637,10|0,0:0|0:0,0:0:0:0:
188,308,64464,2,0,P|180:272|188:228,1,80,2|0,0:0|1:0,0:0:0:0:
267,106,64626,2,0,L|259:50,1,40,2|0,0:0|0:0,0:0:0:0:
283,114,64707,2,0,L|275:170,1,40,2|0,0:0|0:0,0:0:0:0:
299,122,64788,101,0,1:0:0:0:
356,36,64950,5,12,0:0:0:0:
384,45,65031,1,0,0:0:0:0:
413,40,65112,1,0,0:0:0:0:
437,23,65193,1,0,0:0:0:0:
450,0,65275,101,6,1:2:0:0:
433,36,65356,1,0,0:0:0:0:
433,75,65437,1,2,0:0:0:0:
449,112,65518,1,0,0:0:0:0:
476,140,65599,5,10,0:0:0:0:
495,174,65680,1,0,0:0:0:0:
499,214,65761,1,2,0:0:0:0:
487,252,65842,1,0,1:0:0:0:
456,280,65923,101,2,0:0:0:0:
416,283,66004,1,0,0:0:0:0:
376,287,66085,1,2,1:2:0:0:
336,291,66166,1,0,0:0:0:0:
312,324,66248,5,10,0:0:0:0:
274,310,66329,1,0,0:0:0:0:
234,308,66410,1,2,0:0:0:0:
196,319,66491,1,0,0:0:0:0:
164,348,66572,101,2,1:2:0:0:
328,208,66734,2,0,P|332:176|332:160,1,40
148,352,66896,5,10,0:0:0:0:
344,160,67059,2,0,P|342:179|339:199,1,40,0|0,0:0|0:0,0:0:0:0:
132,356,67221,1,4,0:0:0:0:
93,311,67302,1,0,0:0:0:0:
111,254,67383,1,0,1:0:0:0:
168,240,67464,2,0,B|242:255|254:187|254:187|238:209|194:235,1,160,4|0,0:0|0:0,0:0:0:0:
101,175,67707,2,0,P|97:155|96:135,1,40,4|0,0:0|0:0,0:0:0:0:
183,55,67869,6,0,L|179:151,1,80,4|0,1:3|0:0,0:0:0:0:
260,12,68194,1,8,0:0:0:0:
344,160,68356,1,0,0:0:0:0:
356,152,68437,1,0,1:0:0:0:
368,144,68518,5,0,0:0:0:0:
407,146,68599,1,0,0:0:0:0:
439,168,68680,1,0,1:0:0:0:
455,205,68761,1,0,0:0:0:0:
444,244,68842,1,8,0:0:0:0:
432,271,68923,1,0,0:0:0:0:
430,301,69004,1,0,0:0:0:0:
437,330,69085,1,0,0:0:0:0:
452,356,69167,101,0,1:0:0:0:
348,252,69329,1,0,0:0:0:0:
340,264,69410,1,0,0:0:0:0:
332,276,69491,5,8,0:0:0:0:
301,293,69572,1,0,0:0:0:0:
267,300,69653,1,0,0:0:0:0:
233,294,69734,1,0,1:0:0:0:
202,277,69815,101,0,0:0:0:0:
171,259,69897,1,0,0:0:0:0:
137,252,69978,1,0,1:0:0:0:
103,258,70059,1,0,0:0:0:0:
72,275,70140,5,8,0:0:0:0:
87,238,70221,1,0,0:0:0:0:
84,198,70302,1,4,0:3:0:0:
64,164,70383,1,0,0:0:0:0:
32,140,70464,102,0,P|35:121|36:100,1,40,4|0,0:3|0:0,0:0:0:0:
104,188,70626,2,0,P|107:206|108:228,1,40,0|0,0:0|0:0,0:0:0:0:
120,100,70788,6,0,P|123:81|124:60,1,40,8|0,0:0|0:0,0:0:0:0:
192,160,70950,1,0,0:0:0:0:
208,168,71032,1,0,1:0:0:0:
224,176,71113,101,0,0:0:0:0:
246,149,71194,1,0,0:0:0:0:
278,135,71275,1,0,1:0:0:0:
313,136,71356,1,0,0:0:0:0:
344,152,71437,5,8,0:0:0:0:
375,168,71518,1,0,0:0:0:0:
410,169,71599,1,0,0:0:0:0:
442,155,71680,1,0,0:0:0:0:
465,129,71761,101,0,1:0:0:0:
447,164,71842,1,0,0:0:0:0:
445,204,71923,1,0,0:0:0:0:
460,240,72004,1,0,0:0:0:0:
489,268,72086,5,8,0:0:0:0:
456,262,72167,1,0,0:0:0:0:
424,271,72248,1,0,0:0:0:0:
399,292,72329,1,0,1:0:0:0:
388,328,72410,102,0,P|386:302|380:280,1,40,0|0,0:0|0:0,0:0:0:0:
332,180,72572,2,0,P|330:205|324:228,1,40,0|0,1:0|0:0,0:0:0:0:
296,340,72734,6,0,P|294:314|288:292,1,40,8|0,0:0|0:0,0:0:0:0:
240,192,72896,2,0,P|238:217|232:240,1,40,4|4,0:3|0:3,0:0:0:0:
56,320,73059,101,4,0:3:0:0:
72,295,73140,1,0,0:0:0:0:
96,277,73221,1,0,0:0:0:0:
125,269,73302,1,0,0:0:0:0:
154,271,73383,5,8,0:0:0:0:
136,356,73545,1,0,0:0:0:0:
40,208,73707,101,0,1:0:0:0:
55,176,73788,1,0,0:0:0:0:
58,142,73869,1,0,1:0:0:0:
47,109,73950,1,0,0:0:0:0:
25,82,74032,5,8,0:0:0:0:
32,68,74113,1,0,0:0:0:0:
40,52,74194,2,0,P|64:44|88:44,1,40,0|0,0:0|0:0,0:0:0:0:
156,88,74356,102,0,L|144:140,1,40,0|0,1:0|0:0,0:0:0:0:
240,44,74518,2,0,L|228:-8,1,40,0|0,0:0|0:0,0:0:0:0:
296,116,74680,6,0,L|284:168,1,40,8|0,0:0|0:0,0:0:0:0:
380,72,74842,2,0,L|368:20,1,40,0|0,0:0|0:0,0:0:0:0:
96,152,75004,102,0,P|128:144|144:128,1,40,0|0,1:0|0:0,0:0:0:0:
216,0,75167,2,0,P|184:8|168:24,1,40,0|0,1:0|0:0,0:0:0:0:
240,180,75329,6,0,P|272:172|288:156,1,40,8|0,0:0|0:0,0:0:0:0:
356,24,75492,2,0,P|324:32|308:48,1,40,0|0,0:0|0:0,0:0:0:0:
384,208,75653,101,4,1:3:0:0:
394,180,75734,1,0,0:0:0:0:
394,150,75815,1,0,0:0:0:0:
385,121,75896,1,0,0:0:0:0:
366,98,75977,5,8,0:0:0:0:
393,108,76059,1,0,0:0:0:0:
423,108,76140,1,0,0:0:0:0:
452,99,76221,1,0,0:0:0:0:
475,80,76302,101,0,1:0:0:0:
484,92,76383,1,0,0:0:0:0:
492,104,76464,2,0,L|488:136,2,20,0|0|0,0:0|0:0|0:0,0:0:0:0:
394,180,76626,5,8,0:0:0:0:
385,192,76707,1,0,0:0:0:0:
377,204,76788,2,0,L|381:236,2,20,0|0|0,0:0|0:0|0:0,0:0:0:0:
480,308,76950,102,0,L|472:348,1,30.0000011444092,0|0,1:0|0:0,0:0:0:0:
456,328,77032,2,0,L|437:364,1,30.0000011444092,0|0,3:0|0:0,0:0:0:0:
427,341,77113,2,0,L|400:371,1,30.0000011444092,0|0,1:0|0:0,0:0:0:0:
396,346,77194,2,0,L|362:368,1,30.0000011444092,0|0,3:0|0:0,0:0:0:0:
364,343,77275,2,0,L|325:356,1,30.0000011444092,8|0,3:2|0:0,0:0:0:0:
328,332,77356,2,0,L|289:345,1,30.0000011444092,0|0,3:0|0:0,0:0:0:0:
299,320,77437,2,0,L|258:322,1,30.0000011444092,0|0,1:0|0:0,0:0:0:0:
273,302,77518,2,0,L|233:294,1,30.0000011444092,0|0,3:0|0:0,0:0:0:0:
248,276,77599,5,0,1:0:0:0:
224,252,77680,1,0,1:0:0:0:
192,243,77761,1,0,1:0:0:0:
160,252,77842,1,0,1:0:0:0:
137,276,77923,1,0,1:0:0:0:
129,309,78004,1,0,1:0:0:0:
140,341,78085,1,0,1:0:0:0:
164,363,78166,1,0,1:0:0:0:
196,368,78248,102,0,B|182:330|194:298|194:298|190:286|190:286|198:278|198:278|194:266|194:266|206:230|185:190|185:190|195:166|190:134,1,240.000009155274,4|8,0:0|0:0,0:0:0:0:
296,264,78734,1,0,0:0:0:0:
308,260,78815,1,0,0:0:0:0:
320,256,78896,5,0,1:0:0:0:
346,235,78977,1,0,0:0:0:0:
365,207,79058,1,0,0:0:0:0:
372,175,79139,1,0,0:0:0:0:
368,141,79220,101,8,0:0:0:0:
352,112,79301,1,0,0:0:0:0:
328,89,79382,1,0,0:0:0:0:
296,77,79463,1,0,0:0:0:0:
263,76,79545,6,0,B|344:80|368:20|368:20|345:35|316:44,2,180.000006866455,0|2|2,1:0|0:0|0:0,0:0:0:0:
88,144,80194,2,0,B|98:102|98:102|93:70|93:70|108:8,1,120.000004577637,0|0,1:0|0:0,0:0:0:0:
168,192,80518,2,0,L|176:256,1,60.0000022888184,8|0,0:0|0:0,0:0:0:0:
184,328,80680,2,0,L|176:268,1,60.0000022888184,0|0,1:0|0:0,0:0:0:0:
272,352,80842,2,0,P|304:320|380:332,1,120.000004577637,4|0,1:2|0:0,0:0:0:0:
296,236,81167,1,8,0:0:0:0:
472,328,81329,101,0,0:0:0:0:
460,340,81410,2,0,L|456:276,1,60.0000022888184,0|0,1:0|1:0,0:0:0:0:
448,60,81653,1,0,1:0:0:0:
464,268,81815,1,8,0:0:0:0:
320,96,81977,1,0,0:0:0:0:
496,200,82140,6,0,B|460:180|408:204|408:204|400:196|400:196|388:200|388:200|376:192|376:192|312:220|252:184,1,240.000009155274,4|8,1:2|0:0,0:0:0:0:
360,360,82626,1,0,0:0:0:0:
372,348,82707,2,0,L|368:284,1,60.0000022888184,0|4,0:0|1:2,0:0:0:0:
184,144,82950,1,0,1:0:0:0:
176,156,83032,1,0,0:0:0:0:
168,168,83113,1,8,0:0:0:0:
171,207,83194,1,0,0:0:0:0:
175,247,83275,1,0,1:0:0:0:
179,287,83356,1,0,0:0:0:0:
184,328,83437,102,0,P|220:288|292:284,1,120.000004577637,4|0,1:2|0:0,0:0:0:0:
260,360,83761,1,8,0:0:0:0:
128,120,83923,1,0,0:0:0:0:
75,201,84086,2,0,B|59:242|59:242|67:279|67:279|55:315,1,120.000004577637,0|0,1:0|0:0,0:0:0:0:
128,120,84410,2,0,B|112:78|112:78|120:41|120:41|108:5,1,120.000004577637,8|0,0:0|0:0,0:0:0:0:
220,152,84734,5,0,1:0:0:0:
240,64,84896,1,0,0:0:0:0:
312,120,85059,101,8,0:0:0:0:
332,32,85221,1,0,0:0:0:0:
296,216,85383,5,0,1:0:0:0:
240,64,85545,1,0,0:0:0:0:
388,184,85707,101,8,0:0:0:0:
332,32,85869,1,0,1:0:0:0:
408,96,86032,5,4,1:2:0:0:
372,276,86194,1,0,0:0:0:0:
428,88,86356,1,8,0:0:0:0:
456,296,86518,2,0,L|464:336,4,30.0000011444092,0|0|0|0|4,3:0|3:0|3:0|3:0|1:2,0:0:0:0:
312,120,86842,1,0,3:0:0:0:
312,120,86923,1,0,3:0:0:0:
312,120,87004,1,8,3:2:0:0:
200,296,87167,2,0,L|208:336,4,30.0000011444092,0|0|0|0|4,0:0|0:0|3:0|3:0|1:2,0:0:0:0:
64,128,87491,2,0,L|56:88,4,30.0000011444092,0|0|0|0|8,3:0|3:0|3:0|3:0|0:0,0:0:0:0:
208,280,87815,101,0,1:0:0:0:
312,120,87977,1,4,1:2:0:0:
278,154,88058,1,0,0:0:0:0:
267,201,88139,1,0,1:0:0:0:
283,246,88220,1,0,0:0:0:0:
320,277,88301,1,12,0:0:0:0:
368,283,88382,1,0,0:0:0:0:
412,264,88463,1,0,3:0:0:0:
439,224,88544,1,0,3:0:0:0:
441,176,88626,6,0,B|392:164|352:184|352:184|312:168|312:168|260:212|192:180,1,240.000009155274,4|8,1:2|0:0,0:0:0:0:
76,60,89113,1,0,0:0:0:0:
88,52,89194,1,0,0:0:0:0:
100,44,89275,101,0,1:0:0:0:
128,68,89356,1,0,0:0:0:0:
142,102,89437,1,0,0:0:0:0:
139,139,89518,1,0,0:0:0:0:
120,171,89599,5,8,0:0:0:0:
91,195,89680,1,0,0:0:0:0:
77,229,89761,1,0,0:0:0:0:
80,266,89842,1,0,0:0:0:0:
99,298,89923,102,0,P|176:312|148:240,2,180.000006866455,0|2|2,1:0|0:0|0:0,0:0:0:0:
248,116,90572,2,0,B|240:76|240:76|256:40|256:40|248:-4,1,120.000004577637,0|0,1:0|0:0,0:0:0:0:
332,160,90896,2,0,L|324:244,1,60.0000022888184,8|0,0:0|0:0,0:0:0:0:
320,300,91059,2,0,L|328:216,1,60.0000022888184,0|0,1:0|0:0,0:0:0:0:
432,56,91221,6,0,L|424:188,1,120.000004577637,4|0,1:2|0:0,0:0:0:0:
364,4,91545,1,8,0:0:0:0:
428,192,91707,1,0,0:0:0:0:
504,12,91869,1,0,1:0:0:0:
432,208,92032,2,0,L|440:256,4,30.0000011444092,0|0|0|0|8,3:0|3:0|3:0|3:0|0:0,0:0:0:0:
248,68,92356,2,0,L|240:20,2,30.0000011444092,0|0|0,3:0|3:0|3:0,0:0:0:0:
256,28,92518,101,4,1:2:0:0:
236,152,92680,1,0,0:0:0:0:
160,80,92842,1,8,0:0:0:0:
140,204,93004,1,0,0:0:0:0:
152,216,93086,1,0,0:0:0:0:
164,228,93167,1,4,1:2:0:0:
88,16,93329,1,0,3:0:0:0:
236,152,93490,1,8,0:0:0:0:
248,164,93572,1,0,0:0:0:0:
260,176,93653,2,0,L|264:224,2,30.0000011444092,0|0|0,3:0|3:0|3:0,0:0:0:0:
276,220,93815,6,0,P|312:192|396:200,1,120.000004577637,4|0,1:2|0:0,0:0:0:0:
200,280,94140,2,0,P|164:252|80:260,1,120.000004577637,8|0,0:0|0:0,0:0:0:0:
348,272,94464,1,0,1:0:0:0:
352,288,94626,1,0,1:0:0:0:
180,156,94788,1,8,0:0:0:0:
136,340,94950,1,0,0:0:0:0:
136,340,95032,1,0,0:0:0:0:
136,340,95113,102,0,L|128:264,1,60.0000022888184,4|0,1:2|0:0,0:0:0:0:
272,360,95275,1,0,0:0:0:0:
276,340,95356,1,0,0:0:0:0:
280,320,95437,1,8,0:0:0:0:
180,156,95599,1,0,1:0:0:0:
184,376,95761,5,0,1:0:0:0:
268,140,95923,1,0,0:0:0:0:
272,360,96085,1,8,0:0:0:0:
356,124,96248,1,0,1:0:0:0:
360,344,96410,101,4,1:2:0:0:
408,232,96572,1,0,0:0:0:0:
220,252,96734,5,8,0:0:0:0:
268,140,96896,1,4,0:0:0:0:
228,272,97059,101,0,1:0:0:0:
284,124,97221,2,0,L|292:84,2,30.0000011444092,0|0|0,3:0|3:0|3:0,0:0:0:0:
268,140,97383,5,12,0:0:0:0:
188,32,97545,2,0,L|180:-8,2,30.0000011444092,0|0|0,3:0|3:0|3:0,0:0:0:0:
204,48,97707,102,0,B|112:36|112:36|126:50|136:84,1,120.000004577637,4|0,1:2|1:0,0:0:0:0:
376,172,98032,6,0,B|468:184|468:184|453:169|444:136,1,120.000004577637,8|0,0:0|1:0,0:0:0:0:
289,94,98356,1,0,1:0:0:0:
288,104,98437,1,0,0:0:0:0:
284,116,98518,1,0,0:0:0:0:
280,128,98599,1,0,0:0:0:0:
272,148,98680,1,8,1:2:0:0:
273,158,98761,1,0,0:0:0:0:
277,170,98842,1,0,0:0:0:0:
281,182,98923,1,0,0:0:0:0:
284,208,99004,101,12,0:0:0:0:
108,112,109383,22,0,L|272:100,1,160,0|8,1:0|0:0,0:0:0:0:
340,264,110518,1,0,1:0:0:0:
320,256,110680,2,0,P|312:232|320:176,1,80,0|0,1:0|1:0,0:0:0:0:
336,24,111329,2,0,L|340:56,2,26.6666666666667,8|2|2,0:0|0:1|0:1,0:0:0:0:
396,140,111653,2,0,L|400:108,2,26.6666666666667,2|2|2,0:1|0:1|0:1,0:0:0:0:
428,48,111977,6,0,B|436:127|436:127|416:116|392:112,1,120,0|0,1:0|1:0,0:0:0:0:
480,280,112626,2,0,B|488:200|488:200|468:212|444:216,1,120,8|0,0:0|0:0,0:0:0:0:
408,324,113275,2,0,L|416:384,2,60,0|0|0,1:0|1:0|1:0,0:0:0:0:
344,272,113923,2,0,P|304:264|280:272,1,60,8|0,0:0|0:0,0:0:0:0:
272,280,114248,2,0,P|256:296|248:320,1,40,0|0,1:0|1:0,0:0:0:0:
100,232,114572,102,0,P|140:248|184:240,1,80,0|0,1:0|0:0,0:0:0:0:
396,192,115221,2,0,P|356:176|312:184,1,80,8|0,0:0|0:0,0:0:0:0:
372,68,115707,1,0,1:0:0:0:
384,88,115869,2,0,L|472:80,1,80,0|0,1:0|1:0,0:0:0:0:
288,0,116518,2,0,P|284:28|288:44,1,40,8|0,0:0|0:0,0:0:0:0:
224,152,116842,2,0,P|220:124|224:108,1,40,0|0,0:0|0:0,0:0:0:0:
28,52,117167,6,0,P|72:40|128:88,1,120,0|0,1:0|1:0,0:0:0:0:
126,83,117815,1,8,0:0:0:0:
80,192,118140,2,0,L|72:144,1,40,0|0,0:0|0:0,0:0:0:0:
20,256,118383,1,0,0:0:0:0:
8,264,118464,2,0,L|0:328,2,60,0|0|0,1:0|1:0|1:0,0:0:0:0:
80,360,119113,2,0,P|112:336|132:332,1,60,8|0,0:0|0:0,0:0:0:0:
148,332,119437,2,0,P|164:336|188:352,1,40,0|0,1:0|1:0,0:0:0:0:
240,288,119761,21,2,0:0:0:0:
256,192,124950,69,4,0:3:0:0:
392,64,133707,6,0,B|392:88|400:104|400:104|394:116|394:116|396:124|396:124|392:136|392:136|408:156|400:196,1,120,0|0,0:0|0:0,0:0:0:0:
344,240,134032,6,0,L|340:272,1,30,8|0,0:0|0:0,0:0:0:0:
396,328,134194,1,0,1:0:0:0:
408,324,134275,1,0,1:0:0:0:
420,320,134356,1,0,1:0:0:0:
443,292,134437,1,0,0:0:0:0:
431,259,134518,1,8,0:0:0:0:
220,64,134680,5,0,1:0:0:0:
191,86,134761,1,0,1:0:0:0:
184,122,134842,1,0,1:0:0:0:
205,152,134923,1,0,0:0:0:0:
240,161,135005,101,0,1:0:0:0:
275,170,135086,1,0,1:0:0:0:
296,200,135167,1,0,1:0:0:0:
289,236,135248,1,0,1:0:0:0:
261,259,135329,6,0,B|132:240|132:240|159:260|164:292,1,180.000006866455,4|0,1:2|0:0,0:0:0:0:
28,328,135653,2,0,P|64:320|92:304,1,60.0000022888184,8|0,0:0|0:0,0:0:0:0:
64,177,135815,1,0,0:0:0:0:
56,189,135896,1,0,1:0:0:0:
8,256,135977,2,0,L|12:344,2,60.0000022888184,2|2|2,0:1|0:1|1:0,0:0:0:0:
24,48,136302,1,8,0:0:0:0:
16,64,136383,2,0,B|60:76|96:48|96:48|72:56|52:48,1,120.000004577637,2|0,0:1|0:0,0:0:0:0:
168,108,136626,102,0,P|200:108|240:124,1,60,0|0,1:0|0:0,0:0:0:0:
252,100,136788,6,0,P|281:129|303:180,1,75,0|0,0:0|0:0,0:0:0:0:
328,152,136950,102,0,P|327:193|305:249,1,90.0000034332277,8|0,0:0|0:0,0:0:0:0:
330,262,137113,6,0,P|300:291|254:306,1,70.000000667572,0|0,0:0|1:0,0:0:0:0:
268,336,137275,2,0,L|224:332,2,40
165,277,137437,1,0,1:0:0:0:
177,261,137518,1,0,0:0:0:0:
189,245,137599,102,0,B|77:249|77:249|109:273|109:297,1,160,12|0,0:0|0:0,0:0:0:0:
368,356,137923,6,0,B|432:372|456:308|456:308|432:336|400:336,1,160,4|0,1:2|0:0,0:0:0:0:
140,372,138248,101,8,0:0:0:0:
416,180,138410,1,0,1:0:0:0:
404,188,138491,1,0,1:0:0:0:
392,196,138572,2,0,P|384:228|400:276,1,60.0000022888184,2|0,0:1|0:0,0:0:0:0:
344,112,138734,2,0,P|336:80|352:32,1,60.0000022888184,0|0,0:0|0:0,0:0:0:0:
316,304,138896,1,8,0:0:0:0:
256,112,139059,1,0,0:0:0:0:
244,128,139140,1,0,0:0:0:0:
232,144,139221,5,0,1:0:0:0:
432,20,139383,2,0,P|432:40|424:68,1,30.0000011444092,2|0,0:1|0:0,0:0:0:0:
216,152,139545,101,8,0:0:0:0:
442,61,139707,2,0,P|444:46|444:32,1,30.0000011444092,2|0,0:1|0:0,0:0:0:0:
200,160,139869,5,0,0:0:0:0:
454,42,140032,2,0,P|455:57|453:72,1,30.0000011444092,2|0,1:0|0:0,0:0:0:0:
404,260,140194,102,0,B|392:144|392:144|411:160|452:168,1,160,12|0,0:0|0:0,0:0:0:0:
304,264,140518,6,0,B|308:292|308:292|300:320|300:320|304:360,1,80,0|0,1:2|0:0,0:0:0:0:
236,200,140842,1,8,0:0:0:0:
404,260,141004,1,0,0:0:0:0:
424,272,141086,1,0,1:0:0:0:
444,284,141167,2,0,L|452:336,4,30.0000011444092,2|0|0|0|0,0:1|0:0|0:0|0:0|0:0,0:0:0:0:
288,124,141491,2,0,L|296:72,4,30.0000011444092,8|0|0|0|0,0:0|0:0|0:0|0:0|0:0,0:0:0:0:
104,28,141815,102,0,L|96:80,2,30.0000011444092,0|0|0,1:0|0:0|0:0,0:0:0:0:
84,44,141977,2,0,B|91:58|91:58|84:88|84:88|96:120,2,60.0000022888184,0|0|8,0:0|0:0|0:0,0:0:0:0:
140,196,142302,1,0,0:0:0:0:
152,184,142383,1,0,1:0:0:0:
164,172,142464,2,0,L|172:228,1,30.0000011444092,2|0,0:1|0:0,0:0:0:0:
176,160,142545,2,0,L|184:216,1,30.0000011444092,2|0,0:1|0:0,0:0:0:0:
188,148,142626,1,2,1:0:0:0:
72,368,142788,6,0,B|60:256|60:256|76:273|120:288,1,160,12|0,0:0|0:0,0:0:0:0:
288,140,143113,2,0,B|280:228|280:228|308:200|352:192,1,160,4|0,1:2|0:0,0:0:0:0:
344,64,143437,1,8,0:0:0:0:
364,80,143518,1,0,0:0:0:0:
389,88,143599,1,0,0:0:0:0:
415,84,143680,1,0,1:0:0:0:
440,72,143761,2,0,L|443:34,6,30.0000011444092
460,92,144086,2,0,B|450:120|468:144|468:144|447:185,2,90.0000034332277,8|0|0,0:0|0:0|0:0,0:0:0:0:
416,248,144410,101,0,1:0:0:0:
212,84,144572,2,0,P|228:68|248:60,1,30.0000011444092,2|0,0:1|0:0,0:0:0:0:
408,268,144734,5,8,0:0:0:0:
214,64,144896,2,0,P|201:72|192:84,1,30.0000011444092,2|0,0:1|0:0,0:0:0:0:
400,288,145059,101,0,0:0:0:0:
72,40,145221,1,2,1:0:0:0:
84,56,145302,2,0,B|92:72|92:72|84:112|84:112|96:148,1,80,0|12,0:0|0:0,0:0:0:0:
40,320,145545,1,0,0:0:0:0:
28,304,145626,1,0,0:0:0:0:
16,288,145707,21,4,1:2:0:0:
26,250,145788,1,0,0:0:0:0:
57,225,145869,1,0,0:0:0:0:
96,225,145950,1,0,0:0:0:0:
124,216,146032,5,10,0:0:0:0:
122,255,146113,1,2,0:0:0:0:
121,295,146194,1,0,0:0:0:0:
120,335,146275,1,0,1:0:0:0:
144,360,146356,101,2,0:0:0:0:
192,356,146437,1,0,0:0:0:0:
224,320,146518,5,2,1:2:0:0:
272,324,146599,1,0,0:0:0:0:
304,360,146680,101,10,0:0:0:0:
352,356,146761,1,0,0:0:0:0:
384,320,146842,5,2,0:0:0:0:
432,324,146923,1,0,0:0:0:0:
448,340,147004,101,2,1:2:0:0:
348,144,147167,1,0,0:0:0:0:
340,156,147248,1,0,0:0:0:0:
332,168,147329,1,10,0:0:0:0:
350,202,147410,1,2,0:0:0:0:
386,218,147491,1,0,0:0:0:0:
424,209,147572,1,0,1:0:0:0:
460,224,147653,5,2,0:0:0:0:
441,189,147734,1,2,0:0:0:0:
443,149,147815,1,0,1:0:0:0:
466,117,147896,1,0,0:0:0:0:
504,96,147977,2,0,B|496:0|496:0|484:32|432:48,1,160,12|0,0:0|0:0,0:0:0:0:
224,80,148302,101,4,1:2:0:0:
250,50,148383,1,0,0:0:0:0:
288,40,148464,1,0,0:0:0:0:
325,53,148545,1,0,0:0:0:0:
352,84,148626,5,8,0:0:0:0:
348,123,148707,1,0,0:0:0:0:
344,163,148788,1,0,0:0:0:0:
341,203,148869,1,0,1:0:0:0:
368,236,148950,101,2,0:0:0:0:
343,205,149031,1,0,0:0:0:0:
306,191,149112,1,0,1:0:0:0:
267,198,149193,1,0,0:0:0:0:
236,221,149275,5,8,0:0:0:0:
197,228,149356,1,0,0:0:0:0:
160,214,149437,1,0,0:0:0:0:
136,184,149518,1,0,0:0:0:0:
128,144,149599,102,0,B|148:136|148:136|180:140|180:140|236:128,1,80,0|0,1:0|0:0,0:0:0:0:
376,72,149761,2,0,B|356:64|356:64|324:68|324:68|268:56,1,80,2|2,0:0|0:0,0:0:0:0:
24,52,149923,2,0,L|16:4,2,40,10|0|0,0:0|0:0|0:0,0:0:0:0:
44,60,150086,2,0,B|60:92|44:116|44:116|28:152|56:204,1,120,0|0,0:0|0:0,0:0:0:0:
36,192,150248,2,0,B|32:220|32:220|40:248|40:248|40:288,1,80,2|0,0:0|0:0,0:0:0:0:
296,152,150410,2,0,B|300:124|300:124|292:96|292:96|292:56,1,80,2|0,1:2|0:0,0:0:0:0:
364,216,150572,1,12,0:0:0:0:
160,16,150734,1,0,0:0:0:0:
172,28,150815,1,0,0:0:0:0:
184,40,150896,5,0,1:0:0:0:
195,67,150977,1,0,0:0:0:0:
191,96,151058,1,0,0:0:0:0:
173,120,151139,1,0,0:0:0:0:
146,131,151220,101,10,0:0:0:0:
216,212,151383,1,2,0:0:0:0:
204,224,151464,1,2,1:2:0:0:
192,236,151545,5,0,0:0:0:0:
175,271,151626,1,0,0:0:0:0:
185,308,151707,1,0,1:0:0:0:
218,329,151788,1,0,0:0:0:0:
208,352,151869,101,10,0:0:0:0:
247,346,151950,1,2,0:0:0:0:
287,341,152031,1,0,0:0:0:0:
327,336,152112,1,0,0:0:0:0:
360,304,152194,6,0,L|412:312,2,40,2|0|0,1:2|0:0|0:0,0:0:0:0:
412,296,152356,2,0,B|420:268|420:268|412:240|412:240|416:208,1,80,2|0,0:0|0:0,0:0:0:0:
348,8,152518,1,10,0:0:0:0:
334,30,152599,1,0,0:0:0:0:
332,56,152680,1,2,0:0:0:0:
342,81,152761,1,0,1:0:0:0:
364,96,152842,2,0,L|376:148,1,40,2|0,0:0|0:0,0:0:0:0:
384,88,152923,2,0,L|396:36,1,40,2|0,0:0|0:0,0:0:0:0:
404,80,153004,1,0,1:0:0:0:
308,208,153167,101,12,0:0:0:0:
286,191,153248,1,0,0:0:0:0:
261,184,153329,1,2,0:0:0:0:
235,186,153410,1,2,0:0:0:0:
208,200,153491,5,6,1:2:0:0:
223,163,153572,1,0,0:0:0:0:
221,123,153653,1,2,0:0:0:0:
202,88,153734,1,0,0:0:0:0:
168,56,153815,101,10,0:0:0:0:
204,71,153896,1,0,0:0:0:0:
244,69,153977,1,2,0:0:0:0:
279,50,154058,1,0,1:0:0:0:
296,8,154140,2,0,L|343:14,6,40,2|0|0|2|0|0|0,0:0|0:0|0:0|1:2|0:0|0:0|0:0,0:0:0:0:
368,40,154464,2,0,B|396:20|438:28|438:28|411:43|392:64,2,120,10|0|0,0:0|0:0|0:0,0:0:0:0:
468,112,154788,5,2,1:2:0:0:
80,64,154950,2,0,P|80:40|88:20,1,40,2|0,0:1|0:0,0:0:0:0:
484,96,155113,101,10,0:0:0:0:
68,40,155275,2,0,P|62:59|62:78,1,40,2|0,0:1|0:0,0:0:0:0:
504,80,155437,6,0,B|452:64|400:100|400:100|420:72|408:36,1,160,4|0,0:0|1:0,0:0:0:0:
312,148,155680,2,0,B|264:128|280:56|328:56|328:56|317:68|312:100,1,160,4|0,0:0|0:0,0:0:0:0:
392,188,155923,102,0,P|408:220|404:264,2,80,4|0|8,0:0|1:0|1:0,0:0:0:0:
