osu file format v14

[General]
AudioFilename: audio.mp3
AudioLeadIn: 0
PreviewTime: 45772
Countdown: 0
SampleSet: Normal
StackLeniency: 0.7
Mode: 1
LetterboxInBreaks: 0
WidescreenStoryboard: 0

[Editor]
Bookmarks: 78245,88624,99002,109380
DistanceSpacing: 0.9
BeatDivisor: 4
GridSize: 32
TimelineZoom: 1.7

[Metadata]
Title:Amphisbaena
TitleUnicode:Amphisbaena
Artist:Mitsuyoshi Takenobu no Ani
ArtistUnicode:光吉猛修の兄
Creator:Nifty
Version:Oni
Source:BMS
Tags:wub bofu2015 team grimoire of darkness TG-005 crossover orchestral
BeatmapID:1468372
BeatmapSetID:693993

[Difficulty]
HPDrainRate:5
CircleSize:2
OverallDifficulty:5
ApproachRate:10
SliderMultiplier:1.4
SliderTickRate:1

[Events]
//Background and Video events
0,0,"wow look at that.png",0,80
//Break Periods
2,5797,14228
2,26553,36282
2,99202,108930
2,119796,124498
2,125148,133579
//Storyboard Layer 0 (Background)
//Storyboard Layer 1 (Fail)
//Storyboard Layer 2 (Pass)
//Storyboard Layer 3 (Foreground)
//Storyboard Sound Samples

[TimingPoints]
5597,324.324324324324,4,1,0,100,1,0
5597,-62.5,4,1,0,100,0,0
5678,-200,4,1,0,15,0,0
15894,-125,4,1,0,60,0,0
26434,-200,4,1,0,15,0,0
36651,-125,4,1,0,60,0,0
47029,-66.6666666666667,4,1,0,80,0,0
47434,-100,4,1,0,80,0,0
57326,-90.9090909090909,4,1,0,80,0,0
67867,-90.9090909090909,4,1,0,80,0,1
99002,-90.9090909090909,4,1,0,80,0,0
99083,-200,4,1,0,15,0,0
109218,-125,4,1,0,80,0,0
119840,-200,4,1,0,15,0,0
124786,-200,4,1,0,80,0,0
125029,-200,4,1,0,15,0,0
133948,-100,4,1,0,80,0,0
145542,-90.9090909090909,4,1,0,80,0,0

[HitObjects]
256,128,5597,5,4,0:0:0:0:
256,192,14678,12,0,15813,0:0:0:0:
288,160,15975,5,0,0:0:0:0:
288,160,16299,1,0,0:0:0:0:
288,160,16461,1,0,0:0:0:0:
288,160,16624,1,8,0:0:0:0:
288,160,16948,1,8,0:0:0:0:
288,160,17110,1,0,0:0:0:0:
288,160,17272,1,0,0:0:0:0:
288,160,17596,1,0,0:0:0:0:
288,160,17921,1,8,0:0:0:0:
288,160,18245,1,0,0:0:0:0:
288,160,18407,1,8,0:0:0:0:
288,160,18569,1,0,0:0:0:0:
320,160,18894,1,0,0:0:0:0:
288,160,19056,1,0,0:0:0:0:
288,160,19218,1,8,0:0:0:0:
320,160,19542,1,8,0:0:0:0:
320,160,19705,1,0,0:0:0:0:
320,160,19786,1,0,0:0:0:0:
320,160,19867,1,0,0:0:0:0:
320,160,20110,1,0,0:0:0:0:
320,160,20353,1,0,0:0:0:0:
320,160,20515,1,8,0:0:0:0:
320,160,20840,1,0,0:0:0:0:
320,160,21002,1,0,0:0:0:0:
320,160,21164,1,0,0:0:0:0:
320,160,21488,1,0,0:0:0:0:
320,160,21651,1,0,0:0:0:0:
320,160,21813,1,8,0:0:0:0:
320,160,22137,1,8,0:0:0:0:
320,160,22299,1,0,0:0:0:0:
320,160,22461,1,0,0:0:0:0:
320,160,22786,1,0,0:0:0:0:
320,160,23110,1,8,0:0:0:0:
320,160,23434,1,0,0:0:0:0:
320,160,23596,1,8,0:0:0:0:
320,160,23759,1,0,0:0:0:0:
320,160,24083,1,0,0:0:0:0:
320,160,24245,1,0,0:0:0:0:
320,160,24407,1,8,0:0:0:0:
320,160,24732,1,8,0:0:0:0:
320,160,24894,1,0,0:0:0:0:
320,160,24975,1,0,0:0:0:0:
320,160,25056,1,0,0:0:0:0:
320,160,25299,1,0,0:0:0:0:
320,160,25542,1,0,0:0:0:0:
320,160,25705,1,8,0:0:0:0:
320,160,26029,1,8,0:0:0:0:
320,160,26191,1,0,0:0:0:0:
320,192,26353,1,0,0:0:0:0:
256,128,36732,5,4,0:0:0:0:
256,128,37056,1,0,0:0:0:0:
256,128,37218,1,0,0:0:0:0:
256,128,37380,1,8,0:0:0:0:
256,128,37705,1,8,0:0:0:0:
256,128,37867,1,0,0:0:0:0:
256,128,38029,1,0,0:0:0:0:
256,128,38191,1,8,0:0:0:0:
256,128,38353,1,0,0:0:0:0:
256,128,38678,1,8,0:0:0:0:
256,128,39002,1,8,0:0:0:0:
256,160,39164,1,8,0:0:0:0:
256,128,39326,1,0,0:0:0:0:
256,128,39651,1,0,0:0:0:0:
256,128,39813,1,0,0:0:0:0:
256,128,39975,1,8,0:0:0:0:
256,128,40299,1,0,0:0:0:0:
256,128,40461,1,8,0:0:0:0:
256,128,40624,1,0,0:0:0:0:
256,128,40786,1,8,0:0:0:0:
256,128,40948,1,8,0:0:0:0:
256,128,41272,1,8,0:0:0:0:
256,128,41596,1,8,0:0:0:0:
256,128,41759,1,8,0:0:0:0:
256,128,41921,1,0,0:0:0:0:
256,128,42245,1,0,0:0:0:0:
256,128,42407,1,0,0:0:0:0:
256,128,42569,1,8,0:0:0:0:
256,128,42894,1,0,0:0:0:0:
256,128,43056,1,8,0:0:0:0:
256,128,43218,1,0,0:0:0:0:
256,128,43380,1,0,0:0:0:0:
256,128,43542,1,8,0:0:0:0:
256,128,43867,1,8,0:0:0:0:
256,128,44191,1,8,0:0:0:0:
256,128,44353,1,8,0:0:0:0:
256,128,44515,1,0,0:0:0:0:
256,128,44840,1,0,0:0:0:0:
256,128,45002,1,0,0:0:0:0:
256,128,45164,1,8,0:0:0:0:
256,128,45488,1,8,0:0:0:0:
256,128,45651,1,0,0:0:0:0:
256,128,45813,1,8,0:0:0:0:
256,128,46137,1,0,0:0:0:0:
256,128,46218,1,8,0:0:0:0:
256,128,46299,1,0,0:0:0:0:
256,128,46380,1,0,0:0:0:0:
256,128,46461,1,8,0:0:0:0:
288,128,47110,1,4,0:0:0:0:
288,128,47434,1,8,0:0:0:0:
256,128,47596,1,0,0:0:0:0:
256,128,47678,1,8,0:0:0:0:
288,128,47759,1,0,0:0:0:0:
288,128,47840,1,0,0:0:0:0:
288,128,47921,1,8,0:0:0:0:
288,128,48083,1,0,0:0:0:0:
288,128,48164,1,8,0:0:0:0:
288,128,48326,1,8,0:0:0:0:
288,128,48407,1,0,0:0:0:0:
288,128,48569,1,0,0:0:0:0:
288,128,48732,1,8,0:0:0:0:
288,128,48894,1,0,0:0:0:0:
288,128,48975,1,8,0:0:0:0:
288,128,49056,1,0,0:0:0:0:
288,128,49218,1,0,0:0:0:0:
288,128,49380,1,12,0:0:0:0:
288,128,49705,1,12,0:0:0:0:
288,128,50029,1,8,0:0:0:0:
288,128,50191,1,0,0:0:0:0:
288,128,50272,1,0,0:0:0:0:
288,128,50353,1,8,0:0:0:0:
288,128,50515,1,0,0:0:0:0:
288,128,50678,1,8,0:0:0:0:
288,128,50840,1,0,0:0:0:0:
288,128,51002,1,0,0:0:0:0:
288,128,51083,1,8,0:0:0:0:
288,128,51164,1,0,0:0:0:0:
288,128,51326,1,8,0:0:0:0:
288,128,51488,1,8,0:0:0:0:
288,128,51569,1,8,0:0:0:0:
288,128,51651,1,0,0:0:0:0:
288,128,51813,1,0,0:0:0:0:
288,128,51975,1,12,0:0:0:0:
288,96,52299,1,0,0:0:0:0:
288,128,52624,1,8,0:0:0:0:
288,96,52786,1,0,0:0:0:0:
256,160,52867,1,0,0:0:0:0:
288,96,52948,1,0,0:0:0:0:
288,96,53110,1,8,0:0:0:0:
288,96,53272,1,8,0:0:0:0:
288,128,53353,1,8,0:0:0:0:
288,96,53434,1,0,0:0:0:0:
288,96,53596,1,8,0:0:0:0:
288,96,53921,1,8,0:0:0:0:
288,96,54083,1,0,0:0:0:0:
288,96,54164,1,0,0:0:0:0:
288,96,54245,1,8,0:0:0:0:
288,96,54326,1,8,0:0:0:0:
288,96,54407,1,0,0:0:0:0:
288,96,54569,1,12,0:0:0:0:
288,96,54894,1,12,0:0:0:0:
288,96,55218,1,8,0:0:0:0:
288,96,55380,1,0,0:0:0:0:
288,96,55461,1,0,0:0:0:0:
288,96,55542,1,8,0:0:0:0:
288,96,55705,1,0,0:0:0:0:
288,96,55867,1,8,0:0:0:0:
288,96,56029,1,0,0:0:0:0:
288,96,56110,1,8,0:0:0:0:
288,96,56191,1,0,0:0:0:0:
288,96,56353,1,8,0:0:0:0:
288,96,56515,1,0,0:0:0:0:
288,96,56678,1,8,0:0:0:0:
288,96,56759,1,0,0:0:0:0:
288,96,56840,1,8,0:0:0:0:
288,96,57002,1,0,0:0:0:0:
288,96,57164,1,12,0:0:0:0:
288,96,57407,1,8,0:0:0:0:
288,96,57488,1,0,0:0:0:0:
288,96,57651,1,0,0:0:0:0:
288,96,57732,1,8,0:0:0:0:
288,96,57813,1,0,0:0:0:0:
288,96,57975,1,8,0:0:0:0:
288,96,58137,1,0,0:0:0:0:
288,96,58218,1,0,0:0:0:0:
288,96,58299,1,8,0:0:0:0:
288,96,58461,1,8,0:0:0:0:
288,96,58542,1,0,0:0:0:0:
288,96,58705,1,0,0:0:0:0:
288,96,58786,1,0,0:0:0:0:
288,96,58948,1,0,0:0:0:0:
288,96,59110,1,8,0:0:0:0:
288,96,59191,1,0,0:0:0:0:
288,96,59272,1,8,0:0:0:0:
288,96,59434,1,0,0:0:0:0:
288,96,59515,1,0,0:0:0:0:
288,96,59596,1,8,0:0:0:0:
288,96,59759,1,12,0:0:0:0:
288,96,60083,1,12,0:0:0:0:
288,96,60245,1,0,0:0:0:0:
320,96,60407,1,8,0:0:0:0:
320,96,60569,1,0,0:0:0:0:
320,96,60651,1,8,0:0:0:0:
320,96,60732,1,8,0:0:0:0:
320,96,60894,1,0,0:0:0:0:
320,96,60975,1,0,0:0:0:0:
320,96,61056,1,8,0:0:0:0:
320,96,61218,1,0,0:0:0:0:
320,96,61380,1,0,0:0:0:0:
320,96,61461,1,8,0:0:0:0:
320,96,61542,1,0,0:0:0:0:
320,96,61624,1,0,0:0:0:0:
320,96,61705,1,8,0:0:0:0:
320,96,61867,1,0,0:0:0:0:
320,96,61948,1,0,0:0:0:0:
320,96,62029,1,0,0:0:0:0:
320,96,62191,1,0,0:0:0:0:
320,96,62353,1,12,0:0:0:0:
320,96,62678,1,0,0:0:0:0:
320,96,62840,1,0,0:0:0:0:
320,96,62921,1,0,0:0:0:0:
320,96,63002,1,8,0:0:0:0:
320,96,63164,1,8,0:0:0:0:
320,96,63245,1,0,0:0:0:0:
320,96,63326,1,0,0:0:0:0:
320,96,63488,1,8,0:0:0:0:
320,96,63651,1,8,0:0:0:0:
320,96,63732,1,8,0:0:0:0:
320,96,63813,1,0,0:0:0:0:
320,96,63975,1,8,0:0:0:0:
320,96,64137,1,0,0:0:0:0:
320,96,64218,1,0,0:0:0:0:
320,96,64299,1,8,0:0:0:0:
320,96,64461,1,0,0:0:0:0:
320,96,64624,1,8,0:0:0:0:
320,96,64705,1,8,0:0:0:0:
320,96,64786,1,0,0:0:0:0:
320,96,64948,1,12,0:0:0:0:
320,96,65272,1,12,0:0:0:0:
320,96,65434,1,0,0:0:0:0:
320,96,65515,1,0,0:0:0:0:
320,96,65596,1,8,0:0:0:0:
320,96,65678,1,8,0:0:0:0:
320,96,65759,1,0,0:0:0:0:
320,96,65921,1,8,0:0:0:0:
320,96,66083,1,0,0:0:0:0:
320,96,66164,1,8,0:0:0:0:
320,96,66245,1,8,0:0:0:0:
320,96,66407,1,0,0:0:0:0:
320,96,66569,1,0,0:0:0:0:
320,96,66732,1,8,0:0:0:0:
320,96,66894,1,0,0:0:0:0:
320,96,66975,1,0,0:0:0:0:
320,96,67056,1,8,0:0:0:0:
320,96,67218,1,0,0:0:0:0:
320,96,67461,1,8,0:0:0:0:
320,96,67705,1,8,0:0:0:0:
320,96,67867,1,4,0:0:0:0:
320,96,68191,1,8,0:0:0:0:
320,96,68353,1,8,0:0:0:0:
320,96,68434,1,8,0:0:0:0:
320,96,68515,1,0,0:0:0:0:
320,96,68678,1,8,0:0:0:0:
320,96,68759,1,8,0:0:0:0:
320,96,68840,1,0,0:0:0:0:
320,96,68921,1,0,0:0:0:0:
320,96,69002,1,8,0:0:0:0:
320,96,69164,1,8,0:0:0:0:
320,96,69326,1,8,0:0:0:0:
320,96,69407,1,0,0:0:0:0:
320,96,69488,1,8,0:0:0:0:
320,96,69651,1,0,0:0:0:0:
320,96,69732,1,0,0:0:0:0:
320,96,69813,1,8,0:0:0:0:
320,96,69894,1,0,0:0:0:0:
320,96,69975,1,8,0:0:0:0:
320,96,70137,1,0,0:0:0:0:
320,96,70299,1,8,0:0:0:0:
320,96,70380,1,8,0:0:0:0:
320,96,70461,1,0,0:0:0:0:
320,96,70624,1,0,0:0:0:0:
320,96,70786,1,8,0:0:0:0:
320,96,70867,1,0,0:0:0:0:
320,96,71029,1,0,0:0:0:0:
320,96,71110,1,8,0:0:0:0:
320,96,71272,1,0,0:0:0:0:
320,96,71353,1,0,0:0:0:0:
320,96,71434,1,8,0:0:0:0:
315,94,71596,1,0,0:0:0:0:
320,96,71759,1,0,0:0:0:0:
320,96,71840,1,0,0:0:0:0:
320,96,71921,1,8,0:0:0:0:
320,96,72083,1,8,0:0:0:0:
320,96,72245,1,0,0:0:0:0:
288,64,72407,1,0,0:0:0:0:
320,96,72569,1,8,0:0:0:0:
320,96,72651,1,0,0:0:0:0:
320,96,72732,1,8,0:0:0:0:
320,96,72894,1,0,0:0:0:0:
320,96,72975,1,0,0:0:0:0:
320,96,73056,1,8,0:0:0:0:
320,96,73380,1,8,0:0:0:0:
320,96,73542,1,0,0:0:0:0:
320,96,73705,1,0,0:0:0:0:
320,96,73786,1,8,0:0:0:0:
320,96,73867,1,0,0:0:0:0:
320,96,73948,1,0,0:0:0:0:
320,96,74029,1,8,0:0:0:0:
320,96,74191,1,8,0:0:0:0:
320,96,74272,1,0,0:0:0:0:
320,96,74353,1,8,0:0:0:0:
320,96,74515,1,0,0:0:0:0:
320,96,74678,1,8,0:0:0:0:
320,96,74840,1,0,0:0:0:0:
320,96,75002,1,8,0:0:0:0:
320,96,75083,1,0,0:0:0:0:
320,96,75164,1,0,0:0:0:0:
320,96,75326,1,8,0:0:0:0:
320,96,75488,1,0,0:0:0:0:
320,96,75569,1,8,0:0:0:0:
320,96,75651,1,0,0:0:0:0:
320,96,75813,1,0,0:0:0:0:
320,96,75894,1,0,0:0:0:0:
320,96,75975,1,8,0:0:0:0:
320,96,76056,1,8,0:0:0:0:
320,96,76137,1,0,0:0:0:0:
320,96,76299,1,8,0:0:0:0:
320,96,76380,1,0,0:0:0:0:
320,96,76461,1,8,0:0:0:0:
320,96,76624,1,0,0:0:0:0:
333,94,76705,1,0,0:0:0:0:
333,94,76786,1,8,0:0:0:0:
320,96,76948,1,0,0:0:0:0:
320,96,77110,1,0,0:0:0:0:
320,96,77272,1,0,0:0:0:0:
320,96,77434,1,0,0:0:0:0:
320,96,77596,1,0,0:0:0:0:
320,96,77678,1,0,0:0:0:0:
320,96,77759,1,0,0:0:0:0:
320,96,77840,1,0,0:0:0:0:
320,96,77921,1,0,0:0:0:0:
320,96,78002,1,0,0:0:0:0:
320,96,78083,1,0,0:0:0:0:
320,96,78164,1,0,0:0:0:0:
320,96,78245,1,0,0:0:0:0:
320,96,78569,1,8,0:0:0:0:
320,96,78732,1,0,0:0:0:0:
320,96,78813,1,0,0:0:0:0:
320,96,78894,1,8,0:0:0:0:
320,96,78975,1,8,0:0:0:0:
320,96,79056,1,0,0:0:0:0:
320,96,79218,1,8,0:0:0:0:
320,96,79380,1,0,0:0:0:0:
320,96,79461,1,0,0:0:0:0:
320,96,79542,1,8,0:0:0:0:
320,96,79786,1,0,0:0:0:0:
320,128,79867,1,8,0:0:0:0:
320,128,80029,1,8,0:0:0:0:
320,128,80191,1,0,0:0:0:0:
288,160,80353,1,8,0:0:0:0:
288,160,80515,1,0,0:0:0:0:
320,96,80678,1,8,0:0:0:0:
320,96,80840,1,8,0:0:0:0:
320,96,81002,1,0,0:0:0:0:
320,96,81164,1,8,0:0:0:0:
320,96,81326,1,0,0:0:0:0:
320,96,81407,1,0,0:0:0:0:
320,96,81488,1,8,0:0:0:0:
320,96,81651,1,0,0:0:0:0:
320,96,81813,1,8,0:0:0:0:
320,96,81975,1,8,0:0:0:0:
320,96,82137,1,0,0:0:0:0:
320,96,82461,1,8,0:0:0:0:
320,64,82624,1,0,0:0:0:0:
320,64,82705,1,8,0:0:0:0:
320,96,82786,1,0,0:0:0:0:
320,96,82948,1,0,0:0:0:0:
320,96,83029,1,0,0:0:0:0:
320,96,83110,1,8,0:0:0:0:
320,96,83191,1,8,0:0:0:0:
320,96,83272,1,0,0:0:0:0:
320,96,83434,1,8,0:0:0:0:
320,96,83759,1,8,0:0:0:0:
320,96,83921,1,0,0:0:0:0:
320,96,84002,1,0,0:0:0:0:
320,96,84083,1,8,0:0:0:0:
320,96,84245,1,0,0:0:0:0:
320,96,84407,1,8,0:0:0:0:
320,96,84488,1,8,0:0:0:0:
320,96,84569,1,0,0:0:0:0:
320,96,84732,1,8,0:0:0:0:
320,96,84894,1,0,0:0:0:0:
320,96,85056,1,8,0:0:0:0:
320,96,85218,1,0,0:0:0:0:
320,96,85299,1,8,0:0:0:0:
320,96,85380,1,0,0:0:0:0:
320,96,85542,1,0,0:0:0:0:
320,96,85705,1,8,0:0:0:0:
320,96,85786,1,0,0:0:0:0:
320,96,85867,1,8,0:0:0:0:
320,96,86029,1,0,0:0:0:0:
320,96,86353,1,8,0:0:0:0:
320,96,86515,1,0,0:0:0:0:
320,96,86596,1,0,0:0:0:0:
320,96,86678,1,8,0:0:0:0:
320,96,86840,1,0,0:0:0:0:
320,96,87002,1,8,0:0:0:0:
320,96,87164,1,8,0:0:0:0:
320,96,87245,1,0,0:0:0:0:
320,96,87326,1,8,0:0:0:0:
320,96,87488,1,0,0:0:0:0:
320,96,87569,1,0,0:0:0:0:
320,96,87651,1,8,0:0:0:0:
320,96,87813,1,8,0:0:0:0:
320,96,87975,1,0,0:0:0:0:
320,96,88056,1,0,0:0:0:0:
320,96,88137,1,8,0:0:0:0:
320,96,88299,1,8,0:0:0:0:
320,96,88380,1,8,0:0:0:0:
320,128,88461,1,0,0:0:0:0:
320,128,88542,1,0,0:0:0:0:
320,96,88624,1,8,0:0:0:0:
320,96,88948,1,8,0:0:0:0:
320,96,89110,1,0,0:0:0:0:
320,96,89191,1,0,0:0:0:0:
320,96,89272,1,8,0:0:0:0:
320,128,89353,1,8,0:0:0:0:
320,96,89434,1,0,0:0:0:0:
320,96,89596,1,8,0:0:0:0:
320,96,89759,1,0,0:0:0:0:
320,96,89840,1,0,0:0:0:0:
320,96,89921,1,8,0:0:0:0:
320,96,90245,1,8,0:0:0:0:
320,96,90407,1,8,0:0:0:0:
320,96,90569,1,0,0:0:0:0:
320,96,90732,1,0,0:0:0:0:
320,96,90894,1,8,0:0:0:0:
320,96,91056,1,0,0:0:0:0:
320,96,91218,1,8,0:0:0:0:
320,96,91542,1,8,0:0:0:0:
320,96,91705,1,8,0:0:0:0:
320,96,91867,1,0,0:0:0:0:
320,96,92029,1,0,0:0:0:0:
320,96,92110,1,0,0:0:0:0:
320,96,92191,1,8,0:0:0:0:
352,96,92353,1,0,0:0:0:0:
352,96,92434,1,8,0:0:0:0:
320,96,92515,1,0,0:0:0:0:
320,96,92678,1,0,0:0:0:0:
320,96,92840,1,8,0:0:0:0:
320,96,93002,1,0,0:0:0:0:
320,96,93083,1,0,0:0:0:0:
320,96,93164,1,8,0:0:0:0:
320,96,93326,1,0,0:0:0:0:
320,96,93407,1,0,0:0:0:0:
320,96,93488,1,8,0:0:0:0:
301,98,93569,1,8,0:0:0:0:
301,98,93651,1,0,0:0:0:0:
320,96,93813,1,8,0:0:0:0:
352,96,94137,1,8,0:0:0:0:
320,96,94299,1,8,0:0:0:0:
320,96,94461,1,0,0:0:0:0:
320,96,94624,1,0,0:0:0:0:
320,96,94786,1,8,0:0:0:0:
320,96,94948,1,0,0:0:0:0:
320,96,95029,1,8,0:0:0:0:
320,96,95110,1,0,0:0:0:0:
320,96,95272,1,0,0:0:0:0:
320,96,95434,1,8,0:0:0:0:
320,96,95596,1,0,0:0:0:0:
320,96,95759,1,8,0:0:0:0:
320,96,95921,1,0,0:0:0:0:
320,96,96083,1,8,0:0:0:0:
320,96,96164,1,8,0:0:0:0:
320,96,96245,1,0,0:0:0:0:
320,96,96326,1,0,0:0:0:0:
320,96,96407,1,8,0:0:0:0:
320,96,96732,1,8,0:0:0:0:
320,96,96894,1,8,0:0:0:0:
320,96,97056,1,0,0:0:0:0:
320,96,97218,1,8,0:0:0:0:
320,96,97299,1,8,0:0:0:0:
320,96,97380,1,0,0:0:0:0:
320,96,97542,1,8,0:0:0:0:
320,96,97624,1,0,0:0:0:0:
320,96,97705,1,8,0:0:0:0:
320,96,97867,1,0,0:0:0:0:
320,96,98029,1,0,0:0:0:0:
320,96,98191,1,0,0:0:0:0:
288,64,98353,1,0,0:0:0:0:
288,96,98434,1,0,0:0:0:0:
288,96,98515,1,0,0:0:0:0:
288,96,98678,1,0,0:0:0:0:
288,96,98759,1,0,0:0:0:0:
288,96,98840,1,0,0:0:0:0:
288,96,98921,1,0,0:0:0:0:
288,96,99002,1,8,0:0:0:0:
224,192,109380,5,0,0:0:0:0:
224,192,110029,1,8,0:0:0:0:
224,160,110515,1,0,0:0:0:0:
224,160,110678,1,0,0:0:0:0:
224,160,111002,1,0,0:0:0:0:
224,192,111326,1,8,0:0:0:0:
224,192,111975,1,0,0:0:0:0:
256,160,112461,1,0,0:0:0:0:
256,160,112624,1,8,0:0:0:0:
256,128,113110,1,0,0:0:0:0:
256,128,113191,1,0,0:0:0:0:
256,128,113272,1,0,0:0:0:0:
256,128,113515,1,0,0:0:0:0:
256,128,113759,1,0,0:0:0:0:
256,128,113921,1,8,0:0:0:0:
256,128,114245,1,0,0:0:0:0:
256,128,114407,1,0,0:0:0:0:
256,128,114569,1,0,0:0:0:0:
256,128,115218,1,8,0:0:0:0:
256,128,115705,1,0,0:0:0:0:
256,128,115867,1,0,0:0:0:0:
256,128,116191,1,0,0:0:0:0:
256,128,116515,1,8,0:0:0:0:
256,128,117164,1,0,0:0:0:0:
256,128,117651,1,0,0:0:0:0:
256,128,117813,1,8,0:0:0:0:
256,128,118299,1,0,0:0:0:0:
256,128,118380,1,0,0:0:0:0:
256,128,118461,1,0,0:0:0:0:
256,128,118705,1,0,0:0:0:0:
256,128,118948,1,0,0:0:0:0:
256,128,119110,1,8,0:0:0:0:
256,128,119434,1,0,0:0:0:0:
256,128,119596,1,0,0:0:0:0:
256,160,124948,5,0,0:0:0:0:
256,160,134029,5,8,0:0:0:0:
256,160,134191,1,0,0:0:0:0:
256,160,134272,1,0,0:0:0:0:
256,160,134353,1,0,0:0:0:0:
256,160,134434,1,0,0:0:0:0:
256,160,134515,1,8,0:0:0:0:
256,160,134678,1,0,0:0:0:0:
256,160,134759,1,0,0:0:0:0:
256,160,134840,1,0,0:0:0:0:
256,160,134921,1,0,0:0:0:0:
256,160,135002,1,0,0:0:0:0:
256,128,135326,1,4,0:0:0:0:
256,128,135651,1,8,0:0:0:0:
256,128,135813,1,0,0:0:0:0:
256,128,135975,1,0,0:0:0:0:
224,128,136056,1,0,0:0:0:0:
224,128,136137,1,8,0:0:0:0:
224,128,136299,1,0,0:0:0:0:
256,128,136380,1,8,0:0:0:0:
256,128,136542,1,8,0:0:0:0:
256,128,136624,1,0,0:0:0:0:
256,128,136786,1,0,0:0:0:0:
256,128,136948,1,8,0:0:0:0:
256,128,137110,1,0,0:0:0:0:
256,128,137191,1,8,0:0:0:0:
256,128,137272,1,0,0:0:0:0:
256,128,137434,1,0,0:0:0:0:
256,128,137596,1,12,0:0:0:0:
256,128,137921,1,12,0:0:0:0:
256,128,138245,1,8,0:0:0:0:
256,128,138407,1,0,0:0:0:0:
256,128,138488,1,8,0:0:0:0:
256,128,138569,1,8,0:0:0:0:
256,128,138732,1,0,0:0:0:0:
256,128,138894,1,8,0:0:0:0:
256,128,139056,1,0,0:0:0:0:
256,128,139137,1,8,0:0:0:0:
256,128,139218,1,0,0:0:0:0:
256,128,139380,1,8,0:0:0:0:
256,128,139542,1,0,0:0:0:0:
256,128,139624,1,0,0:0:0:0:
256,128,139705,1,8,0:0:0:0:
256,128,139786,1,0,0:0:0:0:
256,128,139948,1,0,0:0:0:0:
256,128,140029,1,8,0:0:0:0:
256,96,140191,1,12,0:0:0:0:
256,128,140515,1,0,0:0:0:0:
256,96,140840,1,8,0:0:0:0:
256,96,141002,1,0,0:0:0:0:
256,96,141083,1,0,0:0:0:0:
256,96,141164,1,8,0:0:0:0:
256,96,141326,1,0,0:0:0:0:
256,96,141488,1,8,0:0:0:0:
256,96,141651,1,8,0:0:0:0:
256,96,141813,1,0,0:0:0:0:
256,96,142137,1,8,0:0:0:0:
256,96,142299,1,0,0:0:0:0:
256,96,142380,1,0,0:0:0:0:
256,96,142461,1,8,0:0:0:0:
256,96,142542,1,8,0:0:0:0:
256,96,142624,1,0,0:0:0:0:
256,96,142786,1,12,0:0:0:0:
256,96,143110,1,12,0:0:0:0:
256,96,143434,1,8,0:0:0:0:
256,96,143596,1,0,0:0:0:0:
256,96,143678,1,8,0:0:0:0:
256,96,143759,1,0,0:0:0:0:
256,96,143921,1,0,0:0:0:0:
256,96,144083,1,8,0:0:0:0:
256,96,144245,1,0,0:0:0:0:
256,96,144407,1,0,0:0:0:0:
256,96,144488,1,0,0:0:0:0:
256,96,144569,1,8,0:0:0:0:
256,96,144732,1,8,0:0:0:0:
256,96,144894,1,0,0:0:0:0:
256,96,144975,1,8,0:0:0:0:
256,96,145056,1,0,0:0:0:0:
256,96,145218,1,0,0:0:0:0:
256,96,145380,1,12,0:0:0:0:
288,96,145624,1,8,0:0:0:0:
288,96,145705,1,0,0:0:0:0:
288,96,145868,1,0,0:0:0:0:
288,96,145949,1,8,0:0:0:0:
288,96,146030,1,0,0:0:0:0:
288,96,146192,1,8,0:0:0:0:
288,96,146273,1,8,0:0:0:0:
288,96,146354,1,0,0:0:0:0:
288,96,146435,1,0,0:0:0:0:
288,96,146516,1,8,0:0:0:0:
288,96,146678,1,8,0:0:0:0:
288,96,146759,1,0,0:0:0:0:
288,96,146922,1,0,0:0:0:0:
288,96,147003,1,0,0:0:0:0:
288,96,147165,1,0,0:0:0:0:
288,96,147327,1,8,0:0:0:0:
288,96,147408,1,0,0:0:0:0:
288,96,147489,1,8,0:0:0:0:
288,96,147651,1,0,0:0:0:0:
288,96,147732,1,0,0:0:0:0:
288,96,147813,1,8,0:0:0:0:
288,96,147976,1,12,0:0:0:0:
288,96,148300,1,12,0:0:0:0:
288,96,148462,1,0,0:0:0:0:
320,96,148624,1,8,0:0:0:0:
320,96,148786,1,0,0:0:0:0:
320,96,148868,1,8,0:0:0:0:
320,96,148949,1,8,0:0:0:0:
320,96,149111,1,0,0:0:0:0:
320,96,149192,1,0,0:0:0:0:
320,96,149273,1,8,0:0:0:0:
320,96,149435,1,0,0:0:0:0:
320,96,149597,1,0,0:0:0:0:
320,96,149678,1,8,0:0:0:0:
320,96,149759,1,0,0:0:0:0:
320,96,149922,1,8,0:0:0:0:
320,96,150084,1,0,0:0:0:0:
320,96,150165,1,8,0:0:0:0:
320,96,150246,1,0,0:0:0:0:
320,96,150408,1,0,0:0:0:0:
320,96,150570,1,12,0:0:0:0:
320,96,150895,1,0,0:0:0:0:
320,96,151057,1,0,0:0:0:0:
320,96,151138,1,0,0:0:0:0:
320,96,151219,1,8,0:0:0:0:
320,96,151381,1,0,0:0:0:0:
320,96,151462,1,8,0:0:0:0:
320,96,151543,1,0,0:0:0:0:
320,96,151624,1,0,0:0:0:0:
320,96,151705,1,8,0:0:0:0:
320,96,151868,1,8,0:0:0:0:
320,96,152030,1,0,0:0:0:0:
320,96,152111,1,8,0:0:0:0:
320,96,152192,1,0,0:0:0:0:
320,96,152354,1,8,0:0:0:0:
320,96,152435,1,0,0:0:0:0:
320,96,152516,1,8,0:0:0:0:
320,96,152678,1,0,0:0:0:0:
320,96,152841,1,8,0:0:0:0:
320,96,152922,1,8,0:0:0:0:
320,96,153003,1,0,0:0:0:0:
320,96,153165,1,12,0:0:0:0:
320,96,153489,1,12,0:0:0:0:
320,96,153651,1,0,0:0:0:0:
320,96,153732,1,0,0:0:0:0:
320,96,153813,1,8,0:0:0:0:
320,96,153895,1,8,0:0:0:0:
320,96,153976,1,0,0:0:0:0:
320,96,154138,1,0,0:0:0:0:
320,96,154300,1,0,0:0:0:0:
320,96,154381,1,8,0:0:0:0:
320,96,154462,1,8,0:0:0:0:
320,96,154624,1,0,0:0:0:0:
320,96,154786,1,0,0:0:0:0:
320,96,154868,1,0,0:0:0:0:
320,96,154949,1,8,0:0:0:0:
320,96,155111,1,8,0:0:0:0:
320,96,155192,1,0,0:0:0:0:
320,96,155273,1,8,0:0:0:0:
304,94,155434,1,0,0:0:0:0:
320,96,155678,1,8,0:0:0:0:
320,96,155921,1,8,0:0:0:0:
320,96,156083,1,4,0:0:0:0:
