osu file format v14

[General]
AudioFilename: audio.mp3
AudioLeadIn: 0
PreviewTime: 45772
Countdown: 0
SampleSet: Normal
StackLeniency: 0.7
Mode: 1
LetterboxInBreaks: 0
WidescreenStoryboard: 0

[Editor]
Bookmarks: 78245,88624,99002,109380
DistanceSpacing: 0.9
BeatDivisor: 4
GridSize: 32
TimelineZoom: 1.8

[Metadata]
Title:Amphisbaena
TitleUnicode:Amphisbaena
Artist:Mitsuyoshi Takenobu no Ani
ArtistUnicode:光吉猛修の兄
Creator:Nifty
Version:Muzukashii
Source:BMS
Tags:wub bofu2015 team grimoire of darkness TG-005 crossover orchestral
BeatmapID:1468371
BeatmapSetID:693993

[Difficulty]
HPDrainRate:6
CircleSize:2
OverallDifficulty:4.5
ApproachRate:10
SliderMultiplier:1.4
SliderTickRate:1

[Events]
//Background and Video events
0,0,"wow look at that.png",0,80
//Break Periods
2,5797,14228
2,26553,36282
2,99202,108930
2,119796,124498
2,125148,133579
//Storyboard Layer 0 (Background)
//Storyboard Layer 1 (Fail)
//Storyboard Layer 2 (Pass)
//Storyboard Layer 3 (Foreground)
//Storyboard Sound Samples

[TimingPoints]
5597,324.324324324324,4,1,0,100,1,0
5597,-83.3333333333333,4,1,0,100,0,0
5678,-200,4,1,0,15,0,0
15894,-125,4,1,0,60,0,0
26434,-200,4,1,0,15,0,0
36651,-125,4,1,0,60,0,0
47029,-100,4,1,0,80,0,0
67867,-100,4,1,0,80,0,1
99002,-100,4,1,0,80,0,0
99083,-200,4,1,0,15,0,0
109218,-125,4,1,0,80,0,0
119840,-200,4,1,0,15,0,0
124786,-200,4,1,0,80,0,0
125029,-200,4,1,0,15,0,0
133948,-100,4,1,0,80,0,0

[HitObjects]
256,128,5597,5,4,0:0:0:0:
256,192,14678,12,0,15813,0:0:0:0:
288,160,15975,5,0,0:0:0:0:
288,160,16299,1,0,0:0:0:0:
288,160,16624,1,8,0:0:0:0:
288,160,16948,1,8,0:0:0:0:
288,160,17110,1,0,0:0:0:0:
288,160,17272,1,0,0:0:0:0:
288,160,17596,1,0,0:0:0:0:
288,160,17921,1,8,0:0:0:0:
288,160,18245,1,0,0:0:0:0:
288,160,18407,1,8,0:0:0:0:
288,160,18569,1,0,0:0:0:0:
320,160,18894,1,0,0:0:0:0:
288,160,19218,1,8,0:0:0:0:
320,160,19542,1,8,0:0:0:0:
320,160,19705,1,0,0:0:0:0:
320,160,19867,1,0,0:0:0:0:
320,160,20110,1,0,0:0:0:0:
320,160,20353,1,0,0:0:0:0:
320,160,20515,1,8,0:0:0:0:
320,160,20840,1,0,0:0:0:0:
320,160,21002,1,0,0:0:0:0:
320,160,21164,1,0,0:0:0:0:
320,160,21488,1,0,0:0:0:0:
320,160,21813,1,8,0:0:0:0:
320,160,22137,1,8,0:0:0:0:
320,160,22299,1,0,0:0:0:0:
320,160,22461,1,0,0:0:0:0:
320,160,22786,1,0,0:0:0:0:
320,160,23110,1,8,0:0:0:0:
320,160,23434,1,0,0:0:0:0:
320,160,23596,1,8,0:0:0:0:
320,160,23759,1,0,0:0:0:0:
320,160,24083,1,0,0:0:0:0:
320,160,24407,1,8,0:0:0:0:
320,160,24732,1,8,0:0:0:0:
320,160,24894,1,0,0:0:0:0:
320,160,25056,1,0,0:0:0:0:
320,160,25299,1,0,0:0:0:0:
320,160,25542,1,0,0:0:0:0:
320,160,25705,1,8,0:0:0:0:
320,160,26029,1,8,0:0:0:0:
320,160,26191,1,0,0:0:0:0:
256,192,26353,1,0,0:0:0:0:
256,128,36732,5,4,0:0:0:0:
256,128,37056,1,0,0:0:0:0:
256,128,37380,1,8,0:0:0:0:
256,128,37705,1,8,0:0:0:0:
256,128,37867,1,0,0:0:0:0:
256,128,38191,1,8,0:0:0:0:
256,128,38353,1,0,0:0:0:0:
256,128,38515,1,0,0:0:0:0:
256,128,38678,1,8,0:0:0:0:
256,128,39002,1,8,0:0:0:0:
256,160,39164,1,8,0:0:0:0:
256,128,39326,1,0,0:0:0:0:
256,128,39651,1,0,0:0:0:0:
256,128,39975,1,8,0:0:0:0:
256,128,40299,1,0,0:0:0:0:
256,128,40461,1,8,0:0:0:0:
256,128,40786,1,8,0:0:0:0:
256,128,40948,1,8,0:0:0:0:
256,128,41110,1,0,0:0:0:0:
256,128,41272,1,8,0:0:0:0:
256,128,41596,1,8,0:0:0:0:
256,128,41759,1,8,0:0:0:0:
256,128,41921,1,0,0:0:0:0:
256,128,42245,1,0,0:0:0:0:
256,128,42569,1,8,0:0:0:0:
256,128,42894,1,0,0:0:0:0:
256,128,43056,1,8,0:0:0:0:
256,128,43380,1,0,0:0:0:0:
256,128,43542,1,8,0:0:0:0:
256,128,43705,1,0,0:0:0:0:
256,128,43867,1,8,0:0:0:0:
256,128,44191,1,8,0:0:0:0:
256,128,44353,1,8,0:0:0:0:
256,128,44515,1,0,0:0:0:0:
256,128,44840,1,0,0:0:0:0:
256,128,45164,1,8,0:0:0:0:
256,128,45488,1,8,0:0:0:0:
256,128,45651,1,0,0:0:0:0:
256,128,45813,1,8,0:0:0:0:
256,128,46137,1,0,0:0:0:0:
256,160,46218,1,0,0:0:0:0:
256,128,46299,1,0,0:0:0:0:
256,128,46461,1,8,0:0:0:0:
288,128,47110,1,4,0:0:0:0:
288,128,47435,1,8,0:0:0:0:
288,128,47597,1,0,0:0:0:0:
288,128,47759,1,0,0:0:0:0:
288,128,47840,1,0,0:0:0:0:
288,128,47921,1,0,0:0:0:0:
288,128,48083,1,8,0:0:0:0:
288,128,48408,1,0,0:0:0:0:
288,128,48570,1,0,0:0:0:0:
288,128,48732,1,8,0:0:0:0:
288,128,48894,1,0,0:0:0:0:
288,128,49056,1,0,0:0:0:0:
288,128,49380,1,12,0:0:0:0:
288,128,49705,1,12,0:0:0:0:
297,117,50353,1,8,0:0:0:0:
288,128,50516,1,0,0:0:0:0:
288,128,50678,1,8,0:0:0:0:
288,128,51002,1,0,0:0:0:0:
288,128,51083,1,0,0:0:0:0:
288,128,51164,1,0,0:0:0:0:
288,128,51326,1,8,0:0:0:0:
288,128,51488,1,0,0:0:0:0:
288,128,51651,1,8,0:0:0:0:
288,128,51813,1,0,0:0:0:0:
288,128,51975,1,12,0:0:0:0:
288,128,52299,1,0,0:0:0:0:
288,128,52624,1,8,0:0:0:0:
288,128,52786,1,0,0:0:0:0:
288,160,52867,1,0,0:0:0:0:
288,128,52948,1,0,0:0:0:0:
288,128,53110,1,0,0:0:0:0:
288,128,53272,1,8,0:0:0:0:
288,128,53435,1,8,0:0:0:0:
288,128,53597,1,0,0:0:0:0:
288,128,53921,1,8,0:0:0:0:
288,96,54083,1,0,0:0:0:0:
288,128,54245,1,8,0:0:0:0:
288,128,54326,1,8,0:0:0:0:
288,128,54408,1,8,0:0:0:0:
288,128,54570,1,12,0:0:0:0:
288,128,54894,1,12,0:0:0:0:
288,128,55543,1,0,0:0:0:0:
288,128,55705,1,0,0:0:0:0:
288,128,55867,1,8,0:0:0:0:
288,128,56191,1,0,0:0:0:0:
288,128,56353,1,8,0:0:0:0:
288,128,56516,1,0,0:0:0:0:
288,128,56678,1,8,0:0:0:0:
288,128,56840,1,8,0:0:0:0:
288,128,57002,1,0,0:0:0:0:
288,128,57164,5,12,0:0:0:0:
288,96,57488,5,0,0:0:0:0:
288,96,57651,1,0,0:0:0:0:
288,96,57813,1,8,0:0:0:0:
288,96,57975,1,8,0:0:0:0:
288,96,58137,1,0,0:0:0:0:
288,96,58218,1,0,0:0:0:0:
288,96,58299,1,0,0:0:0:0:
288,96,58461,1,8,0:0:0:0:
288,96,58786,1,0,0:0:0:0:
288,96,58948,1,0,0:0:0:0:
288,96,59110,1,8,0:0:0:0:
288,96,59272,1,0,0:0:0:0:
265,94,59434,1,0,0:0:0:0:
288,96,59759,1,12,0:0:0:0:
288,96,60083,1,12,0:0:0:0:
320,96,60732,1,0,0:0:0:0:
320,96,60894,1,0,0:0:0:0:
320,96,61056,1,8,0:0:0:0:
320,96,61380,1,0,0:0:0:0:
320,96,61461,1,0,0:0:0:0:
320,96,61542,1,0,0:0:0:0:
320,96,61705,1,8,0:0:0:0:
320,96,61867,1,0,0:0:0:0:
320,96,62029,1,0,0:0:0:0:
320,96,62191,1,0,0:0:0:0:
320,96,62353,1,12,0:0:0:0:
320,96,62678,1,0,0:0:0:0:
320,96,62840,1,0,0:0:0:0:
320,96,63002,1,8,0:0:0:0:
320,96,63164,1,0,0:0:0:0:
320,96,63326,1,0,0:0:0:0:
320,96,63488,1,8,0:0:0:0:
320,96,63651,1,8,0:0:0:0:
320,96,63975,1,0,0:0:0:0:
320,96,64299,1,8,0:0:0:0:
320,96,64461,1,0,0:0:0:0:
320,96,64624,1,0,0:0:0:0:
320,96,64705,1,0,0:0:0:0:
320,96,64786,1,0,0:0:0:0:
320,96,64948,1,12,0:0:0:0:
320,96,65272,1,12,0:0:0:0:
320,96,65921,1,0,0:0:0:0:
320,96,66083,1,0,0:0:0:0:
320,96,66245,1,8,0:0:0:0:
320,96,66569,1,0,0:0:0:0:
320,96,66732,1,8,0:0:0:0:
320,96,66894,1,0,0:0:0:0:
320,96,67056,1,8,0:0:0:0:
320,96,67218,1,0,0:0:0:0:
320,96,67461,1,8,0:0:0:0:
320,96,67705,1,8,0:0:0:0:
320,96,67867,1,4,0:0:0:0:
320,96,68191,1,8,0:0:0:0:
320,96,68353,1,0,0:0:0:0:
320,96,68434,1,0,0:0:0:0:
320,96,68515,1,0,0:0:0:0:
320,96,68678,1,0,0:0:0:0:
320,96,68840,1,8,0:0:0:0:
320,96,69002,1,0,0:0:0:0:
320,96,69164,1,0,0:0:0:0:
320,96,69488,1,8,0:0:0:0:
320,96,69651,1,0,0:0:0:0:
320,96,69813,1,8,0:0:0:0:
320,96,70137,1,8,0:0:0:0:
320,96,70299,1,0,0:0:0:0:
320,96,70461,1,0,0:0:0:0:
320,96,70786,1,8,0:0:0:0:
320,96,70948,1,0,0:0:0:0:
320,96,71110,1,0,0:0:0:0:
320,96,71272,1,8,0:0:0:0:
320,96,71434,1,8,0:0:0:0:
320,96,71759,1,0,0:0:0:0:
320,96,71921,1,0,0:0:0:0:
320,96,72083,1,8,0:0:0:0:
320,96,72245,1,0,0:0:0:0:
320,96,72569,1,8,0:0:0:0:
320,96,72651,1,8,0:0:0:0:
320,96,72732,1,8,0:0:0:0:
320,96,72894,1,8,0:0:0:0:
320,96,73056,1,0,0:0:0:0:
320,96,73380,1,8,0:0:0:0:
320,96,73705,1,0,0:0:0:0:
320,96,73867,1,0,0:0:0:0:
320,96,74029,1,8,0:0:0:0:
320,96,74191,1,0,0:0:0:0:
320,96,74272,1,0,0:0:0:0:
320,96,74353,1,0,0:0:0:0:
320,96,74678,1,8,0:0:0:0:
320,96,74840,1,0,0:0:0:0:
320,96,75002,1,0,0:0:0:0:
320,96,75164,1,0,0:0:0:0:
320,96,75326,1,8,0:0:0:0:
320,96,75488,1,0,0:0:0:0:
320,96,75651,1,0,0:0:0:0:
320,96,75975,1,8,0:0:0:0:
320,96,76299,1,0,0:0:0:0:
320,96,76461,1,0,0:0:0:0:
320,96,76542,1,0,0:0:0:0:
320,96,76624,1,0,0:0:0:0:
320,96,76786,1,0,0:0:0:0:
320,96,76948,1,8,0:0:0:0:
320,96,77272,1,0,0:0:0:0:
320,96,77434,1,0,0:0:0:0:
320,96,77596,1,0,0:0:0:0:
320,96,77678,1,0,0:0:0:0:
320,96,77759,1,0,0:0:0:0:
320,96,77921,1,0,0:0:0:0:
320,96,78083,1,0,0:0:0:0:
320,96,78164,1,0,0:0:0:0:
320,96,78245,1,0,0:0:0:0:
320,96,78894,1,8,0:0:0:0:
320,96,79056,1,0,0:0:0:0:
320,96,79218,1,8,0:0:0:0:
320,96,79542,1,0,0:0:0:0:
288,96,79867,1,8,0:0:0:0:
288,96,80029,1,8,0:0:0:0:
288,96,80191,1,0,0:0:0:0:
288,96,80353,1,8,0:0:0:0:
288,96,80515,1,0,0:0:0:0:
288,96,80678,1,8,0:0:0:0:
288,96,80840,1,8,0:0:0:0:
288,96,81164,1,8,0:0:0:0:
288,96,81326,1,0,0:0:0:0:
288,96,81407,1,0,0:0:0:0:
288,96,81488,1,0,0:0:0:0:
288,96,81651,1,0,0:0:0:0:
288,96,81813,1,8,0:0:0:0:
288,96,82137,1,0,0:0:0:0:
288,96,82299,1,8,0:0:0:0:
288,96,82461,1,8,0:0:0:0:
288,96,82624,1,0,0:0:0:0:
284,89,82786,1,8,0:0:0:0:
288,96,82948,1,0,0:0:0:0:
288,96,83110,1,0,0:0:0:0:
288,96,83191,1,0,0:0:0:0:
288,96,83272,1,0,0:0:0:0:
288,96,83434,1,8,0:0:0:0:
288,96,83759,1,8,0:0:0:0:
288,96,83921,1,0,0:0:0:0:
288,96,84245,1,0,0:0:0:0:
288,96,84407,1,8,0:0:0:0:
288,96,84732,1,0,0:0:0:0:
288,96,85056,1,8,0:0:0:0:
288,96,85218,1,0,0:0:0:0:
299,97,85380,1,0,0:0:0:0:
288,96,85705,1,8,0:0:0:0:
298,95,85867,1,0,0:0:0:0:
288,96,86029,1,8,0:0:0:0:
288,96,86191,1,0,0:0:0:0:
288,96,86353,1,8,0:0:0:0:
288,96,86515,1,0,0:0:0:0:
299,105,86596,1,0,0:0:0:0:
288,96,86678,1,0,0:0:0:0:
288,96,87002,1,8,0:0:0:0:
288,96,87326,1,0,0:0:0:0:
288,96,87488,1,0,0:0:0:0:
288,96,87651,1,8,0:0:0:0:
288,96,87975,1,0,0:0:0:0:
288,96,88056,1,0,0:0:0:0:
288,96,88137,1,0,0:0:0:0:
288,96,88299,1,8,0:0:0:0:
288,96,88461,1,0,0:0:0:0:
288,96,88624,1,8,0:0:0:0:
288,96,89272,1,8,0:0:0:0:
288,96,89434,1,0,0:0:0:0:
288,96,89596,1,8,0:0:0:0:
288,96,89921,1,0,0:0:0:0:
288,96,90245,1,8,0:0:0:0:
288,96,90407,1,0,0:0:0:0:
288,96,90569,1,0,0:0:0:0:
288,96,90732,1,8,0:0:0:0:
288,96,90894,1,8,0:0:0:0:
288,96,91056,1,0,0:0:0:0:
288,96,91218,1,8,0:0:0:0:
288,96,91542,1,8,0:0:0:0:
288,96,91705,1,0,0:0:0:0:
288,96,92029,1,0,0:0:0:0:
288,96,92191,1,8,0:0:0:0:
256,96,92353,1,0,0:0:0:0:
288,96,92434,1,0,0:0:0:0:
288,96,92515,1,0,0:0:0:0:
288,96,92840,1,8,0:0:0:0:
288,96,93002,1,0,0:0:0:0:
288,96,93164,1,0,0:0:0:0:
288,96,93326,1,0,0:0:0:0:
288,96,93488,1,8,0:0:0:0:
288,96,93651,1,8,0:0:0:0:
288,96,93813,1,0,0:0:0:0:
288,96,94137,1,8,0:0:0:0:
288,96,94299,1,0,0:0:0:0:
288,96,94624,1,0,0:0:0:0:
288,96,94786,1,8,0:0:0:0:
288,96,94948,1,0,0:0:0:0:
288,96,95110,1,0,0:0:0:0:
288,96,95434,1,8,0:0:0:0:
288,96,95596,1,0,0:0:0:0:
288,96,95759,1,8,0:0:0:0:
288,96,96083,1,8,0:0:0:0:
288,96,96407,1,0,0:0:0:0:
288,96,96732,1,8,0:0:0:0:
288,96,96894,1,0,0:0:0:0:
288,96,97056,1,0,0:0:0:0:
288,96,97218,1,8,0:0:0:0:
288,96,97299,1,8,0:0:0:0:
288,96,97380,1,8,0:0:0:0:
288,96,97542,1,0,0:0:0:0:
288,96,97624,1,0,0:0:0:0:
288,96,97705,1,0,0:0:0:0:
288,96,98029,1,0,0:0:0:0:
288,96,98353,1,0,0:0:0:0:
288,96,98515,1,0,0:0:0:0:
288,96,98678,1,0,0:0:0:0:
288,96,98759,1,0,0:0:0:0:
288,96,98840,1,0,0:0:0:0:
288,96,99002,1,8,0:0:0:0:
224,192,109380,5,0,0:0:0:0:
224,192,110029,1,8,0:0:0:0:
224,160,110515,1,0,0:0:0:0:
224,160,110678,1,0,0:0:0:0:
224,160,111002,1,0,0:0:0:0:
224,192,111326,1,8,0:0:0:0:
224,192,111975,1,0,0:0:0:0:
256,160,112461,1,0,0:0:0:0:
256,160,112624,1,8,0:0:0:0:
256,128,113110,1,0,0:0:0:0:
256,128,113272,1,0,0:0:0:0:
256,128,113515,1,0,0:0:0:0:
256,128,113759,1,0,0:0:0:0:
256,128,113921,1,8,0:0:0:0:
256,128,114245,1,0,0:0:0:0:
256,128,114407,1,0,0:0:0:0:
256,128,114569,1,0,0:0:0:0:
256,128,115218,1,8,0:0:0:0:
256,128,115705,1,0,0:0:0:0:
256,128,115867,1,0,0:0:0:0:
256,128,116191,1,0,0:0:0:0:
256,128,116515,1,8,0:0:0:0:
256,128,117164,1,0,0:0:0:0:
256,128,117651,1,0,0:0:0:0:
256,128,117813,1,8,0:0:0:0:
256,128,118299,1,0,0:0:0:0:
256,128,118461,1,0,0:0:0:0:
256,128,118705,1,0,0:0:0:0:
256,128,118948,1,0,0:0:0:0:
256,128,119110,1,8,0:0:0:0:
256,128,119434,1,0,0:0:0:0:
256,128,119596,1,0,0:0:0:0:
256,160,124948,5,0,0:0:0:0:
263,128,134029,5,8,0:0:0:0:
263,128,134191,1,0,0:0:0:0:
263,128,134272,1,0,0:0:0:0:
263,128,134353,1,0,0:0:0:0:
263,128,134515,1,8,0:0:0:0:
267,122,134678,1,0,0:0:0:0:
267,122,134759,1,0,0:0:0:0:
267,122,134840,1,0,0:0:0:0:
263,128,135002,1,0,0:0:0:0:
288,128,135326,5,4,0:0:0:0:
288,128,135651,1,8,0:0:0:0:
288,128,135813,1,0,0:0:0:0:
288,128,135975,1,0,0:0:0:0:
288,128,136056,1,0,0:0:0:0:
288,128,136137,1,0,0:0:0:0:
288,128,136299,1,8,0:0:0:0:
288,128,136624,1,0,0:0:0:0:
288,128,136786,1,0,0:0:0:0:
288,128,136948,1,8,0:0:0:0:
288,128,137110,1,0,0:0:0:0:
288,128,137191,1,0,0:0:0:0:
288,128,137272,1,0,0:0:0:0:
288,128,137596,1,12,0:0:0:0:
288,128,137921,1,12,0:0:0:0:
288,128,138245,1,8,0:0:0:0:
288,128,138407,1,0,0:0:0:0:
297,117,138569,1,8,0:0:0:0:
288,128,138732,1,0,0:0:0:0:
288,128,138894,1,8,0:0:0:0:
288,128,139218,1,0,0:0:0:0:
288,128,139380,1,8,0:0:0:0:
288,128,139542,1,0,0:0:0:0:
288,128,139705,1,8,0:0:0:0:
288,128,139867,1,8,0:0:0:0:
288,128,140029,1,0,0:0:0:0:
288,128,140191,1,12,0:0:0:0:
288,128,140515,1,0,0:0:0:0:
288,128,140840,1,8,0:0:0:0:
288,128,141002,1,0,0:0:0:0:
288,128,141083,1,0,0:0:0:0:
288,128,141164,1,0,0:0:0:0:
288,128,141326,1,0,0:0:0:0:
288,128,141488,1,8,0:0:0:0:
288,128,141651,1,8,0:0:0:0:
288,128,141813,1,0,0:0:0:0:
288,128,142137,1,8,0:0:0:0:
288,96,142299,1,0,0:0:0:0:
288,128,142461,1,8,0:0:0:0:
288,128,142542,1,8,0:0:0:0:
288,128,142624,1,8,0:0:0:0:
288,128,142786,1,12,0:0:0:0:
288,128,143110,1,12,0:0:0:0:
288,128,143434,1,8,0:0:0:0:
288,128,143596,1,0,0:0:0:0:
288,128,143759,1,0,0:0:0:0:
288,128,143921,1,0,0:0:0:0:
288,128,144083,1,8,0:0:0:0:
288,128,144407,1,0,0:0:0:0:
288,128,144569,1,8,0:0:0:0:
288,128,144732,1,0,0:0:0:0:
288,128,144894,1,8,0:0:0:0:
288,128,145056,1,8,0:0:0:0:
288,128,145218,1,0,0:0:0:0:
288,128,145380,5,12,0:0:0:0:
288,96,145704,5,0,0:0:0:0:
288,96,145867,1,0,0:0:0:0:
288,96,146029,1,8,0:0:0:0:
288,96,146191,1,8,0:0:0:0:
288,96,146353,1,0,0:0:0:0:
288,96,146434,1,0,0:0:0:0:
288,96,146515,1,0,0:0:0:0:
288,96,146677,1,8,0:0:0:0:
288,96,147002,1,0,0:0:0:0:
288,96,147164,1,0,0:0:0:0:
288,96,147326,1,8,0:0:0:0:
288,96,147488,1,0,0:0:0:0:
273,90,147569,1,0,0:0:0:0:
265,94,147650,1,0,0:0:0:0:
288,96,147975,1,12,0:0:0:0:
288,96,148299,1,12,0:0:0:0:
320,96,148623,1,8,0:0:0:0:
320,96,148785,1,0,0:0:0:0:
320,128,148867,1,0,0:0:0:0:
320,96,148948,1,0,0:0:0:0:
320,96,149110,1,0,0:0:0:0:
320,96,149272,1,8,0:0:0:0:
320,96,149596,1,0,0:0:0:0:
320,96,149758,1,0,0:0:0:0:
320,96,149921,1,8,0:0:0:0:
320,96,150083,1,0,0:0:0:0:
320,96,150245,1,0,0:0:0:0:
320,96,150407,1,0,0:0:0:0:
320,96,150569,1,12,0:0:0:0:
320,96,150894,1,0,0:0:0:0:
320,96,151056,1,0,0:0:0:0:
320,96,151218,1,8,0:0:0:0:
320,96,151380,1,0,0:0:0:0:
320,96,151461,1,0,0:0:0:0:
320,96,151542,1,0,0:0:0:0:
320,96,151704,1,8,0:0:0:0:
320,96,151867,1,8,0:0:0:0:
320,96,152191,1,0,0:0:0:0:
320,96,152515,1,8,0:0:0:0:
320,96,152677,1,0,0:0:0:0:
320,96,152840,1,0,0:0:0:0:
320,96,152921,1,0,0:0:0:0:
320,96,153002,1,0,0:0:0:0:
320,96,153164,1,12,0:0:0:0:
320,96,153488,1,12,0:0:0:0:
320,96,153650,1,0,0:0:0:0:
320,96,153812,1,8,0:0:0:0:
320,96,153975,1,8,0:0:0:0:
320,96,154137,1,0,0:0:0:0:
320,96,154299,1,0,0:0:0:0:
320,96,154461,1,8,0:0:0:0:
320,96,154785,1,0,0:0:0:0:
320,96,154948,1,8,0:0:0:0:
320,96,155110,1,0,0:0:0:0:
320,96,155272,1,8,0:0:0:0:
320,96,155434,1,0,0:0:0:0:
320,96,155677,5,8,0:0:0:0:
320,96,155921,1,8,0:0:0:0:
288,128,156083,5,4,0:0:0:0:
