osu file format v14

[General]
AudioFilename: audio.mp3
AudioLeadIn: 0
PreviewTime: 78248
Countdown: 0
SampleSet: Soft
StackLeniency: 0.7
Mode: 3
LetterboxInBreaks: 0
SpecialStyle: 0
WidescreenStoryboard: 0

[Editor]
Bookmarks: 3005,5599,15978,26356,36735,47113,49383,49708,54572,54897,57491,59762,60086,64951,65275,67221,67870,76951,78248,88627,97708,99005,119762,124951,135329,137599,137924,142789,143113,145708,147978,148302,153167,153491,155437,156086
DistanceSpacing: 1.6
BeatDivisor: 8
GridSize: 4
TimelineZoom: 1.2

[Metadata]
Title:Amphisbaena
TitleUnicode:Amphisbaena
Artist:Mitsuyoshi Takenobu no Ani
ArtistUnicode:光吉猛修の兄
Creator:Kawawa
Version:Hyper
Source:BMS
Tags:光吉猛修 crossover orchestra BOFU2015 BMS OF FIGHTERS ULTIMATE 2015 チーム光吉猛修
BeatmapID:1083896
BeatmapSetID:461514

[Difficulty]
HPDrainRate:8
CircleSize:7
OverallDifficulty:7.8
ApproachRate:5
SliderMultiplier:1.4
SliderTickRate:1

[Events]
//Background and Video events
0,0,"Background2.jpg",0,0
//Break Periods
//Storyboard Layer 0 (Background)
//Storyboard Layer 1 (Fail)
//Storyboard Layer 2 (Pass)
//Storyboard Layer 3 (Foreground)
//Storyboard Sound Samples

[TimingPoints]
5600,324.324324324324,4,2,1,30,1,0
49383,-100,4,2,1,30,0,1
49708,-100,4,2,1,30,0,0
54572,-100,4,2,1,30,0,1
54897,-100,4,2,1,30,0,0
59762,-100,4,2,1,30,0,1
60086,-100,4,2,1,30,0,0
64951,-100,4,2,1,30,0,1
65275,-100,4,2,1,30,0,0
67221,-100,4,2,1,30,0,1
67870,-100,4,2,1,30,0,0
76951,-100,4,2,1,30,0,1
78248,-100,4,2,1,30,0,0
97708,-100,4,2,1,30,0,1
99005,-100,4,2,1,30,0,0
137599,-100,4,2,1,30,0,1
137924,-100,4,2,1,30,0,0
142789,-100,4,2,1,30,0,1
143113,-100,4,2,1,30,0,0
147978,-100,4,2,1,30,0,1
148302,-100,4,2,1,30,0,0
153167,-100,4,2,1,30,0,1
153491,-100,4,2,1,30,0,0
155437,-100,4,2,1,30,0,1
156086,-100,4,2,1,30,0,0

[HitObjects]
109,192,3005,128,0,5599:0:0:0:0:
475,192,5599,5,0,0:0:0:70:Cymbal.wav
256,192,5599,1,0,0:0:0:70:BaSS.wav
109,192,5924,1,0,0:0:0:0:
402,192,6248,1,0,0:0:0:0:
109,192,6572,1,0,0:0:0:0:
329,192,6897,1,0,0:0:0:0:
109,192,7221,1,0,0:0:0:0:
256,192,7545,1,0,0:0:0:0:
402,192,7870,1,0,0:0:0:0:
182,192,8194,1,0,0:0:0:0:
402,192,8518,1,0,0:0:0:0:
109,192,8843,1,0,0:0:0:0:
402,192,9167,1,0,0:0:0:0:
36,192,9491,1,0,0:0:0:0:
329,192,9816,1,0,0:0:0:0:
109,192,10140,1,0,0:0:0:0:
329,192,10464,1,0,0:0:0:0:
182,192,10789,1,0,0:0:0:0:
329,192,11113,1,0,0:0:0:0:
109,192,11437,1,0,0:0:0:0:
402,192,11762,1,0,0:0:0:0:
182,192,12086,1,0,0:0:0:0:
402,192,12410,1,0,0:0:0:0:
256,192,12735,1,0,0:0:0:0:
402,192,13059,1,0,0:0:0:0:
182,192,13383,1,0,0:0:0:0:
475,192,13708,1,0,0:0:0:0:
256,192,14032,1,0,0:0:0:0:
475,192,14356,1,0,0:0:0:0:
329,192,14681,1,0,0:0:0:0:
475,192,15005,1,0,0:0:0:0:
402,192,15329,1,0,0:0:0:0:
475,192,15654,1,0,0:0:0:0:
36,192,15978,128,0,16302:0:0:0:70:Chi!.wav
329,192,15978,1,0,0:0:0:70:BaSS.wav
182,192,15978,1,0,0:0:0:70:Cymbal.wav
402,192,16627,1,0,0:0:0:70:BaSS.wav
109,192,16627,128,0,16951:0:0:0:70:Chi!.wav
256,192,16627,1,0,0:0:0:70:Snare.wav
475,192,17113,1,0,0:0:0:70:BaSS.wav
182,192,17275,128,0,17599:0:0:0:70:Chi!.wav
329,192,17275,1,0,0:0:0:70:BaSS.wav
329,192,17599,1,0,0:0:0:70:BaSS.wav
329,192,17924,1,0,0:0:0:70:BaSS.wav
109,192,17924,128,0,18248:0:0:0:70:Chi!.wav
475,192,17924,1,0,0:0:0:70:Snare.wav
36,192,18572,128,0,18897:0:0:0:70:Chi!.wav
256,192,18572,1,0,0:0:0:70:BaSS.wav
182,192,19059,1,0,0:0:0:70:BaSS.wav
182,192,19221,1,0,0:0:0:70:BaSS.wav
475,192,19221,128,0,19545:0:0:0:70:Chi!.wav
329,192,19221,1,0,0:0:0:70:Snare.wav
109,192,19870,128,0,20194:0:0:0:70:Chi!.wav
329,192,19870,1,0,0:0:0:70:BaSS.wav
329,192,20113,1,0,0:0:0:70:BaSS.wav
329,192,20356,1,0,0:0:0:70:BaSS.wav
36,192,20518,1,0,0:0:0:70:BaSS.wav
475,192,20518,128,0,20843:0:0:0:70:Chi!.wav
182,192,20518,1,0,0:0:0:70:Snare.wav
109,192,20843,1,0,0:0:0:70:BaSS.wav
256,192,21005,1,0,0:0:0:70:BaSS.wav
109,192,21167,1,0,0:0:0:70:BaSS.wav
402,192,21167,128,0,21491:0:0:0:70:Chi!.wav
36,192,21816,1,0,0:0:0:70:BaSS.wav
329,192,21816,128,0,22140:0:0:0:70:Chi!.wav
182,192,21816,1,0,0:0:0:70:Snare.wav
109,192,22302,1,0,0:0:0:70:BaSS.wav
109,192,22464,1,0,0:0:0:70:BaSS.wav
256,192,22464,128,0,22789:0:0:0:70:Chi!.wav
475,192,22789,1,0,0:0:0:70:BaSS.wav
182,192,23113,128,0,23437:0:0:0:70:Chi!.wav
475,192,23113,1,0,0:0:0:70:BaSS.wav
329,192,23113,1,0,0:0:0:70:Snare.wav
109,192,23762,128,0,24086:0:0:0:70:Chi!.wav
256,192,23762,1,0,0:0:0:70:BaSS.wav
329,192,24248,1,0,0:0:0:70:BaSS.wav
329,192,24410,1,0,0:0:0:70:BaSS.wav
36,192,24410,128,0,24735:0:0:0:70:Chi!.wav
475,192,24410,1,0,0:0:0:70:Snare.wav
475,192,25059,128,0,25383:0:0:0:70:Chi!.wav
36,192,25059,1,0,0:0:0:70:BaSS.wav
36,192,25302,1,0,0:0:0:70:BaSS.wav
36,192,25545,1,0,0:0:0:70:BaSS.wav
329,192,25708,1,0,0:0:0:70:BaSS.wav
475,192,25708,128,0,26032:0:0:0:70:Chi!.wav
182,192,25708,1,0,0:0:0:70:Snare.wav
109,192,26032,1,0,0:0:0:70:BaSS.wav
256,192,26194,1,0,0:0:0:70:BaSS.wav
109,192,26356,1,0,0:0:0:70:BaSS.wav
402,192,26681,128,0,27005:0:0:0:0:
329,192,27005,128,0,27329:0:0:0:0:
256,192,27329,128,0,27654:0:0:0:0:
182,192,27654,128,0,28951:0:0:0:0:
182,192,29275,128,0,29599:0:0:0:0:
256,192,29599,128,0,29924:0:0:0:0:
329,192,29924,128,0,30248:0:0:0:0:
402,192,30248,128,0,31545:0:0:0:0:
402,192,31870,128,0,32194:0:0:0:0:
256,192,32194,128,0,32518:0:0:0:0:
109,192,32518,128,0,32843:0:0:0:0:
402,192,32843,128,0,33491:0:0:0:0:
36,192,33491,128,0,34140:0:0:0:0:
182,192,34140,128,0,34789:0:0:0:0:
329,192,34789,128,0,35437:0:0:0:0:
475,192,35437,128,0,36735:0:0:0:0:
36,192,36735,5,0,0:0:0:70:Cymbal.wav
329,192,36735,1,0,0:0:0:0:
109,192,36735,1,0,0:0:0:70:BaSS.wav
182,192,37059,1,0,0:0:0:0:
402,192,37059,1,0,0:0:0:70:Sub BaSS.wav
256,192,37383,1,0,0:0:0:0:
36,192,37383,1,0,0:0:0:70:Snare.wav
475,192,37383,1,0,0:0:0:70:Sub BaSS.wav
329,192,37708,1,0,0:0:0:0:
109,192,37708,1,0,0:0:0:70:Sub BaSS.wav
182,192,37870,1,0,0:0:0:70:Sub BaSS.wav
402,192,38032,128,0,39329:0:0:0:0:
256,192,38032,1,0,0:0:0:70:Sub BaSS.wav
182,192,38356,1,0,0:0:0:70:Sub BaSS.wav
109,192,38681,1,0,0:0:0:70:Snare.wav
36,192,38681,1,0,0:0:0:70:Sub BaSS.wav
329,192,39005,1,0,0:0:0:70:Sub BaSS.wav
256,192,39167,1,0,0:0:0:70:Sub BaSS.wav
182,192,39329,1,0,0:0:0:70:Sub BaSS.wav
256,192,39654,1,0,0:0:0:0:
109,192,39654,1,0,0:0:0:70:Sub BaSS.wav
329,192,39978,1,0,0:0:0:0:
36,192,39978,1,0,0:0:0:70:Snare.wav
475,192,39978,1,0,0:0:0:70:Sub BaSS.wav
402,192,40302,1,0,0:0:0:0:
182,192,40302,1,0,0:0:0:70:Sub BaSS.wav
109,192,40464,1,0,0:0:0:70:Sub BaSS.wav
36,192,40627,1,0,0:0:0:70:Sub BaSS.wav
475,192,40627,128,0,41924:0:0:0:0:
109,192,40951,1,0,0:0:0:70:Sub BaSS.wav
182,192,41275,1,0,0:0:0:70:Snare.wav
329,192,41275,1,0,0:0:0:70:Sub BaSS.wav
36,192,41599,1,0,0:0:0:70:Sub BaSS.wav
182,192,41762,1,0,0:0:0:70:Sub BaSS.wav
329,192,41924,1,0,0:0:0:70:Sub BaSS.wav
256,192,42248,1,0,0:0:0:0:
402,192,42248,1,0,0:0:0:70:Sub BaSS.wav
36,192,42572,1,0,0:0:0:0:
475,192,42572,1,0,0:0:0:70:Snare.wav
182,192,42572,1,0,0:0:0:70:Sub BaSS.wav
109,192,42897,1,0,0:0:0:0:
329,192,42897,1,0,0:0:0:70:Sub BaSS.wav
402,192,43059,1,0,0:0:0:70:Sub BaSS.wav
36,192,43221,128,0,43870:0:0:0:0:
475,192,43221,1,0,0:0:0:70:Sub BaSS.wav
402,192,43545,1,0,0:0:0:70:Sub BaSS.wav
182,192,43870,128,0,44518:0:0:0:0:
329,192,43870,1,0,0:0:0:70:Snare.wav
256,192,43870,1,0,0:0:0:70:Sub BaSS.wav
475,192,44194,1,0,0:0:0:70:Sub BaSS.wav
402,192,44356,1,0,0:0:0:70:Sub BaSS.wav
329,192,44518,128,0,45167:0:0:0:0:
36,192,44518,1,0,0:0:0:70:Sub BaSS.wav
36,192,44843,1,0,0:0:0:70:Sub BaSS.wav
475,192,45167,128,0,45816:0:0:0:0:
36,192,45167,1,0,0:0:0:70:Snare.wav
182,192,45167,1,0,0:0:0:70:Sub BaSS.wav
256,192,45491,1,0,0:0:0:70:Sub BaSS.wav
182,192,45654,1,0,0:0:0:70:Sub BaSS.wav
109,192,45816,128,0,46464:0:0:0:70:Sub BaSS.wav
256,192,46140,128,0,46464:0:0:0:0:
402,192,46464,1,0,0:0:0:0:
256,192,47113,1,0,0:0:0:0:
475,192,47113,1,0,0:0:0:70:BaSS.wav
36,192,47113,1,0,0:0:0:70:Cymbal.wav
329,192,47437,1,0,0:0:0:0:
36,192,47437,1,0,0:0:0:70:BaSS.wav
182,192,47437,1,0,0:0:0:70:Snare.wav
475,192,47681,1,0,0:0:0:0:
402,192,47681,1,0,0:0:0:70:BaSS.wav
475,192,47924,1,0,0:0:0:0:
402,192,47924,1,0,0:0:0:70:BaSS.wav
36,192,48086,1,0,0:0:0:0:
329,192,48086,1,0,0:0:0:70:BaSS.wav
182,192,48086,1,0,0:0:0:70:Snare.wav
256,192,48248,1,0,0:0:0:70:BaSS.wav
475,192,48410,1,0,0:0:0:70:BaSS.wav
329,192,48410,1,0,0:0:0:70:Chi!.wav
329,192,48572,1,0,0:0:0:70:Chi!.wav
475,192,48735,128,0,49059:0:0:0:70:Chi!.wav
182,192,48735,1,0,0:0:0:70:BaSS.wav
36,192,48735,1,0,0:0:0:70:Snare.wav
329,192,48897,128,0,49059:0:0:0:70:Chi!.wav
109,192,48978,1,0,0:0:0:70:BaSS.wav
109,192,49221,1,0,0:0:0:70:BaSS.wav
329,192,49383,1,0,0:0:0:70:BaSS.wav
475,192,49383,1,0,0:0:0:70:PunK.wav
182,192,49383,1,0,0:0:0:70:Snare.wav
109,192,49545,1,0,0:0:0:70:BaSS.wav
36,192,49708,1,0,0:0:0:0:
256,192,49708,1,0,0:0:0:70:BaSS.wav
475,192,49708,1,0,0:0:0:70:PunK.wav
475,192,50032,1,0,0:0:0:0:
182,192,50032,1,0,0:0:0:70:BaSS.wav
329,192,50032,1,0,0:0:0:70:Snare.wav
109,192,50275,1,0,0:0:0:0:
36,192,50275,1,0,0:0:0:70:BaSS.wav
109,192,50518,1,0,0:0:0:0:
36,192,50518,1,0,0:0:0:70:BaSS.wav
475,192,50681,1,0,0:0:0:0:
182,192,50681,1,0,0:0:0:70:BaSS.wav
329,192,50681,1,0,0:0:0:70:Snare.wav
109,192,50843,1,0,0:0:0:70:BaSS.wav
36,192,51005,1,0,0:0:0:70:Beep.wav
182,192,51086,1,0,0:0:0:70:Beep.wav
475,192,51167,1,0,0:0:0:70:Beep.wav
329,192,51248,1,0,0:0:0:70:Beep.wav
36,192,51329,128,0,51572:0:0:0:70:BaSS.wav
182,192,51329,128,0,51572:0:0:0:70:Snare.wav
182,192,51654,1,0,0:0:0:0:
36,192,51654,1,0,0:0:0:70:Beep.wav
182,192,51816,1,0,0:0:0:70:BaSS.wav
36,192,51816,1,0,0:0:0:70:Beep.wav
402,192,51978,128,0,52302:0:0:0:70:Beep.wav
182,192,51978,1,0,0:0:0:70:BaSS.wav
36,192,51978,1,0,0:0:0:70:Snare.wav
256,192,52302,1,0,0:0:0:0:
109,192,52302,1,0,0:0:0:70:BaSS.wav
329,192,52627,1,0,0:0:0:0:
182,192,52627,1,0,0:0:0:70:BaSS.wav
36,192,52627,1,0,0:0:0:70:Snare.wav
402,192,52870,1,0,0:0:0:0:
256,192,52870,1,0,0:0:0:70:BaSS.wav
402,192,53113,1,0,0:0:0:0:
256,192,53113,1,0,0:0:0:70:BaSS.wav
182,192,53275,1,0,0:0:0:0:
329,192,53275,1,0,0:0:0:70:BaSS.wav
36,192,53275,1,0,0:0:0:70:Snare.wav
402,192,53437,1,0,0:0:0:70:BaSS.wav
475,192,53599,1,0,0:0:0:0:
256,192,53599,1,0,0:0:0:70:BaSS.wav
36,192,53924,1,0,0:0:0:0:
182,192,53924,1,0,0:0:0:70:BaSS.wav
329,192,53924,1,0,0:0:0:70:Snare.wav
329,192,54167,1,0,0:0:0:70:BaSS.wav
36,192,54248,1,0,0:0:0:70:Beep.wav
109,192,54329,1,0,0:0:0:70:Beep.wav
182,192,54410,1,0,0:0:0:70:Beep.wav
329,192,54410,1,0,0:0:0:70:BaSS.wav
36,192,54572,1,0,0:0:0:70:PunK.wav
475,192,54572,1,0,0:0:0:70:BaSS.wav
402,192,54572,1,0,0:0:0:70:Snare.wav
109,192,54735,1,0,0:0:0:70:BaSS.wav
329,192,54897,1,0,0:0:0:0:
475,192,54897,1,0,0:0:0:70:PunK.wav
182,192,54897,1,0,0:0:0:70:BaSS.wav
256,192,55221,1,0,0:0:0:0:
109,192,55221,1,0,0:0:0:70:BaSS.wav
36,192,55221,1,0,0:0:0:70:Snare.wav
402,192,55464,1,0,0:0:0:0:
475,192,55464,1,0,0:0:0:70:BaSS.wav
402,192,55708,1,0,0:0:0:0:
475,192,55708,1,0,0:0:0:70:BaSS.wav
256,192,55870,1,0,0:0:0:0:
109,192,55870,1,0,0:0:0:70:BaSS.wav
36,192,55870,1,0,0:0:0:70:Snare.wav
329,192,56032,1,0,0:0:0:70:BaSS.wav
402,192,56194,1,0,0:0:0:70:BaSS.wav
256,192,56356,1,0,0:0:0:0:
109,192,56356,1,0,0:0:0:70:Chi!.wav
109,192,56681,1,0,0:0:0:70:Chi!.wav
256,192,56681,1,0,0:0:0:70:BaSS.wav
109,192,57005,1,0,0:0:0:70:Chi!.wav
256,192,57005,1,0,0:0:0:70:BaSS.wav
475,192,57167,128,0,57491:0:0:0:70:Chi!.wav
109,192,57167,1,0,0:0:0:70:BaSS.wav
256,192,57167,1,0,0:0:0:70:Snare.wav
402,192,57491,1,0,0:0:0:0:
256,192,57491,1,0,0:0:0:70:BaSS.wav
36,192,57654,1,0,0:0:0:0:
182,192,57735,1,0,0:0:0:0:
329,192,57816,1,0,0:0:0:70:Snare.wav
475,192,57897,1,0,0:0:0:0:
329,192,57978,1,0,0:0:0:70:BaSS.wav
182,192,58059,1,0,0:0:0:70:BaSS.wav
36,192,58140,1,0,0:0:0:0:
475,192,58140,1,0,0:0:0:0:
402,192,58302,1,0,0:0:0:0:
109,192,58302,1,0,0:0:0:70:BaSS.wav
329,192,58464,1,0,0:0:0:70:BaSS.wav
182,192,58464,1,0,0:0:0:70:Snare.wav
256,192,58627,1,0,0:0:0:70:BaSS.wav
402,192,58627,1,0,0:0:0:0:
475,192,58789,1,0,0:0:0:0:
329,192,58789,1,0,0:0:0:70:BaSS.wav
36,192,58951,1,0,0:0:0:0:
182,192,59032,1,0,0:0:0:0:
329,192,59113,1,0,0:0:0:70:Snare.wav
109,192,59194,1,0,0:0:0:0:
256,192,59275,1,0,0:0:0:70:BaSS.wav
402,192,59356,1,0,0:0:0:70:BaSS.wav
329,192,59437,1,0,0:0:0:0:
256,192,59518,1,0,0:0:0:0:
182,192,59599,1,0,0:0:0:70:BaSS.wav
109,192,59681,1,0,0:0:0:0:
475,192,59762,1,0,0:0:0:70:BaSS.wav
329,192,59762,1,0,0:0:0:70:PunK.wav
36,192,59762,1,0,0:0:0:70:Snare.wav
256,192,59924,1,0,0:0:0:70:BaSS.wav
475,192,60086,1,0,0:0:0:0:
182,192,60086,1,0,0:0:0:70:BaSS.wav
36,192,60086,1,0,0:0:0:70:PunK.wav
402,192,60167,1,0,0:0:0:0:
329,192,60248,1,0,0:0:0:0:
256,192,60329,1,0,0:0:0:0:
182,192,60410,1,0,0:0:0:70:Snare.wav
256,192,60491,1,0,0:0:0:0:
329,192,60572,1,0,0:0:0:70:BaSS.wav
402,192,60654,1,0,0:0:0:70:BaSS.wav
475,192,60735,1,0,0:0:0:0:
36,192,60897,1,0,0:0:0:70:BaSS.wav
182,192,60978,1,0,0:0:0:0:
329,192,61059,1,0,0:0:0:70:Snare.wav
475,192,61140,1,0,0:0:0:0:
402,192,61221,1,0,0:0:0:70:BaSS.wav
329,192,61302,1,0,0:0:0:70:BaSS.wav
256,192,61383,1,0,0:0:0:0:
182,192,61464,1,0,0:0:0:0:
109,192,61545,1,0,0:0:0:70:BaSS.wav
256,192,61627,1,0,0:0:0:0:
402,192,61708,1,0,0:0:0:70:Snare.wav
36,192,61870,1,0,0:0:0:70:BaSS.wav
182,192,61951,1,0,0:0:0:70:BaSS.wav
329,192,62032,1,0,0:0:0:0:
256,192,62113,1,0,0:0:0:0:
182,192,62194,1,0,0:0:0:70:BaSS.wav
109,192,62275,1,0,0:0:0:0:
329,192,62356,1,0,0:0:0:0:
475,192,62356,1,0,0:0:0:70:BaSS.wav
36,192,62356,1,0,0:0:0:70:Snare.wav
256,192,62518,1,0,0:0:0:70:BaSS.wav
475,192,62681,128,0,63005:0:0:0:0:
182,192,62681,1,0,0:0:0:70:BaSS.wav
256,192,62762,1,0,0:0:0:0:
329,192,62843,1,0,0:0:0:0:
182,192,62924,1,0,0:0:0:0:
36,192,63005,1,0,0:0:0:70:Snare.wav
475,192,63167,1,0,0:0:0:70:BaSS.wav
329,192,63248,1,0,0:0:0:70:BaSS.wav
182,192,63329,1,0,0:0:0:0:
402,192,63410,1,0,0:0:0:0:
256,192,63491,1,0,0:0:0:70:BaSS.wav
475,192,63572,1,0,0:0:0:0:
329,192,63654,1,0,0:0:0:70:Snare.wav
36,192,63735,1,0,0:0:0:0:
182,192,63816,1,0,0:0:0:70:BaSS.wav
329,192,63897,1,0,0:0:0:0:
475,192,63978,1,0,0:0:0:0:
36,192,63978,1,0,0:0:0:70:BaSS.wav
109,192,64140,1,0,0:0:0:0:
402,192,64140,1,0,0:0:0:0:
182,192,64302,1,0,0:0:0:70:BaSS.wav
329,192,64302,1,0,0:0:0:70:Snare.wav
402,192,64464,1,0,0:0:0:0:
109,192,64464,1,0,0:0:0:70:BaSS.wav
36,192,64627,1,0,0:0:0:0:
475,192,64627,1,0,0:0:0:0:
109,192,64708,1,0,0:0:0:0:
182,192,64789,1,0,0:0:0:0:
256,192,64870,1,0,0:0:0:0:
475,192,64951,1,0,0:0:0:70:PunK.wav
402,192,64951,1,0,0:0:0:70:BaSS.wav
329,192,64951,1,0,0:0:0:70:Snare.wav
256,192,65113,1,0,0:0:0:70:BaSS.wav
109,192,65275,1,0,0:0:0:0:
182,192,65275,1,0,0:0:0:70:BaSS.wav
36,192,65275,1,0,0:0:0:70:PunK.wav
402,192,65437,1,0,0:0:0:0:
475,192,65437,1,0,0:0:0:0:
36,192,65599,1,0,0:0:0:70:BaSS.wav
109,192,65599,1,0,0:0:0:70:Snare.wav
329,192,65762,1,0,0:0:0:0:
402,192,65762,1,0,0:0:0:70:BaSS.wav
36,192,65924,1,0,0:0:0:0:
109,192,65924,1,0,0:0:0:0:
329,192,66086,1,0,0:0:0:0:
256,192,66086,1,0,0:0:0:70:BaSS.wav
109,192,66248,1,0,0:0:0:70:BaSS.wav
36,192,66248,1,0,0:0:0:70:Snare.wav
182,192,66410,1,0,0:0:0:0:
256,192,66410,1,0,0:0:0:70:BaSS.wav
36,192,66572,1,0,0:0:0:0:
109,192,66572,1,0,0:0:0:70:BaSS.wav
475,192,66654,1,0,0:0:0:0:
329,192,66735,1,0,0:0:0:0:
182,192,66816,1,0,0:0:0:0:
36,192,66897,1,0,0:0:0:70:Snare.wav
109,192,66978,1,0,0:0:0:0:
182,192,67059,1,0,0:0:0:70:BaSS.wav
256,192,67140,1,0,0:0:0:0:
475,192,67221,1,0,0:0:0:0:
36,192,67221,1,0,0:0:0:70:BaSS.wav
329,192,67221,1,0,0:0:0:70:Impact.wav
402,192,67464,1,0,0:0:0:0:
36,192,67464,1,0,0:0:0:0:
256,192,67464,1,0,0:0:0:70:Impact.wav
182,192,67708,1,0,0:0:0:0:
36,192,67708,1,0,0:0:0:0:
329,192,67708,1,0,0:0:0:70:Impact.wav
256,192,67870,128,0,68356:0:0:0:0:
475,192,67870,1,0,0:0:0:70:BaSS.wav
402,192,67870,1,0,0:0:0:70:Impact.wav
475,192,68194,1,0,0:0:0:70:BaSS.wav
36,192,68194,1,0,0:0:0:70:Snare.wav
329,192,68356,128,0,69167:0:0:0:70:BaSS.wav
109,192,68437,1,0,0:0:0:0:
182,192,68437,1,0,0:0:0:70:BaSS.wav
109,192,68681,1,0,0:0:0:0:
182,192,68681,1,0,0:0:0:70:BaSS.wav
475,192,68843,1,0,0:0:0:70:BaSS.wav
36,192,68843,1,0,0:0:0:70:Snare.wav
109,192,69005,1,0,0:0:0:70:BaSS.wav
402,192,69167,1,0,0:0:0:0:
182,192,69167,1,0,0:0:0:0:
475,192,69167,128,0,70464:0:0:0:70:BaSS.wav
36,192,69491,1,0,0:0:0:70:BaSS.wav
182,192,69491,1,0,0:0:0:70:Snare.wav
402,192,69735,1,0,0:0:0:0:
329,192,69735,1,0,0:0:0:70:BaSS.wav
329,192,69978,1,0,0:0:0:0:
402,192,69978,1,0,0:0:0:70:BaSS.wav
36,192,70140,1,0,0:0:0:70:BaSS.wav
182,192,70140,1,0,0:0:0:70:Snare.wav
256,192,70302,1,0,0:0:0:70:BaSS.wav
329,192,70464,1,0,0:0:0:0:
402,192,70464,1,0,0:0:0:0:
36,192,70464,128,0,71762:0:0:0:70:BaSS.wav
256,192,70789,1,0,0:0:0:70:BaSS.wav
182,192,70789,1,0,0:0:0:70:Snare.wav
475,192,71032,1,0,0:0:0:0:
402,192,71032,1,0,0:0:0:70:BaSS.wav
475,192,71275,1,0,0:0:0:0:
402,192,71275,1,0,0:0:0:70:BaSS.wav
182,192,71437,1,0,0:0:0:70:BaSS.wav
256,192,71437,1,0,0:0:0:70:Snare.wav
329,192,71762,128,0,72410:0:0:0:0:
182,192,71762,1,0,0:0:0:0:
475,192,71762,1,0,0:0:0:70:BaSS.wav
475,192,72086,1,0,0:0:0:70:BaSS.wav
36,192,72086,1,0,0:0:0:70:Snare.wav
109,192,72248,1,0,0:0:0:70:BaSS.wav
182,192,72410,128,0,72572:0:0:0:70:Beep.wav
475,192,72410,128,0,72572:0:0:0:70:Chi!.wav
36,192,72572,128,0,72735:0:0:0:70:Beep.wav
329,192,72572,128,0,72735:0:0:0:70:Chi!.wav
182,192,72735,128,0,72897:0:0:0:70:Beep.wav
475,192,72735,128,0,72897:0:0:0:70:Chi!.wav
329,192,72897,128,0,73059:0:0:0:70:Chi!.wav
36,192,72897,128,0,73059:0:0:0:70:Beep.wav
475,192,73059,1,0,0:0:0:0:
182,192,73059,1,0,0:0:0:70:BaSS.wav
256,192,73140,1,0,0:0:0:0:
329,192,73221,1,0,0:0:0:0:
402,192,73302,1,0,0:0:0:0:
36,192,73383,128,0,73545:0:0:0:70:BaSS.wav
475,192,73383,128,0,73545:0:0:0:70:Snare.wav
182,192,73545,128,0,73708:0:0:0:0:
329,192,73545,128,0,73708:0:0:0:0:
36,192,73708,1,0,0:0:0:0:
475,192,73708,1,0,0:0:0:70:BaSS.wav
402,192,73789,1,0,0:0:0:0:
329,192,73870,1,0,0:0:0:70:BaSS.wav
256,192,73951,1,0,0:0:0:0:
182,192,74032,1,0,0:0:0:70:Snare.wav
329,192,74113,1,0,0:0:0:0:
256,192,74194,1,0,0:0:0:70:BaSS.wav
182,192,74275,1,0,0:0:0:70:BaSS.wav
109,192,74356,128,0,74518:0:0:0:70:Beep.wav
36,192,74356,128,0,74518:0:0:0:70:Chi!.wav
475,192,74518,128,0,74681:0:0:0:70:Chi!.wav
402,192,74518,128,0,74681:0:0:0:70:Beep.wav
109,192,74681,128,0,74843:0:0:0:70:Chi!.wav
182,192,74681,128,0,74843:0:0:0:70:Beep.wav
329,192,74843,128,0,75005:0:0:0:70:Beep.wav
402,192,74843,128,0,75005:0:0:0:70:Chi!.wav
36,192,75005,128,0,75167:0:0:0:70:Chi!.wav
182,192,75005,128,0,75167:0:0:0:70:Beep.wav
475,192,75167,128,0,75329:0:0:0:70:Beep.wav
329,192,75167,128,0,75329:0:0:0:70:Chi!.wav
109,192,75329,128,0,75491:0:0:0:70:Chi!.wav
36,192,75329,128,0,75491:0:0:0:70:Beep.wav
475,192,75491,128,0,75654:0:0:0:70:Chi!.wav
402,192,75491,128,0,75654:0:0:0:70:Beep.wav
182,192,75654,1,0,0:0:0:0:
36,192,75654,1,0,0:0:0:70:BaSS.wav
256,192,75735,1,0,0:0:0:0:
329,192,75816,1,0,0:0:0:0:
402,192,75897,1,0,0:0:0:0:
475,192,75978,1,0,0:0:0:70:Snare.wav
329,192,76059,1,0,0:0:0:0:
182,192,76140,1,0,0:0:0:0:
36,192,76221,1,0,0:0:0:0:
475,192,76302,128,0,76545:0:0:0:70:BaSS.wav
329,192,76383,128,0,76627:0:0:0:0:
182,192,76464,128,0,76708:0:0:0:0:
36,192,76545,128,0,76789:0:0:0:0:
475,192,76627,1,0,0:0:0:70:Snare.wav
329,192,76708,1,0,0:0:0:0:
182,192,76789,1,0,0:0:0:0:
36,192,76870,1,0,0:0:0:0:
329,192,76951,1,0,0:0:0:70:BaSS.wav
475,192,76951,128,0,78248:0:0:0:0:
182,192,77113,1,0,0:0:0:70:BaSS.wav
329,192,77275,1,0,0:0:0:70:BaSS.wav
182,192,77437,1,0,0:0:0:70:BaSS.wav
329,192,77599,1,0,0:0:0:70:BaSS.wav
182,192,77681,1,0,0:0:0:70:BaSS.wav
36,192,77762,1,0,0:0:0:70:BaSS.wav
182,192,77843,1,0,0:0:0:70:BaSS.wav
329,192,77924,1,0,0:0:0:70:BaSS.wav
256,192,78005,1,0,0:0:0:70:BaSS.wav
182,192,78086,1,0,0:0:0:70:BaSS.wav
109,192,78167,1,0,0:0:0:70:BaSS.wav
36,192,78248,128,0,78735:0:0:0:0:
402,192,78248,1,0,0:0:0:70:BaSS.wav
329,192,78248,1,0,0:0:0:70:Cymbal.wav
329,192,78735,1,0,0:0:0:0:
256,192,78816,1,0,0:0:0:0:
182,192,78897,1,0,0:0:0:70:BaSS.wav
329,192,78978,1,0,0:0:0:0:
475,192,79059,1,0,0:0:0:0:
36,192,79140,1,0,0:0:0:0:
182,192,79221,1,0,0:0:0:70:Snare.wav
329,192,79302,1,0,0:0:0:0:
475,192,79383,1,0,0:0:0:0:
402,192,79464,1,0,0:0:0:0:
182,192,79545,1,0,0:0:0:0:
329,192,79545,1,0,0:0:0:70:BaSS.wav
402,192,79789,1,0,0:0:0:0:
256,192,79789,1,0,0:0:0:0:
475,192,80032,1,0,0:0:0:0:
329,192,80032,1,0,0:0:0:0:
36,192,80194,128,0,80518:0:0:0:0:
182,192,80194,128,0,80518:0:0:0:70:BaSS.wav
475,192,80518,1,0,0:0:0:70:BaSS.wav
329,192,80518,1,0,0:0:0:70:Snare.wav
329,192,80681,1,0,0:0:0:0:
475,192,80681,1,0,0:0:0:70:BaSS.wav
182,192,80843,128,0,81329:0:0:0:0:
109,192,80843,1,0,0:0:0:70:BaSS.wav
36,192,80843,1,0,0:0:0:70:Cymbal.wav
475,192,81167,1,0,0:0:0:70:BaSS.wav
329,192,81167,1,0,0:0:0:70:Snare.wav
36,192,81329,128,0,81816:0:0:0:70:BaSS.wav
475,192,81410,1,0,0:0:0:70:BaSS.wav
329,192,81491,1,0,0:0:0:70:BaSS.wav
329,192,81654,1,0,0:0:0:70:BaSS.wav
475,192,81816,1,0,0:0:0:0:
402,192,81816,1,0,0:0:0:70:BaSS.wav
182,192,81816,128,0,82140:0:0:0:70:Snare.wav
329,192,81978,1,0,0:0:0:70:BaSS.wav
36,192,82140,1,0,0:0:0:0:
256,192,82140,1,0,0:0:0:70:BaSS.wav
475,192,82140,128,0,82789:0:0:0:70:Cymbal.wav
329,192,82464,1,0,0:0:0:70:BaSS.wav
109,192,82464,1,0,0:0:0:70:Snare.wav
182,192,82789,1,0,0:0:0:70:BaSS.wav
402,192,82789,1,0,0:0:0:70:Cymbal.wav
109,192,82951,1,0,0:0:0:70:BaSS.wav
475,192,83032,1,0,0:0:0:70:BaSS.wav
182,192,83113,1,0,0:0:0:70:Snare.wav
402,192,83194,1,0,0:0:0:70:BaSS.wav
256,192,83275,1,0,0:0:0:70:BaSS.wav
329,192,83356,1,0,0:0:0:70:BaSS.wav
475,192,83437,1,0,0:0:0:0:
182,192,83437,1,0,0:0:0:70:BaSS.wav
36,192,83437,128,0,83924:0:0:0:70:Cymbal.wav
182,192,83762,1,0,0:0:0:70:BaSS.wav
329,192,83762,1,0,0:0:0:70:Snare.wav
475,192,83924,128,0,84410:0:0:0:0:
36,192,84086,1,0,0:0:0:70:BaSS.wav
109,192,84248,1,0,0:0:0:0:
329,192,84410,1,0,0:0:0:0:
402,192,84410,1,0,0:0:0:70:BaSS.wav
182,192,84410,128,0,84735:0:0:0:70:Snare.wav
329,192,84735,128,0,85383:0:0:0:0:
475,192,84735,1,0,0:0:0:70:BaSS.wav
182,192,85059,1,0,0:0:0:70:BaSS.wav
36,192,85059,1,0,0:0:0:70:Snare.wav
256,192,85383,1,0,0:0:0:0:
109,192,85383,128,0,86032:0:0:0:70:BaSS.wav
475,192,85708,1,0,0:0:0:70:BaSS.wav
329,192,85708,1,0,0:0:0:70:Snare.wav
475,192,85870,1,0,0:0:0:70:BaSS.wav
36,192,86032,1,0,0:0:0:0:
329,192,86032,1,0,0:0:0:70:BaSS.wav
182,192,86032,1,0,0:0:0:70:Cymbal.wav
402,192,86194,1,0,0:0:0:0:
475,192,86194,1,0,0:0:0:70:BaSS.wav
109,192,86356,1,0,0:0:0:70:BaSS.wav
256,192,86356,1,0,0:0:0:70:Snare.wav
475,192,86518,1,0,0:0:0:70:BaSS.wav
402,192,86599,1,0,0:0:0:70:BaSS.wav
36,192,86681,1,0,0:0:0:0:
182,192,86681,1,0,0:0:0:70:BaSS.wav
329,192,86681,1,0,0:0:0:70:Cymbal.wav
402,192,86843,1,0,0:0:0:70:BaSS.wav
329,192,86924,1,0,0:0:0:70:BaSS.wav
109,192,87005,1,0,0:0:0:70:BaSS.wav
256,192,87005,1,0,0:0:0:70:Snare.wav
329,192,87167,1,0,0:0:0:70:BaSS.wav
256,192,87248,1,0,0:0:0:70:BaSS.wav
36,192,87329,1,0,0:0:0:0:
182,192,87329,1,0,0:0:0:70:BaSS.wav
475,192,87491,1,0,0:0:0:70:BaSS.wav
402,192,87572,1,0,0:0:0:70:BaSS.wav
182,192,87654,1,0,0:0:0:0:
329,192,87654,1,0,0:0:0:70:BaSS.wav
36,192,87654,1,0,0:0:0:70:Snare.wav
402,192,87816,1,0,0:0:0:0:
256,192,87816,1,0,0:0:0:70:BaSS.wav
182,192,87978,1,0,0:0:0:70:BaSS.wav
109,192,88059,1,0,0:0:0:70:BaSS.wav
36,192,88140,1,0,0:0:0:70:BaSS.wav
329,192,88221,1,0,0:0:0:70:BaSS.wav
256,192,88302,1,0,0:0:0:70:Snare.wav
182,192,88383,1,0,0:0:0:70:BaSS.wav
475,192,88464,1,0,0:0:0:70:BaSS.wav
402,192,88545,1,0,0:0:0:70:BaSS.wav
329,192,88627,128,0,89113:0:0:0:0:
109,192,88627,1,0,0:0:0:70:BaSS.wav
36,192,88627,1,0,0:0:0:70:Cymbal.wav
36,192,89113,1,0,0:0:0:0:
182,192,89194,1,0,0:0:0:0:
475,192,89275,1,0,0:0:0:70:BaSS.wav
402,192,89356,1,0,0:0:0:0:
329,192,89437,1,0,0:0:0:0:
256,192,89518,1,0,0:0:0:0:
182,192,89599,1,0,0:0:0:70:Snare.wav
109,192,89681,1,0,0:0:0:0:
329,192,89762,1,0,0:0:0:0:
402,192,89843,1,0,0:0:0:0:
475,192,89924,1,0,0:0:0:0:
109,192,89924,1,0,0:0:0:70:BaSS.wav
182,192,90167,1,0,0:0:0:0:
402,192,90167,1,0,0:0:0:0:
256,192,90410,1,0,0:0:0:0:
329,192,90410,1,0,0:0:0:0:
36,192,90572,128,0,90897:0:0:0:0:
109,192,90572,128,0,90897:0:0:0:70:BaSS.wav
402,192,90897,1,0,0:0:0:70:BaSS.wav
329,192,90897,1,0,0:0:0:70:Snare.wav
329,192,91059,1,0,0:0:0:0:
402,192,91059,1,0,0:0:0:70:BaSS.wav
182,192,91221,128,0,91708:0:0:0:0:
36,192,91221,1,0,0:0:0:70:BaSS.wav
475,192,91221,1,0,0:0:0:70:Cymbal.wav
475,192,91545,1,0,0:0:0:70:BaSS.wav
329,192,91545,1,0,0:0:0:70:Snare.wav
109,192,91708,128,0,92194:0:0:0:0:
475,192,91870,1,0,0:0:0:70:BaSS.wav
475,192,92032,1,0,0:0:0:70:BaSS.wav
36,192,92194,128,0,92518:0:0:0:0:
329,192,92194,1,0,0:0:0:70:BaSS.wav
182,192,92194,1,0,0:0:0:70:Snare.wav
402,192,92356,1,0,0:0:0:70:BaSS.wav
109,192,92518,1,0,0:0:0:0:
475,192,92518,128,0,93167:0:0:0:0:
256,192,92518,1,0,0:0:0:70:BaSS.wav
182,192,92843,1,0,0:0:0:70:BaSS.wav
36,192,92843,1,0,0:0:0:70:Snare.wav
329,192,93167,1,0,0:0:0:0:
182,192,93167,1,0,0:0:0:70:BaSS.wav
36,192,93329,1,0,0:0:0:70:BaSS.wav
402,192,93410,1,0,0:0:0:70:BaSS.wav
109,192,93491,1,0,0:0:0:70:Snare.wav
329,192,93572,1,0,0:0:0:70:BaSS.wav
182,192,93654,1,0,0:0:0:70:BaSS.wav
256,192,93735,1,0,0:0:0:70:BaSS.wav
475,192,93816,128,0,94302:0:0:0:0:
109,192,93816,1,0,0:0:0:70:BaSS.wav
36,192,93816,1,0,0:0:0:70:Cymbal.wav
182,192,94140,1,0,0:0:0:70:BaSS.wav
36,192,94140,1,0,0:0:0:70:Snare.wav
329,192,94302,128,0,94789:0:0:0:0:
36,192,94464,1,0,0:0:0:70:BaSS.wav
109,192,94627,1,0,0:0:0:70:BaSS.wav
475,192,94789,128,0,95113:0:0:0:0:
402,192,94789,1,0,0:0:0:70:BaSS.wav
182,192,94789,1,0,0:0:0:70:Snare.wav
109,192,94951,1,0,0:0:0:70:BaSS.wav
402,192,95113,1,0,0:0:0:0:
256,192,95113,1,0,0:0:0:70:BaSS.wav
36,192,95113,128,0,95762:0:0:0:70:Cymbal.wav
182,192,95275,1,0,0:0:0:70:BaSS.wav
329,192,95437,1,0,0:0:0:70:BaSS.wav
475,192,95437,1,0,0:0:0:70:Snare.wav
256,192,95599,1,0,0:0:0:70:BaSS.wav
182,192,95762,128,0,96086:0:0:0:0:
402,192,95762,1,0,0:0:0:70:BaSS.wav
329,192,95924,1,0,0:0:0:70:BaSS.wav
256,192,96086,128,0,96410:0:0:0:0:
36,192,96086,1,0,0:0:0:70:BaSS.wav
475,192,96086,1,0,0:0:0:70:Snare.wav
402,192,96248,1,0,0:0:0:70:BaSS.wav
329,192,96410,128,0,96897:0:0:0:0:
109,192,96410,1,0,0:0:0:70:BaSS.wav
36,192,96410,1,0,0:0:0:70:Cymbal.wav
475,192,96735,1,0,0:0:0:70:BaSS.wav
36,192,96735,1,0,0:0:0:70:Snare.wav
182,192,96897,128,0,97383:0:0:0:70:BaSS.wav
475,192,97059,1,0,0:0:0:70:BaSS.wav
329,192,97221,1,0,0:0:0:70:BaSS.wav
402,192,97302,1,0,0:0:0:70:BaSS.wav
109,192,97383,128,0,97708:0:0:0:70:BaSS.wav
475,192,97383,1,0,0:0:0:70:Snare.wav
329,192,97545,1,0,0:0:0:70:BaSS.wav
402,192,97627,1,0,0:0:0:70:BaSS.wav
36,192,97708,1,0,0:0:0:0:
256,192,97708,128,0,99005:0:0:0:0:
475,192,97708,1,0,0:0:0:70:BaSS.wav
36,192,97870,1,0,0:0:0:0:
475,192,97870,1,0,0:0:0:70:BaSS.wav
36,192,98032,1,0,0:0:0:0:
475,192,98032,1,0,0:0:0:70:BaSS.wav
36,192,98194,1,0,0:0:0:0:
475,192,98194,1,0,0:0:0:70:BaSS.wav
36,192,98356,1,0,0:0:0:0:
475,192,98356,1,0,0:0:0:70:BaSS.wav
329,192,98437,1,0,0:0:0:70:BaSS.wav
182,192,98518,1,0,0:0:0:70:BaSS.wav
36,192,98599,1,0,0:0:0:70:BaSS.wav
475,192,98681,1,0,0:0:0:70:BaSS.wav
329,192,98762,1,0,0:0:0:70:BaSS.wav
182,192,98843,1,0,0:0:0:70:BaSS.wav
36,192,98924,1,0,0:0:0:70:BaSS.wav
329,192,99005,1,0,0:0:0:0:
402,192,99005,1,0,0:0:0:70:BaSS.wav
475,192,99005,128,0,99654:0:0:0:70:PunK.wav
109,192,99654,128,0,99816:0:0:0:0:
182,192,99816,128,0,99978:0:0:0:0:
256,192,99978,128,0,100140:0:0:0:0:
329,192,100140,128,0,100302:0:0:0:0:
402,192,100302,128,0,101599:0:0:0:0:
182,192,101924,128,0,102572:0:0:0:0:
329,192,102248,128,0,102735:0:0:0:0:
182,192,102735,128,0,104194:0:0:0:0:
329,192,102897,128,0,104194:0:0:0:0:
109,192,104518,128,0,105167:0:0:0:0:
402,192,104843,128,0,105329:0:0:0:0:
109,192,105329,128,0,106140:0:0:0:0:
402,192,105491,128,0,106140:0:0:0:0:
256,192,106140,128,0,106789:0:0:0:0:
182,192,107113,128,0,107762:0:0:0:0:
402,192,107437,128,0,107924:0:0:0:0:
182,192,107924,128,0,109383:0:0:0:0:
402,192,108086,128,0,109383:0:0:0:0:
475,192,109383,1,0,0:0:0:0:
36,192,109383,1,0,0:0:0:70:BaSS.wav
256,192,109383,1,0,0:0:0:70:Cymbal.wav
475,192,110032,128,0,110194:0:0:0:0:
329,192,110032,128,0,110194:0:0:0:70:BaSS.wav
109,192,110032,1,0,0:0:0:70:Snare.wav
475,192,110518,1,0,0:0:0:0:
329,192,110518,1,0,0:0:0:70:BaSS.wav
109,192,110681,1,0,0:0:0:0:
182,192,110681,1,0,0:0:0:70:BaSS.wav
109,192,111005,1,0,0:0:0:0:
182,192,111005,1,0,0:0:0:70:BaSS.wav
475,192,111329,128,0,111978:0:0:0:0:
36,192,111329,128,0,111491:0:0:0:70:BaSS.wav
182,192,111329,128,0,111491:0:0:0:70:Snare.wav
182,192,111978,1,0,0:0:0:0:
329,192,111978,1,0,0:0:0:70:BaSS.wav
182,192,112464,1,0,0:0:0:0:
36,192,112464,1,0,0:0:0:70:BaSS.wav
475,192,112627,128,0,112789:0:0:0:70:Snare.wav
329,192,112627,128,0,112789:0:0:0:70:BaSS.wav
36,192,112627,1,0,0:0:0:0:
475,192,113275,1,0,0:0:0:0:
182,192,113275,1,0,0:0:0:70:BaSS.wav
402,192,113518,1,0,0:0:0:0:
182,192,113518,1,0,0:0:0:70:BaSS.wav
329,192,113762,1,0,0:0:0:0:
182,192,113762,1,0,0:0:0:70:BaSS.wav
475,192,113924,1,0,0:0:0:0:
256,192,113924,1,0,0:0:0:70:BaSS.wav
36,192,113924,1,0,0:0:0:70:Snare.wav
36,192,114248,1,0,0:0:0:0:
475,192,114248,1,0,0:0:0:70:BaSS.wav
329,192,114410,1,0,0:0:0:0:
182,192,114410,1,0,0:0:0:70:BaSS.wav
475,192,114572,1,0,0:0:0:0:
36,192,114572,1,0,0:0:0:70:BaSS.wav
329,192,115221,128,0,115383:0:0:0:0:
182,192,115221,128,0,115383:0:0:0:70:BaSS.wav
36,192,115221,1,0,0:0:0:70:Snare.wav
36,192,115708,1,0,0:0:0:0:
182,192,115708,1,0,0:0:0:70:BaSS.wav
402,192,115870,1,0,0:0:0:0:
329,192,115870,1,0,0:0:0:70:BaSS.wav
402,192,116194,1,0,0:0:0:0:
329,192,116194,1,0,0:0:0:70:BaSS.wav
109,192,116518,128,0,117167:0:0:0:0:
475,192,116518,128,0,116681:0:0:0:70:BaSS.wav
329,192,116518,128,0,116681:0:0:0:70:Snare.wav
256,192,117167,1,0,0:0:0:0:
402,192,117167,1,0,0:0:0:70:BaSS.wav
475,192,117654,1,0,0:0:0:0:
329,192,117654,1,0,0:0:0:70:BaSS.wav
182,192,117816,128,0,117978:0:0:0:70:Snare.wav
329,192,117816,1,0,0:0:0:70:BaSS.wav
36,192,117816,128,0,117978:0:0:0:0:
182,192,118464,1,0,0:0:0:0:
402,192,118464,1,0,0:0:0:70:BaSS.wav
109,192,118708,1,0,0:0:0:0:
402,192,118708,1,0,0:0:0:70:BaSS.wav
36,192,118951,1,0,0:0:0:0:
402,192,118951,1,0,0:0:0:70:BaSS.wav
475,192,119113,1,0,0:0:0:0:
329,192,119113,1,0,0:0:0:70:BaSS.wav
182,192,119113,1,0,0:0:0:70:Snare.wav
402,192,119437,1,0,0:0:0:0:
256,192,119437,1,0,0:0:0:70:BaSS.wav
402,192,119599,1,0,0:0:0:0:
256,192,119599,1,0,0:0:0:70:BaSS.wav
109,192,119762,128,0,124951:0:0:0:0:
402,192,124951,1,0,0:0:0:0:
109,192,125275,128,0,125599:0:0:0:0:
182,192,125599,128,0,125924:0:0:0:0:
256,192,125924,128,0,126248:0:0:0:0:
329,192,126248,128,0,127545:0:0:0:0:
182,192,127870,128,0,128194:0:0:0:0:
256,192,128194,128,0,128518:0:0:0:0:
329,192,128518,128,0,128843:0:0:0:0:
402,192,128843,128,0,130140:0:0:0:0:
256,192,130464,128,0,130789:0:0:0:0:
329,192,130789,128,0,131113:0:0:0:0:
402,192,131113,128,0,131437:0:0:0:0:
475,192,131437,128,0,132086:0:0:0:0:
329,192,132086,128,0,132735:0:0:0:0:
182,192,132735,128,0,133383:0:0:0:0:
36,192,133383,128,0,134032:0:0:0:0:
329,192,134032,1,0,0:0:0:70:BaSS.wav
182,192,134032,1,0,0:0:0:70:Snare.wav
475,192,134194,1,0,0:0:0:70:BaSS.wav
329,192,134275,1,0,0:0:0:70:BaSS.wav
36,192,134356,1,0,0:0:0:70:BaSS.wav
182,192,134437,1,0,0:0:0:70:BaSS.wav
475,192,134518,1,0,0:0:0:70:BaSS.wav
329,192,134518,1,0,0:0:0:70:Snare.wav
109,192,134681,1,0,0:0:0:70:BaSS.wav
256,192,134762,1,0,0:0:0:70:BaSS.wav
402,192,134843,1,0,0:0:0:70:BaSS.wav
256,192,134924,1,0,0:0:0:70:BaSS.wav
36,192,135005,128,0,135248:0:0:0:0:
109,192,135005,128,0,135248:0:0:0:70:Sub BaSS.wav
402,192,135329,128,0,135654:0:0:0:0:
36,192,135329,1,0,0:0:0:0:
109,192,135329,1,0,0:0:0:70:BaSS.wav
329,192,135654,1,0,0:0:0:0:
109,192,135654,1,0,0:0:0:70:BaSS.wav
36,192,135654,1,0,0:0:0:70:Snare.wav
256,192,135897,1,0,0:0:0:0:
182,192,135897,1,0,0:0:0:70:BaSS.wav
475,192,135978,128,0,136627:0:0:0:0:
256,192,136140,1,0,0:0:0:0:
182,192,136140,1,0,0:0:0:70:BaSS.wav
329,192,136302,1,0,0:0:0:0:
109,192,136302,1,0,0:0:0:70:BaSS.wav
36,192,136302,1,0,0:0:0:70:Snare.wav
256,192,136464,1,0,0:0:0:70:BaSS.wav
36,192,136627,1,0,0:0:0:70:BaSS.wav
182,192,136627,1,0,0:0:0:70:Chi!.wav
182,192,136789,1,0,0:0:0:70:Chi!.wav
329,192,136951,1,0,0:0:0:70:BaSS.wav
36,192,136951,128,0,137275:0:0:0:70:Chi!.wav
475,192,136951,1,0,0:0:0:70:Snare.wav
182,192,137113,128,0,137275:0:0:0:70:Chi!.wav
329,192,137194,1,0,0:0:0:70:BaSS.wav
329,192,137437,1,0,0:0:0:70:BaSS.wav
475,192,137599,128,0,137924:0:0:0:70:PunK.wav
36,192,137599,1,0,0:0:0:70:BaSS.wav
182,192,137599,1,0,0:0:0:70:Snare.wav
256,192,137762,1,0,0:0:0:70:BaSS.wav
402,192,137924,1,0,0:0:0:0:
36,192,137924,1,0,0:0:0:70:PunK.wav
329,192,137924,1,0,0:0:0:70:BaSS.wav
36,192,138248,1,0,0:0:0:0:
182,192,138248,1,0,0:0:0:70:BaSS.wav
329,192,138248,1,0,0:0:0:70:Snare.wav
329,192,138491,1,0,0:0:0:0:
475,192,138491,1,0,0:0:0:70:BaSS.wav
36,192,138572,128,0,139221:0:0:0:0:
475,192,138735,1,0,0:0:0:0:
329,192,138735,1,0,0:0:0:70:BaSS.wav
109,192,138897,1,0,0:0:0:0:
182,192,138897,1,0,0:0:0:70:BaSS.wav
402,192,138897,1,0,0:0:0:70:Snare.wav
256,192,139059,1,0,0:0:0:70:BaSS.wav
475,192,139221,1,0,0:0:0:0:
329,192,139221,1,0,0:0:0:0:
36,192,139383,128,0,139545:0:0:0:70:Chi!.wav
182,192,139383,128,0,139545:0:0:0:70:BaSS.wav
182,192,139708,128,0,139870:0:0:0:70:BaSS.wav
36,192,139708,128,0,139870:0:0:0:70:Chi!.wav
475,192,140032,1,0,0:0:0:70:Chi!.wav
329,192,140032,1,0,0:0:0:70:BaSS.wav
329,192,140194,1,0,0:0:0:70:BaSS.wav
475,192,140194,1,0,0:0:0:70:Chi!.wav
109,192,140194,128,0,140518:0:0:0:70:Snare.wav
256,192,140518,1,0,0:0:0:0:
402,192,140518,1,0,0:0:0:70:BaSS.wav
329,192,140843,1,0,0:0:0:0:
36,192,140843,1,0,0:0:0:70:BaSS.wav
182,192,140843,1,0,0:0:0:70:Snare.wav
402,192,141086,1,0,0:0:0:70:BaSS.wav
256,192,141167,1,0,0:0:0:0:
109,192,141167,128,0,141329:0:0:0:70:Beep.wav
475,192,141329,1,0,0:0:0:70:BaSS.wav
402,192,141491,1,0,0:0:0:70:Snare.wav
109,192,141491,128,0,141654:0:0:0:70:Beep.wav
329,192,141654,1,0,0:0:0:70:BaSS.wav
109,192,141816,128,0,142140:0:0:0:0:
256,192,141816,1,0,0:0:0:70:BaSS.wav
329,192,142140,1,0,0:0:0:0:
182,192,142140,1,0,0:0:0:70:BaSS.wav
475,192,142140,1,0,0:0:0:70:Snare.wav
182,192,142383,1,0,0:0:0:70:BaSS.wav
475,192,142464,1,0,0:0:0:70:Beep.wav
402,192,142545,1,0,0:0:0:70:Beep.wav
329,192,142627,1,0,0:0:0:70:Beep.wav
182,192,142627,1,0,0:0:0:70:BaSS.wav
475,192,142789,128,0,143113:0:0:0:70:BaSS.wav
36,192,142789,1,0,0:0:0:70:PunK.wav
256,192,142789,1,0,0:0:0:70:Snare.wav
109,192,142951,1,0,0:0:0:70:BaSS.wav
402,192,143113,1,0,0:0:0:0:
329,192,143113,1,0,0:0:0:70:PunK.wav
182,192,143113,1,0,0:0:0:70:BaSS.wav
182,192,143437,1,0,0:0:0:0:
475,192,143437,1,0,0:0:0:70:BaSS.wav
36,192,143437,1,0,0:0:0:70:Snare.wav
256,192,143518,1,0,0:0:0:0:
329,192,143599,1,0,0:0:0:70:BaSS.wav
402,192,143681,1,0,0:0:0:0:
109,192,143681,1,0,0:0:0:70:BaSS.wav
475,192,143762,128,0,144410:0:0:0:0:
109,192,143924,1,0,0:0:0:70:BaSS.wav
402,192,144086,128,0,144410:0:0:0:0:
36,192,144086,1,0,0:0:0:70:BaSS.wav
182,192,144086,1,0,0:0:0:70:Snare.wav
256,192,144248,1,0,0:0:0:70:BaSS.wav
36,192,144410,1,0,0:0:0:0:
329,192,144410,1,0,0:0:0:70:BaSS.wav
402,192,144572,128,0,144735:0:0:0:0:
475,192,144572,128,0,144735:0:0:0:70:Chi!.wav
475,192,144897,128,0,145059:0:0:0:70:Chi!.wav
402,192,144897,128,0,145059:0:0:0:70:BaSS.wav
36,192,145221,1,0,0:0:0:70:Chi!.wav
182,192,145221,1,0,0:0:0:70:BaSS.wav
475,192,145383,128,0,145708:0:0:0:70:Chi!.wav
182,192,145383,1,0,0:0:0:70:BaSS.wav
36,192,145383,1,0,0:0:0:70:Snare.wav
36,192,145708,1,0,0:0:0:0:
329,192,145708,1,0,0:0:0:70:BaSS.wav
182,192,145708,1,0,0:0:0:70:Cymbal.wav
402,192,145870,1,0,0:0:0:0:
256,192,145951,1,0,0:0:0:0:
109,192,146032,1,0,0:0:0:70:Snare.wav
182,192,146113,1,0,0:0:0:0:
256,192,146194,1,0,0:0:0:70:BaSS.wav
329,192,146275,1,0,0:0:0:70:BaSS.wav
402,192,146356,1,0,0:0:0:0:
36,192,146356,128,0,146681:0:0:0:0:
475,192,146356,1,0,0:0:0:0:
329,192,146518,1,0,0:0:0:0:
256,192,146518,1,0,0:0:0:70:BaSS.wav
475,192,146681,128,0,147005:0:0:0:0:
182,192,146681,1,0,0:0:0:70:BaSS.wav
109,192,146681,1,0,0:0:0:70:Snare.wav
329,192,146843,1,0,0:0:0:0:
402,192,146843,1,0,0:0:0:70:BaSS.wav
182,192,147005,1,0,0:0:0:0:
256,192,147005,1,0,0:0:0:70:BaSS.wav
36,192,147167,1,0,0:0:0:0:
182,192,147248,1,0,0:0:0:0:
329,192,147329,1,0,0:0:0:70:Snare.wav
475,192,147410,1,0,0:0:0:0:
402,192,147491,1,0,0:0:0:70:BaSS.wav
329,192,147572,1,0,0:0:0:70:BaSS.wav
256,192,147654,1,0,0:0:0:0:
182,192,147735,1,0,0:0:0:0:
109,192,147816,1,0,0:0:0:70:BaSS.wav
36,192,147897,1,0,0:0:0:0:
475,192,147978,128,0,148302:0:0:0:70:BaSS.wav
402,192,147978,1,0,0:0:0:70:PunK.wav
329,192,147978,1,0,0:0:0:70:Snare.wav
256,192,148140,1,0,0:0:0:70:BaSS.wav
36,192,148302,1,0,0:0:0:0:
109,192,148302,1,0,0:0:0:70:BaSS.wav
182,192,148302,1,0,0:0:0:70:PunK.wav
256,192,148383,1,0,0:0:0:0:
329,192,148464,1,0,0:0:0:0:
402,192,148545,1,0,0:0:0:0:
475,192,148627,1,0,0:0:0:70:Snare.wav
109,192,148708,1,0,0:0:0:0:
182,192,148789,1,0,0:0:0:70:BaSS.wav
256,192,148870,1,0,0:0:0:70:BaSS.wav
475,192,148951,128,0,149599:0:0:0:0:
329,192,148951,1,0,0:0:0:0:
36,192,149113,1,0,0:0:0:70:BaSS.wav
182,192,149194,1,0,0:0:0:0:
402,192,149275,1,0,0:0:0:70:Snare.wav
329,192,149356,1,0,0:0:0:0:
256,192,149437,1,0,0:0:0:70:BaSS.wav
182,192,149518,1,0,0:0:0:70:BaSS.wav
109,192,149599,1,0,0:0:0:0:
36,192,149681,1,0,0:0:0:0:
182,192,149762,1,0,0:0:0:0:
329,192,149843,1,0,0:0:0:0:
475,192,149924,1,0,0:0:0:70:Snare.wav
109,192,150086,1,0,0:0:0:70:BaSS.wav
329,192,150167,1,0,0:0:0:70:BaSS.wav
182,192,150248,1,0,0:0:0:0:
402,192,150329,1,0,0:0:0:0:
256,192,150410,1,0,0:0:0:70:BaSS.wav
475,192,150491,1,0,0:0:0:0:
36,192,150572,128,0,150897:0:0:0:70:Beep.wav
329,192,150572,1,0,0:0:0:70:BaSS.wav
109,192,150572,1,0,0:0:0:70:Snare.wav
402,192,150735,1,0,0:0:0:70:BaSS.wav
182,192,150897,1,0,0:0:0:0:
475,192,150897,128,0,151221:0:0:0:70:BaSS.wav
256,192,150978,1,0,0:0:0:0:
329,192,151059,1,0,0:0:0:0:
182,192,151140,1,0,0:0:0:0:
36,192,151221,1,0,0:0:0:70:Snare.wav
329,192,151383,1,0,0:0:0:70:BaSS.wav
475,192,151464,1,0,0:0:0:70:BaSS.wav
182,192,151545,1,0,0:0:0:0:
329,192,151627,1,0,0:0:0:0:
36,192,151708,1,0,0:0:0:70:BaSS.wav
182,192,151789,1,0,0:0:0:0:
329,192,151870,1,0,0:0:0:70:Snare.wav
256,192,151951,1,0,0:0:0:0:
182,192,152032,1,0,0:0:0:70:BaSS.wav
109,192,152113,1,0,0:0:0:0:
36,192,152194,128,0,152518:0:0:0:0:
475,192,152194,1,0,0:0:0:0:
402,192,152194,1,0,0:0:0:70:BaSS.wav
329,192,152356,1,0,0:0:0:0:
256,192,152356,1,0,0:0:0:0:
109,192,152518,1,0,0:0:0:70:BaSS.wav
182,192,152518,1,0,0:0:0:70:Snare.wav
256,192,152681,1,0,0:0:0:0:
329,192,152681,1,0,0:0:0:70:BaSS.wav
475,192,152843,1,0,0:0:0:0:
402,192,152843,1,0,0:0:0:0:
329,192,152924,1,0,0:0:0:0:
256,192,153005,1,0,0:0:0:0:
182,192,153086,1,0,0:0:0:0:
475,192,153167,128,0,153491:0:0:0:70:PunK.wav
109,192,153167,1,0,0:0:0:70:BaSS.wav
36,192,153167,1,0,0:0:0:70:Snare.wav
182,192,153329,1,0,0:0:0:70:BaSS.wav
36,192,153491,1,0,0:0:0:0:
329,192,153491,1,0,0:0:0:70:BaSS.wav
256,192,153491,1,0,0:0:0:70:PunK.wav
475,192,153654,1,0,0:0:0:0:
402,192,153654,1,0,0:0:0:0:
182,192,153816,1,0,0:0:0:70:BaSS.wav
256,192,153816,1,0,0:0:0:70:Snare.wav
475,192,153978,1,0,0:0:0:0:
402,192,153978,1,0,0:0:0:70:BaSS.wav
109,192,154140,1,0,0:0:0:0:
182,192,154140,1,0,0:0:0:0:
475,192,154302,1,0,0:0:0:0:
402,192,154302,1,0,0:0:0:70:BaSS.wav
109,192,154464,1,0,0:0:0:70:BaSS.wav
36,192,154464,1,0,0:0:0:70:Snare.wav
475,192,154627,1,0,0:0:0:0:
402,192,154627,1,0,0:0:0:70:BaSS.wav
36,192,154789,1,0,0:0:0:0:
182,192,154789,1,0,0:0:0:70:BaSS.wav
256,192,154870,1,0,0:0:0:0:
329,192,154951,1,0,0:0:0:0:
402,192,155032,1,0,0:0:0:0:
109,192,155113,1,0,0:0:0:70:Snare.wav
182,192,155194,1,0,0:0:0:0:
256,192,155275,1,0,0:0:0:70:BaSS.wav
329,192,155356,1,0,0:0:0:0:
475,192,155437,1,0,0:0:0:0:
402,192,155437,1,0,0:0:0:70:BaSS.wav
36,192,155437,1,0,0:0:0:70:Impact.wav
329,192,155681,1,0,0:0:0:0:
109,192,155681,1,0,0:0:0:0:
402,192,155681,1,0,0:0:0:70:Impact.wav
256,192,155924,1,0,0:0:0:0:
329,192,155924,1,0,0:0:0:0:
182,192,155924,1,0,0:0:0:70:Impact.wav
36,192,156086,1,0,0:0:0:0:
109,192,156086,1,0,0:0:0:0:
402,192,156086,1,0,0:0:0:70:Impact.wav
475,192,156086,1,0,0:0:0:70:BaSS.wav
