osu file format v14

[General]
AudioFilename: audio.mp3
AudioLeadIn: 0
PreviewTime: 45816
Countdown: 0
SampleSet: Soft
StackLeniency: 0.7
Mode: 3
LetterboxInBreaks: 0
SpecialStyle: 0
WidescreenStoryboard: 0

[Editor]
DistanceSpacing: 1.6
BeatDivisor: 4
GridSize: 4
TimelineZoom: 0.8999999

[Metadata]
Title:Amphisbaena
TitleUnicode:Amphisbaena
Artist:Mitsuyoshi Takenobu no Ani
ArtistUnicode:光吉猛修の兄
Creator:DoNotMess
Version:Normal
Source:BMS
Tags:光吉猛修 crossover orchestra BOFU2015 BMS OF FIGHTERS ULTIMATE 2015 チーム光吉猛修 ajeemaniz ExUsagi
BeatmapID:1116769
BeatmapSetID:524841

[Difficulty]
HPDrainRate:7
CircleSize:4
OverallDifficulty:7
ApproachRate:5
SliderMultiplier:1.4
SliderTickRate:1

[Events]
//Background and Video events
0,0,"Amphisbaena.jpg",0,0
//Break Periods
//Storyboard Layer 0 (Background)
//Storyboard Layer 1 (Fail)
//Storyboard Layer 2 (Pass)
//Storyboard Layer 3 (Foreground)
//Storyboard Sound Samples

[TimingPoints]
5600,324.324324324324,4,2,1,25,1,0
47113,-100,4,2,1,25,0,1
57410,-100,4,2,1,25,0,0
78248,-100,4,2,1,25,0,1
88545,-100,4,2,1,25,0,0
88627,-100,4,2,1,25,0,1
99005,-100,4,2,1,25,0,0
135329,-100,4,2,1,25,0,1
145708,-100,4,2,1,25,0,0

[HitObjects]
320,192,3005,128,0,5599:0:0:0:0:
64,192,5599,1,2,0:0:0:0:
448,192,5924,1,0,0:0:0:0:
448,192,6248,1,0,0:0:0:0:
320,192,6572,1,0,0:0:0:0:
192,192,6897,1,0,0:0:0:0:
64,192,7221,1,0,0:0:0:0:
448,192,7545,1,0,0:0:0:0:
192,192,7870,1,0,0:0:0:0:
64,192,8194,1,0,0:0:0:0:
320,192,8518,1,0,0:0:0:0:
192,192,8843,1,0,0:0:0:0:
448,192,9167,1,0,0:0:0:0:
64,192,9491,1,0,0:0:0:0:
448,192,9816,1,0,0:0:0:0:
320,192,10140,1,0,0:0:0:0:
192,192,10464,1,0,0:0:0:0:
64,192,10789,1,0,0:0:0:0:
448,192,11113,1,0,0:0:0:0:
448,192,11437,1,0,0:0:0:0:
320,192,11762,1,0,0:0:0:0:
192,192,12086,1,0,0:0:0:0:
64,192,12410,1,0,0:0:0:0:
320,192,12735,1,0,0:0:0:0:
448,192,13059,1,0,0:0:0:0:
192,192,13383,1,0,0:0:0:0:
320,192,13708,1,0,0:0:0:0:
64,192,14032,1,0,0:0:0:0:
192,192,14356,1,0,0:0:0:0:
448,192,14681,1,0,0:0:0:0:
64,192,15005,1,0,0:0:0:0:
320,192,15329,1,0,0:0:0:0:
192,192,15654,1,0,0:0:0:0:
64,192,15978,1,4,0:0:0:0:
448,192,15978,1,2,0:0:0:0:
448,192,16627,128,8,16951:0:0:0:0:
320,192,17113,1,2,0:0:0:0:
64,192,17275,1,2,0:0:0:0:
192,192,17599,1,2,0:0:0:0:
448,192,17924,128,8,18248:0:0:0:0:
64,192,18572,1,2,0:0:0:0:
64,192,19059,1,2,0:0:0:0:
448,192,19221,128,8,19545:0:0:0:0:
64,192,19870,1,2,0:0:0:0:
192,192,20113,1,2,0:0:0:0:
320,192,20356,1,2,0:0:0:0:
448,192,20518,128,8,20843:0:0:0:0:
320,192,20843,1,2,0:0:0:0:
192,192,21005,1,2,0:0:0:0:
64,192,21167,1,2,0:0:0:0:
64,192,21816,128,8,22140:0:0:0:0:
448,192,22302,1,2,0:0:0:0:
320,192,22464,1,2,0:0:0:0:
192,192,22789,1,2,0:0:0:0:
64,192,23113,128,8,23437:0:0:0:0:
448,192,23762,1,2,0:0:0:0:
448,192,24248,1,2,0:0:0:0:
64,192,24410,128,8,24735:0:0:0:0:
448,192,25059,1,2,0:0:0:0:
320,192,25302,1,2,0:0:0:0:
192,192,25545,1,2,0:0:0:0:
64,192,25708,128,8,26032:0:0:0:0:
320,192,26032,1,2,0:0:0:0:
192,192,26194,1,2,0:0:0:0:
64,192,26356,1,2,0:0:0:0:
448,192,26356,1,0,0:0:0:0:
320,192,26681,1,0,0:0:0:0:
448,192,27005,1,0,0:0:0:0:
64,192,27329,1,0,0:0:0:0:
192,192,27654,128,0,28951:0:0:0:0:
320,192,29275,1,0,0:0:0:0:
64,192,29599,1,0,0:0:0:0:
192,192,29924,1,0,0:0:0:0:
448,192,30248,128,0,31545:0:0:0:0:
64,192,31870,1,0,0:0:0:0:
192,192,32194,1,0,0:0:0:0:
320,192,32518,1,0,0:0:0:0:
448,192,32843,128,0,33491:0:0:0:0:
320,192,33491,128,0,34140:0:0:0:0:
192,192,34140,128,0,34789:0:0:0:0:
64,192,34789,128,0,35437:0:0:0:0:
448,192,35437,128,0,36735:0:0:0:0:
192,192,36735,1,4,0:0:0:0:
64,192,36735,1,2,0:0:0:0:
320,192,37059,1,0,0:0:0:0:
448,192,37383,128,8,37708:0:0:0:0:
64,192,37708,1,0,0:0:0:0:
320,192,38032,1,0,0:0:0:0:
192,192,38194,1,0,0:0:0:0:
320,192,38356,1,0,0:0:0:0:
192,192,38518,1,0,0:0:0:0:
448,192,38681,128,8,39005:0:0:0:0:
320,192,39005,1,0,0:0:0:0:
64,192,39329,1,0,0:0:0:0:
192,192,39654,1,0,0:0:0:0:
448,192,39978,128,8,40302:0:0:0:0:
64,192,40302,1,0,0:0:0:0:
320,192,40627,1,0,0:0:0:0:
192,192,40789,1,0,0:0:0:0:
320,192,40951,1,0,0:0:0:0:
192,192,41113,1,0,0:0:0:0:
448,192,41275,128,8,41599:0:0:0:0:
192,192,41599,1,0,0:0:0:0:
64,192,41924,128,0,42572:0:0:0:0:
320,192,41924,1,0,0:0:0:0:
192,192,42572,128,8,43221:0:0:0:0:
448,192,42572,1,0,0:0:0:0:
320,192,43221,128,0,43870:0:0:0:0:
64,192,43221,1,0,0:0:0:0:
448,192,43870,128,8,44518:0:0:0:0:
192,192,43870,1,0,0:0:0:0:
192,192,44518,128,0,45167:0:0:0:0:
64,192,44518,1,0,0:0:0:0:
320,192,45167,128,8,45816:0:0:0:0:
448,192,45167,1,0,0:0:0:0:
192,192,45816,1,0,0:0:0:0:
64,192,46140,128,0,46464:0:0:0:0:
448,192,46464,1,0,0:0:0:0:
192,192,47113,1,2,0:0:0:0:
320,192,47113,1,0,0:0:0:0:
64,192,47437,1,8,0:0:0:0:
448,192,47437,1,0,0:0:0:0:
320,192,47681,1,2,0:0:0:0:
320,192,47924,1,2,0:0:0:0:
448,192,48086,1,8,0:0:0:0:
192,192,48086,1,0,0:0:0:0:
64,192,48410,1,2,0:0:0:0:
64,192,48572,1,0,0:0:0:0:
448,192,48735,1,8,0:0:0:0:
320,192,48735,1,0,0:0:0:0:
64,192,48897,1,0,0:0:0:0:
192,192,49221,1,2,0:0:0:0:
320,192,49383,1,8,0:0:0:0:
448,192,49383,1,0,0:0:0:0:
64,192,49708,1,2,0:0:0:0:
192,192,49708,1,0,0:0:0:0:
64,192,50032,1,8,0:0:0:0:
448,192,50032,1,0,0:0:0:0:
192,192,50275,1,2,0:0:0:0:
192,192,50518,1,2,0:0:0:0:
320,192,50681,1,8,0:0:0:0:
448,192,50681,1,0,0:0:0:0:
64,192,51005,128,0,51329:0:0:0:0:
448,192,51329,128,8,51654:0:0:0:0:
192,192,51654,1,0,0:0:0:0:
320,192,51816,1,2,0:0:0:0:
64,192,51978,1,8,0:0:0:0:
448,192,51978,1,0,0:0:0:0:
192,192,52302,1,2,0:0:0:0:
320,192,52627,1,8,0:0:0:0:
448,192,52627,1,0,0:0:0:0:
192,192,52870,1,2,0:0:0:0:
192,192,53113,1,2,0:0:0:0:
64,192,53275,1,8,0:0:0:0:
448,192,53275,1,0,0:0:0:0:
320,192,53599,128,2,53924:0:0:0:0:
64,192,53924,1,8,0:0:0:0:
192,192,53924,1,0,0:0:0:0:
448,192,54167,1,2,0:0:0:0:
448,192,54410,1,2,0:0:0:0:
64,192,54572,1,8,0:0:0:0:
320,192,54572,1,0,0:0:0:0:
192,192,54897,1,2,0:0:0:0:
448,192,54897,1,0,0:0:0:0:
448,192,55221,1,8,0:0:0:0:
320,192,55221,1,0,0:0:0:0:
64,192,55464,1,2,0:0:0:0:
64,192,55708,1,2,0:0:0:0:
192,192,55870,1,8,0:0:0:0:
448,192,55870,1,0,0:0:0:0:
64,192,56194,1,2,0:0:0:0:
448,192,56356,1,0,0:0:0:0:
448,192,56681,1,2,0:0:0:0:
448,192,57005,1,2,0:0:0:0:
192,192,57167,1,8,0:0:0:0:
320,192,57167,1,0,0:0:0:0:
64,192,57491,1,2,0:0:0:0:
448,192,57491,1,0,0:0:0:0:
192,192,57654,1,0,0:0:0:0:
448,192,57816,1,8,0:0:0:0:
64,192,57978,1,0,0:0:0:0:
320,192,58140,1,0,0:0:0:0:
192,192,58302,1,2,0:0:0:0:
448,192,58464,1,8,0:0:0:0:
320,192,58627,1,2,0:0:0:0:
64,192,58789,1,2,0:0:0:0:
448,192,58951,1,0,0:0:0:0:
192,192,59113,1,8,0:0:0:0:
320,192,59275,1,2,0:0:0:0:
64,192,59437,1,0,0:0:0:0:
192,192,59599,1,2,0:0:0:0:
320,192,59762,1,8,0:0:0:0:
448,192,59762,1,0,0:0:0:0:
64,192,60086,1,2,0:0:0:0:
448,192,60086,1,0,0:0:0:0:
320,192,60248,1,0,0:0:0:0:
192,192,60410,1,8,0:0:0:0:
448,192,60572,1,2,0:0:0:0:
64,192,60735,1,0,0:0:0:0:
320,192,60897,1,2,0:0:0:0:
192,192,61059,1,8,0:0:0:0:
448,192,61221,1,0,0:0:0:0:
64,192,61383,1,0,0:0:0:0:
192,192,61545,1,2,0:0:0:0:
448,192,61708,1,8,0:0:0:0:
64,192,61870,1,0,0:0:0:0:
320,192,62032,1,0,0:0:0:0:
192,192,62194,1,2,0:0:0:0:
64,192,62356,1,8,0:0:0:0:
448,192,62356,1,0,0:0:0:0:
192,192,62681,1,2,0:0:0:0:
320,192,62681,1,0,0:0:0:0:
64,192,62843,1,0,0:0:0:0:
448,192,63005,1,8,0:0:0:0:
320,192,63167,1,0,0:0:0:0:
192,192,63329,1,0,0:0:0:0:
64,192,63491,1,2,0:0:0:0:
192,192,63654,1,8,0:0:0:0:
320,192,63816,1,2,0:0:0:0:
448,192,63978,1,2,0:0:0:0:
64,192,63978,1,0,0:0:0:0:
192,192,64140,1,0,0:0:0:0:
320,192,64302,1,8,0:0:0:0:
64,192,64464,1,0,0:0:0:0:
192,192,64627,1,0,0:0:0:0:
448,192,64789,1,2,0:0:0:0:
320,192,64951,1,8,0:0:0:0:
64,192,64951,1,0,0:0:0:0:
192,192,65275,1,2,0:0:0:0:
448,192,65275,1,0,0:0:0:0:
64,192,65437,1,0,0:0:0:0:
320,192,65599,1,8,0:0:0:0:
64,192,65762,1,0,0:0:0:0:
192,192,65924,1,0,0:0:0:0:
64,192,66086,1,2,0:0:0:0:
448,192,66248,1,8,0:0:0:0:
64,192,66410,1,2,0:0:0:0:
192,192,66572,1,2,0:0:0:0:
448,192,66735,1,0,0:0:0:0:
64,192,66897,1,8,0:0:0:0:
448,192,67059,1,2,0:0:0:0:
64,192,67221,1,0,0:0:0:0:
192,192,67221,1,0,0:0:0:0:
192,192,67464,1,0,0:0:0:0:
320,192,67464,1,0,0:0:0:0:
320,192,67708,1,0,0:0:0:0:
448,192,67708,1,0,0:0:0:0:
192,192,67870,1,2,0:0:0:0:
64,192,67870,128,4,69167:0:0:0:0:
448,192,68194,1,8,0:0:0:0:
192,192,68437,1,2,0:0:0:0:
192,192,68681,1,2,0:0:0:0:
448,192,68843,1,8,0:0:0:0:
192,192,69005,1,2,0:0:0:0:
320,192,69167,1,2,0:0:0:0:
448,192,69167,128,0,70464:0:0:0:0:
64,192,69491,1,8,0:0:0:0:
320,192,69735,1,2,0:0:0:0:
320,192,69978,1,2,0:0:0:0:
64,192,70140,1,8,0:0:0:0:
320,192,70302,1,2,0:0:0:0:
64,192,70464,128,2,71762:0:0:0:0:
192,192,70464,1,0,0:0:0:0:
448,192,70789,1,8,0:0:0:0:
320,192,71032,1,2,0:0:0:0:
320,192,71275,1,2,0:0:0:0:
448,192,71437,1,8,0:0:0:0:
192,192,71599,1,2,0:0:0:0:
320,192,71762,128,2,73059:0:0:0:0:
448,192,71762,1,0,0:0:0:0:
64,192,72086,1,8,0:0:0:0:
448,192,72248,1,2,0:0:0:0:
448,192,72572,1,2,0:0:0:0:
64,192,72735,1,8,0:0:0:0:
192,192,72897,1,2,0:0:0:0:
448,192,73059,1,2,0:0:0:0:
192,192,73383,1,8,0:0:0:0:
320,192,73383,1,0,0:0:0:0:
64,192,73708,1,2,0:0:0:0:
192,192,73870,1,2,0:0:0:0:
320,192,74032,1,8,0:0:0:0:
448,192,74032,1,0,0:0:0:0:
64,192,74356,1,2,0:0:0:0:
448,192,74518,1,2,0:0:0:0:
192,192,74681,1,8,0:0:0:0:
320,192,74843,1,2,0:0:0:0:
448,192,75005,1,2,0:0:0:0:
64,192,75167,1,2,0:0:0:0:
320,192,75329,1,8,0:0:0:0:
192,192,75491,1,2,0:0:0:0:
448,192,75654,128,2,76302:0:0:0:0:
64,192,75978,128,8,76302:0:0:0:0:
192,192,76302,128,2,76951:0:0:0:0:
320,192,76627,128,8,76951:0:0:0:0:
448,192,76951,128,2,78248:0:0:0:0:
64,192,77599,128,2,78248:0:0:0:0:
192,192,78248,1,4,0:0:0:0:
320,192,78248,1,2,0:0:0:0:
64,192,78735,1,0,0:0:0:0:
448,192,78897,1,2,0:0:0:0:
192,192,79059,1,0,0:0:0:0:
320,192,79221,1,8,0:0:0:0:
64,192,79383,1,0,0:0:0:0:
192,192,79545,1,2,0:0:0:0:
320,192,79789,1,0,0:0:0:0:
448,192,80032,1,0,0:0:0:0:
64,192,80194,128,2,80843:0:0:0:0:
192,192,80518,1,8,0:0:0:0:
192,192,80681,1,2,0:0:0:0:
448,192,80843,1,4,0:0:0:0:
320,192,80843,1,2,0:0:0:0:
64,192,81167,1,8,0:0:0:0:
192,192,81167,1,0,0:0:0:0:
448,192,81491,1,2,0:0:0:0:
64,192,81654,1,2,0:0:0:0:
320,192,81816,1,8,0:0:0:0:
192,192,81978,1,2,0:0:0:0:
64,192,82140,1,4,0:0:0:0:
448,192,82140,1,2,0:0:0:0:
192,192,82464,1,2,0:0:0:0:
320,192,82464,1,0,0:0:0:0:
64,192,82789,1,2,0:0:0:0:
448,192,82951,1,2,0:0:0:0:
192,192,83113,1,2,0:0:0:0:
320,192,83275,1,2,0:0:0:0:
64,192,83437,1,4,0:0:0:0:
192,192,83437,1,2,0:0:0:0:
320,192,83762,1,8,0:0:0:0:
448,192,83762,1,0,0:0:0:0:
192,192,84086,1,2,0:0:0:0:
64,192,84410,1,8,0:0:0:0:
448,192,84410,1,0,0:0:0:0:
320,192,84735,1,2,0:0:0:0:
64,192,85059,1,8,0:0:0:0:
192,192,85059,1,0,0:0:0:0:
320,192,85383,1,2,0:0:0:0:
448,192,85708,1,8,0:0:0:0:
64,192,85708,1,0,0:0:0:0:
192,192,85870,1,2,0:0:0:0:
320,192,86032,1,4,0:0:0:0:
192,192,86194,1,2,0:0:0:0:
64,192,86356,1,8,0:0:0:0:
448,192,86518,128,2,86681:0:0:0:0:
192,192,86681,1,2,0:0:0:0:
320,192,86843,1,2,0:0:0:0:
448,192,87005,1,8,0:0:0:0:
64,192,87167,128,2,87329:0:0:0:0:
192,192,87329,1,2,0:0:0:0:
448,192,87491,128,2,87654:0:0:0:0:
320,192,87654,1,2,0:0:0:0:
192,192,87816,1,2,0:0:0:0:
448,192,87978,1,2,0:0:0:0:
64,192,88140,1,2,0:0:0:0:
448,192,88302,1,2,0:0:0:0:
64,192,88464,1,2,0:0:0:0:
320,192,88627,1,4,0:0:0:0:
448,192,88627,1,2,0:0:0:0:
192,192,89113,1,0,0:0:0:0:
320,192,89275,1,2,0:0:0:0:
64,192,89437,1,0,0:0:0:0:
448,192,89599,1,8,0:0:0:0:
320,192,89762,1,0,0:0:0:0:
192,192,89924,1,2,0:0:0:0:
320,192,90167,1,0,0:0:0:0:
448,192,90410,1,0,0:0:0:0:
64,192,90572,128,2,91221:0:0:0:0:
448,192,90897,1,8,0:0:0:0:
448,192,91059,1,2,0:0:0:0:
192,192,91221,1,2,0:0:0:0:
64,192,91545,1,8,0:0:0:0:
448,192,91545,1,0,0:0:0:0:
192,192,91870,1,2,0:0:0:0:
64,192,92032,128,2,92194:0:0:0:0:
320,192,92194,1,2,0:0:0:0:
448,192,92356,128,2,92518:0:0:0:0:
192,192,92518,1,2,0:0:0:0:
64,192,92843,1,8,0:0:0:0:
448,192,92843,1,0,0:0:0:0:
320,192,93167,1,2,0:0:0:0:
64,192,93329,1,2,0:0:0:0:
448,192,93491,1,2,0:0:0:0:
192,192,93654,128,2,93816:0:0:0:0:
320,192,93816,1,4,0:0:0:0:
448,192,93816,1,2,0:0:0:0:
64,192,94140,1,8,0:0:0:0:
192,192,94140,1,0,0:0:0:0:
320,192,94464,1,2,0:0:0:0:
192,192,94627,1,2,0:0:0:0:
64,192,94789,1,8,0:0:0:0:
448,192,94789,1,0,0:0:0:0:
192,192,95113,1,4,0:0:0:0:
320,192,95113,1,2,0:0:0:0:
64,192,95275,1,2,0:0:0:0:
448,192,95437,1,8,0:0:0:0:
192,192,95599,1,2,0:0:0:0:
320,192,95762,1,2,0:0:0:0:
64,192,95924,1,2,0:0:0:0:
192,192,96086,1,8,0:0:0:0:
320,192,96248,1,2,0:0:0:0:
64,192,96410,1,2,0:0:0:0:
448,192,96410,1,4,0:0:0:0:
320,192,96735,1,8,0:0:0:0:
448,192,96735,1,0,0:0:0:0:
64,192,96897,128,0,97708:0:0:0:0:
448,192,97383,128,2,97708:0:0:0:0:
192,192,97708,1,2,0:0:0:0:
448,192,97870,1,2,0:0:0:0:
192,192,98032,1,2,0:0:0:0:
448,192,98194,1,2,0:0:0:0:
64,192,98356,1,2,0:0:0:0:
320,192,98518,1,2,0:0:0:0:
64,192,98681,1,2,0:0:0:0:
320,192,98843,1,2,0:0:0:0:
192,192,99005,1,4,0:0:0:0:
64,192,99005,1,2,0:0:0:0:
192,192,99491,1,0,0:0:0:0:
320,192,99654,1,0,0:0:0:0:
64,192,99978,1,0,0:0:0:0:
320,192,100140,1,0,0:0:0:0:
448,192,100302,128,0,101599:0:0:0:0:
192,192,101924,1,0,0:0:0:0:
448,192,102248,1,0,0:0:0:0:
320,192,102735,1,0,0:0:0:0:
64,192,102897,128,0,104194:0:0:0:0:
448,192,104518,1,0,0:0:0:0:
320,192,104843,1,0,0:0:0:0:
192,192,105329,1,0,0:0:0:0:
448,192,105491,128,0,106140:0:0:0:0:
64,192,106140,128,0,106789:0:0:0:0:
64,192,107113,1,0,0:0:0:0:
192,192,107437,1,0,0:0:0:0:
320,192,107924,1,0,0:0:0:0:
448,192,108086,128,0,109383:0:0:0:0:
64,192,109383,1,2,0:0:0:0:
192,192,109383,1,4,0:0:0:0:
320,192,110032,1,8,0:0:0:0:
448,192,110032,1,0,0:0:0:0:
320,192,110518,1,2,0:0:0:0:
64,192,110681,1,2,0:0:0:0:
64,192,111005,1,2,0:0:0:0:
320,192,111329,1,8,0:0:0:0:
448,192,111329,1,0,0:0:0:0:
448,192,111978,1,2,0:0:0:0:
448,192,112464,1,2,0:0:0:0:
64,192,112627,1,8,0:0:0:0:
192,192,112627,1,0,0:0:0:0:
192,192,113275,1,2,0:0:0:0:
320,192,113518,1,2,0:0:0:0:
448,192,113762,1,2,0:0:0:0:
64,192,113924,1,8,0:0:0:0:
192,192,113924,1,0,0:0:0:0:
320,192,114248,1,2,0:0:0:0:
320,192,114410,1,2,0:0:0:0:
64,192,114572,1,2,0:0:0:0:
320,192,115221,1,8,0:0:0:0:
448,192,115221,1,0,0:0:0:0:
320,192,115708,1,2,0:0:0:0:
64,192,115870,1,2,0:0:0:0:
64,192,116194,1,2,0:0:0:0:
320,192,116518,1,8,0:0:0:0:
448,192,116518,1,0,0:0:0:0:
448,192,117167,1,2,0:0:0:0:
448,192,117654,1,2,0:0:0:0:
64,192,117816,1,8,0:0:0:0:
192,192,117816,1,0,0:0:0:0:
192,192,118464,1,2,0:0:0:0:
320,192,118708,1,2,0:0:0:0:
448,192,118951,1,2,0:0:0:0:
64,192,119113,1,8,0:0:0:0:
192,192,119113,1,0,0:0:0:0:
320,192,119437,1,2,0:0:0:0:
192,192,119599,1,2,0:0:0:0:
448,192,119762,128,0,121059:0:0:0:0:
64,192,121059,128,0,122356:0:0:0:0:
320,192,122356,128,0,124951:0:0:0:0:
64,192,124951,1,2,0:0:0:0:
192,192,124951,1,0,0:0:0:0:
320,192,125275,1,0,0:0:0:0:
448,192,125599,1,0,0:0:0:0:
64,192,125924,1,0,0:0:0:0:
192,192,126248,128,0,127545:0:0:0:0:
320,192,127870,1,0,0:0:0:0:
64,192,128194,1,0,0:0:0:0:
192,192,128518,1,0,0:0:0:0:
448,192,128843,128,0,130140:0:0:0:0:
64,192,130464,1,0,0:0:0:0:
192,192,130789,1,0,0:0:0:0:
320,192,131113,1,0,0:0:0:0:
448,192,131437,128,0,132086:0:0:0:0:
320,192,132086,128,0,132735:0:0:0:0:
192,192,132735,128,0,133383:0:0:0:0:
64,192,133383,128,0,134032:0:0:0:0:
320,192,134032,1,8,0:0:0:0:
448,192,134032,1,0,0:0:0:0:
192,192,134194,1,2,0:0:0:0:
64,192,134356,1,2,0:0:0:0:
320,192,134518,1,8,0:0:0:0:
448,192,134518,1,0,0:0:0:0:
192,192,134681,1,2,0:0:0:0:
64,192,134843,1,2,0:0:0:0:
448,192,135005,128,0,135329:0:0:0:0:
192,192,135329,1,2,0:0:0:0:
64,192,135329,1,0,0:0:0:0:
64,192,135654,1,8,0:0:0:0:
448,192,135654,1,0,0:0:0:0:
192,192,135897,1,2,0:0:0:0:
192,192,136140,1,2,0:0:0:0:
320,192,136302,1,8,0:0:0:0:
64,192,136302,1,0,0:0:0:0:
448,192,136627,1,2,0:0:0:0:
448,192,136789,1,0,0:0:0:0:
64,192,136951,1,8,0:0:0:0:
192,192,136951,1,0,0:0:0:0:
448,192,137113,1,0,0:0:0:0:
192,192,137437,1,2,0:0:0:0:
320,192,137599,1,8,0:0:0:0:
448,192,137599,1,0,0:0:0:0:
64,192,137924,1,2,0:0:0:0:
448,192,137924,1,0,0:0:0:0:
192,192,138248,1,8,0:0:0:0:
320,192,138248,1,0,0:0:0:0:
64,192,138491,1,2,0:0:0:0:
448,192,138572,128,0,139221:0:0:0:0:
64,192,138735,1,2,0:0:0:0:
192,192,138897,1,8,0:0:0:0:
320,192,138897,1,0,0:0:0:0:
64,192,139221,1,0,0:0:0:0:
320,192,139383,1,2,0:0:0:0:
320,192,139708,1,0,0:0:0:0:
320,192,140032,1,2,0:0:0:0:
64,192,140194,128,8,140518:0:0:0:0:
448,192,140194,128,0,140518:0:0:0:0:
192,192,140518,1,2,0:0:0:0:
320,192,140843,1,8,0:0:0:0:
448,192,140843,1,0,0:0:0:0:
192,192,141167,1,0,0:0:0:0:
64,192,141167,128,0,141329:0:0:0:0:
320,192,141491,1,8,0:0:0:0:
448,192,141491,128,0,141654:0:0:0:0:
192,192,141816,128,2,142140:0:0:0:0:
64,192,142140,1,8,0:0:0:0:
448,192,142140,1,0,0:0:0:0:
320,192,142383,1,2,0:0:0:0:
320,192,142627,1,2,0:0:0:0:
64,192,142789,1,8,0:0:0:0:
192,192,142789,1,0,0:0:0:0:
320,192,143113,1,2,0:0:0:0:
448,192,143113,1,0,0:0:0:0:
64,192,143437,1,8,0:0:0:0:
448,192,143437,1,0,0:0:0:0:
192,192,143681,1,2,0:0:0:0:
192,192,143924,1,2,0:0:0:0:
64,192,144086,1,8,0:0:0:0:
448,192,144086,1,0,0:0:0:0:
320,192,144410,1,2,0:0:0:0:
192,192,144572,1,0,0:0:0:0:
192,192,144897,1,2,0:0:0:0:
192,192,145221,1,2,0:0:0:0:
448,192,145383,128,8,145708:0:0:0:0:
64,192,145383,128,0,145708:0:0:0:0:
192,192,145708,1,2,0:0:0:0:
320,192,145708,1,4,0:0:0:0:
64,192,145870,1,0,0:0:0:0:
448,192,146032,1,8,0:0:0:0:
320,192,146194,1,0,0:0:0:0:
64,192,146356,128,0,147005:0:0:0:0:
448,192,146518,1,2,0:0:0:0:
192,192,146681,1,8,0:0:0:0:
320,192,146843,1,2,0:0:0:0:
448,192,147005,1,2,0:0:0:0:
192,192,147167,1,0,0:0:0:0:
320,192,147329,1,8,0:0:0:0:
64,192,147491,1,2,0:0:0:0:
192,192,147654,1,0,0:0:0:0:
320,192,147816,1,2,0:0:0:0:
64,192,147978,1,8,0:0:0:0:
192,192,147978,1,0,0:0:0:0:
320,192,148302,1,2,0:0:0:0:
448,192,148302,1,0,0:0:0:0:
64,192,148464,1,0,0:0:0:0:
192,192,148627,1,8,0:0:0:0:
320,192,148789,1,2,0:0:0:0:
448,192,148951,128,0,149599:0:0:0:0:
192,192,149113,1,2,0:0:0:0:
64,192,149275,1,8,0:0:0:0:
320,192,149437,1,0,0:0:0:0:
64,192,149599,1,0,0:0:0:0:
448,192,149762,1,2,0:0:0:0:
192,192,149924,1,8,0:0:0:0:
320,192,150086,1,0,0:0:0:0:
64,192,150248,1,0,0:0:0:0:
192,192,150410,1,2,0:0:0:0:
320,192,150572,1,8,0:0:0:0:
448,192,150572,1,0,0:0:0:0:
64,192,150897,1,2,0:0:0:0:
192,192,150897,1,0,0:0:0:0:
448,192,151059,1,0,0:0:0:0:
64,192,151221,1,8,0:0:0:0:
320,192,151383,1,0,0:0:0:0:
448,192,151545,1,0,0:0:0:0:
192,192,151708,1,2,0:0:0:0:
320,192,151870,1,8,0:0:0:0:
64,192,152032,1,2,0:0:0:0:
192,192,152194,1,2,0:0:0:0:
448,192,152194,128,0,152518:0:0:0:0:
320,192,152356,1,0,0:0:0:0:
64,192,152518,1,8,0:0:0:0:
192,192,152681,1,0,0:0:0:0:
320,192,152843,1,0,0:0:0:0:
64,192,152843,128,0,153167:0:0:0:0:
448,192,153005,1,2,0:0:0:0:
192,192,153167,1,8,0:0:0:0:
320,192,153167,1,0,0:0:0:0:
64,192,153491,1,2,0:0:0:0:
448,192,153491,1,0,0:0:0:0:
192,192,153654,1,0,0:0:0:0:
320,192,153816,1,8,0:0:0:0:
64,192,153978,1,0,0:0:0:0:
448,192,154140,1,0,0:0:0:0:
320,192,154302,1,2,0:0:0:0:
64,192,154464,1,8,0:0:0:0:
192,192,154627,1,0,0:0:0:0:
448,192,154789,1,2,0:0:0:0:
64,192,154951,1,0,0:0:0:0:
192,192,155113,1,8,0:0:0:0:
64,192,155275,1,2,0:0:0:0:
320,192,155437,1,0,0:0:0:0:
448,192,155437,1,0,0:0:0:0:
64,192,155681,1,0,0:0:0:0:
192,192,155681,1,0,0:0:0:0:
192,192,155924,1,0,0:0:0:0:
320,192,155924,1,0,0:0:0:0:
64,192,156086,1,4,0:0:0:0:
448,192,156086,1,2,0:0:0:0:
