osu file format v14

[General]
AudioFilename: audio.mp3
AudioLeadIn: 0
PreviewTime: 45816
Countdown: 0
SampleSet: Soft
StackLeniency: 0.7
Mode: 3
LetterboxInBreaks: 0
SpecialStyle: 0
WidescreenStoryboard: 0

[Editor]
DistanceSpacing: 1.6
BeatDivisor: 4
GridSize: 4
TimelineZoom: 1.2

[Metadata]
Title:Amphisbaena
TitleUnicode:Amphisbaena
Artist:Mitsuyoshi Takenobu no Ani
ArtistUnicode:光吉猛修の兄
Creator:DoNotMess
Version:Another
Source:BMS
Tags:光吉猛修 crossover orchestra BOFU2015 BMS OF FIGHTERS ULTIMATE 2015 チーム光吉猛修 ajeemaniz ExUsagi
BeatmapID:1113894
BeatmapSetID:524841

[Difficulty]
HPDrainRate:8
CircleSize:4
OverallDifficulty:8
ApproachRate:5
SliderMultiplier:1.4
SliderTickRate:1

[Events]
//Background and Video events
0,0,"Amphisbaena.jpg",0,0
//Break Periods
//Storyboard Layer 0 (Background)
//Storyboard Layer 1 (Fail)
//Storyboard Layer 2 (Pass)
//Storyboard Layer 3 (Foreground)
//Storyboard Sound Samples

[TimingPoints]
5600,324.324324324324,4,2,1,25,1,0
47113,-166.666666666667,4,2,1,25,0,1
47356,-62.5,4,2,1,25,0,1
47437,-100,4,2,1,25,0,1
52302,-166.666666666667,4,2,1,25,0,1
52545,-62.5,4,2,1,25,0,1
52627,-100,4,2,1,25,0,1
53599,-58.8235294117647,4,2,1,25,0,1
53681,-125,4,2,1,25,0,1
53924,-100,4,2,1,25,0,1
57491,-100,4,2,1,25,0,0
78248,-100,4,2,1,25,0,1
88545,-100,4,2,1,25,0,0
88627,-100,4,2,1,25,0,1
99005,-100,4,2,1,25,0,0
135329,-166.666666666667,4,2,1,25,0,1
135572,-62.5,4,2,1,25,0,1
135654,-100,4,2,1,25,0,1
140518,-166.666666666667,4,2,1,25,0,1
140762,-62.5,4,2,1,25,0,1
140843,-100,4,2,1,25,0,1
141167,-166.666666666667,4,2,1,25,0,1
141289,-62.5,4,2,1,25,0,1
141329,-100,4,2,1,25,0,1
141491,-166.666666666667,4,2,1,25,0,1
141613,-62.5,4,2,1,25,0,1
141654,-100,4,2,1,25,0,1
141816,-58.8235294117647,4,2,1,25,0,1
141897,-125,4,2,1,25,0,1
142140,-100,4,2,1,25,0,1
145708,-100,4,2,1,25,0,0

[HitObjects]
192,192,3005,128,0,5599:0:0:0:0:
320,192,3005,128,0,5599:0:0:0:0:
64,192,5599,1,2,0:0:0:0:
448,192,5599,1,4,0:0:0:0:
448,192,5924,1,0,0:0:0:0:
192,192,6086,1,0,0:0:0:0:
448,192,6248,1,0,0:0:0:0:
192,192,6410,1,0,0:0:0:0:
64,192,6572,1,0,0:0:0:0:
192,192,6735,1,0,0:0:0:0:
448,192,6897,1,0,0:0:0:0:
320,192,7059,1,0,0:0:0:0:
192,192,7221,1,0,0:0:0:0:
320,192,7383,1,0,0:0:0:0:
448,192,7545,1,0,0:0:0:0:
320,192,7708,1,0,0:0:0:0:
64,192,7870,1,0,0:0:0:0:
320,192,8032,1,0,0:0:0:0:
448,192,8194,1,0,0:0:0:0:
64,192,8356,1,0,0:0:0:0:
192,192,8518,1,0,0:0:0:0:
64,192,8681,1,0,0:0:0:0:
320,192,8843,1,0,0:0:0:0:
64,192,9005,1,0,0:0:0:0:
448,192,9167,1,0,0:0:0:0:
64,192,9329,1,0,0:0:0:0:
320,192,9491,1,0,0:0:0:0:
448,192,9654,1,0,0:0:0:0:
64,192,9816,1,0,0:0:0:0:
448,192,9978,1,0,0:0:0:0:
320,192,10140,1,0,0:0:0:0:
448,192,10302,1,0,0:0:0:0:
192,192,10464,1,0,0:0:0:0:
448,192,10627,1,0,0:0:0:0:
64,192,10789,1,0,0:0:0:0:
192,192,10951,1,0,0:0:0:0:
448,192,11113,1,0,0:0:0:0:
192,192,11275,1,0,0:0:0:0:
448,192,11437,1,0,0:0:0:0:
192,192,11599,1,0,0:0:0:0:
320,192,11762,1,0,0:0:0:0:
192,192,11924,1,0,0:0:0:0:
64,192,12086,1,0,0:0:0:0:
320,192,12248,1,0,0:0:0:0:
448,192,12410,1,0,0:0:0:0:
320,192,12572,1,0,0:0:0:0:
192,192,12735,1,0,0:0:0:0:
320,192,12897,1,0,0:0:0:0:
448,192,13059,1,0,0:0:0:0:
320,192,13221,1,0,0:0:0:0:
64,192,13383,1,0,0:0:0:0:
192,192,13545,1,0,0:0:0:0:
320,192,13708,1,0,0:0:0:0:
192,192,13870,1,0,0:0:0:0:
64,192,14032,1,0,0:0:0:0:
192,192,14194,1,0,0:0:0:0:
448,192,14356,1,0,0:0:0:0:
192,192,14518,1,0,0:0:0:0:
320,192,14681,1,0,0:0:0:0:
64,192,14843,1,0,0:0:0:0:
448,192,15005,1,0,0:0:0:0:
64,192,15167,1,0,0:0:0:0:
320,192,15329,1,0,0:0:0:0:
64,192,15491,1,0,0:0:0:0:
192,192,15654,1,0,0:0:0:0:
64,192,15816,1,0,0:0:0:0:
64,192,15978,1,0,0:0:0:0:
192,192,15978,1,4,0:0:0:0:
448,192,15978,1,2,0:0:0:0:
320,192,16140,1,0,0:0:0:0:
64,192,16302,1,0,0:0:0:0:
192,192,16464,1,0,0:0:0:0:
64,192,16627,1,8,0:0:0:0:
320,192,16627,1,0,0:0:0:0:
448,192,16627,128,0,16951:0:0:0:0:
192,192,16789,1,0,0:0:0:0:
320,192,16951,1,0,0:0:0:0:
64,192,17113,1,2,0:0:0:0:
192,192,17113,1,0,0:0:0:0:
64,192,17275,1,2,0:0:0:0:
192,192,17275,1,0,0:0:0:0:
320,192,17437,1,0,0:0:0:0:
448,192,17599,1,0,0:0:0:0:
64,192,17599,1,2,0:0:0:0:
192,192,17762,1,0,0:0:0:0:
64,192,17924,1,8,0:0:0:0:
320,192,17924,1,0,0:0:0:0:
448,192,17924,128,0,18248:0:0:0:0:
192,192,18086,1,0,0:0:0:0:
320,192,18248,1,0,0:0:0:0:
192,192,18410,1,0,0:0:0:0:
320,192,18572,1,0,0:0:0:0:
448,192,18572,1,2,0:0:0:0:
64,192,18735,1,0,0:0:0:0:
448,192,18897,1,0,0:0:0:0:
64,192,19059,1,2,0:0:0:0:
192,192,19059,1,0,0:0:0:0:
64,192,19221,1,8,0:0:0:0:
320,192,19221,1,0,0:0:0:0:
448,192,19221,128,0,19545:0:0:0:0:
192,192,19383,1,0,0:0:0:0:
64,192,19545,1,0,0:0:0:0:
320,192,19708,1,0,0:0:0:0:
192,192,19789,1,0,0:0:0:0:
320,192,19870,1,0,0:0:0:0:
448,192,19870,1,2,0:0:0:0:
192,192,20032,1,0,0:0:0:0:
320,192,20113,1,0,0:0:0:0:
448,192,20113,1,2,0:0:0:0:
64,192,20194,1,0,0:0:0:0:
192,192,20356,1,2,0:0:0:0:
320,192,20356,1,0,0:0:0:0:
64,192,20518,1,8,0:0:0:0:
320,192,20518,1,0,0:0:0:0:
448,192,20518,128,0,20843:0:0:0:0:
192,192,20681,1,0,0:0:0:0:
64,192,20843,1,2,0:0:0:0:
320,192,20843,1,0,0:0:0:0:
192,192,21005,1,2,0:0:0:0:
448,192,21005,1,0,0:0:0:0:
448,192,21167,1,2,0:0:0:0:
64,192,21167,1,0,0:0:0:0:
192,192,21329,1,0,0:0:0:0:
448,192,21491,1,0,0:0:0:0:
320,192,21654,1,0,0:0:0:0:
192,192,21816,1,0,0:0:0:0:
448,192,21816,1,8,0:0:0:0:
64,192,21816,128,0,22140:0:0:0:0:
320,192,21978,1,0,0:0:0:0:
192,192,22140,1,0,0:0:0:0:
320,192,22302,1,0,0:0:0:0:
448,192,22302,1,2,0:0:0:0:
320,192,22464,1,0,0:0:0:0:
448,192,22464,1,2,0:0:0:0:
192,192,22627,1,0,0:0:0:0:
448,192,22789,1,2,0:0:0:0:
64,192,22789,1,0,0:0:0:0:
320,192,22951,1,0,0:0:0:0:
192,192,23113,1,0,0:0:0:0:
448,192,23113,1,8,0:0:0:0:
64,192,23113,128,0,23437:0:0:0:0:
320,192,23275,1,0,0:0:0:0:
448,192,23437,1,0,0:0:0:0:
192,192,23599,1,0,0:0:0:0:
320,192,23762,1,0,0:0:0:0:
448,192,23762,1,2,0:0:0:0:
192,192,23924,1,0,0:0:0:0:
64,192,24086,1,0,0:0:0:0:
320,192,24248,1,0,0:0:0:0:
448,192,24248,1,2,0:0:0:0:
192,192,24410,1,0,0:0:0:0:
448,192,24410,1,8,0:0:0:0:
64,192,24410,128,0,24735:0:0:0:0:
320,192,24572,1,0,0:0:0:0:
448,192,24735,1,0,0:0:0:0:
192,192,24897,1,0,0:0:0:0:
320,192,24978,1,0,0:0:0:0:
64,192,25059,1,2,0:0:0:0:
192,192,25059,1,0,0:0:0:0:
320,192,25221,1,0,0:0:0:0:
192,192,25302,1,0,0:0:0:0:
64,192,25302,1,2,0:0:0:0:
448,192,25383,1,0,0:0:0:0:
192,192,25545,1,2,0:0:0:0:
320,192,25545,1,0,0:0:0:0:
192,192,25708,1,0,0:0:0:0:
448,192,25708,1,8,0:0:0:0:
64,192,25708,128,0,26032:0:0:0:0:
320,192,25870,1,0,0:0:0:0:
448,192,26032,1,2,0:0:0:0:
192,192,26032,1,0,0:0:0:0:
320,192,26194,1,2,0:0:0:0:
64,192,26194,1,0,0:0:0:0:
64,192,26356,1,0,0:0:0:0:
192,192,26356,1,2,0:0:0:0:
448,192,26681,128,0,27005:0:0:0:0:
320,192,27005,128,0,28951:0:0:0:0:
64,192,27329,128,0,27654:0:0:0:0:
192,192,27654,128,0,28951:0:0:0:0:
192,192,29275,128,0,29599:0:0:0:0:
64,192,29599,128,0,31545:0:0:0:0:
320,192,29924,128,0,30248:0:0:0:0:
448,192,30248,128,0,31545:0:0:0:0:
64,192,31870,128,0,32518:0:0:0:0:
192,192,32194,128,0,32843:0:0:0:0:
320,192,32518,128,0,33491:0:0:0:0:
448,192,32843,128,0,34140:0:0:0:0:
64,192,33491,128,0,34789:0:0:0:0:
320,192,34140,128,0,36654:0:0:0:0:
192,192,34789,128,0,36654:0:0:0:0:
64,192,35437,128,0,36654:0:0:0:0:
448,192,35437,128,0,36654:0:0:0:0:
192,192,36735,1,4,0:0:0:0:
320,192,36735,1,2,0:0:0:0:
64,192,36735,1,0,0:0:0:0:
448,192,36735,1,0,0:0:0:0:
320,192,37059,1,0,0:0:0:0:
192,192,37221,1,0,0:0:0:0:
448,192,37383,128,0,37708:0:0:0:0:
64,192,37383,1,8,0:0:0:0:
192,192,37708,1,0,0:0:0:0:
320,192,37870,1,0,0:0:0:0:
64,192,38032,1,0,0:0:0:0:
320,192,38194,1,0,0:0:0:0:
192,192,38356,1,0,0:0:0:0:
64,192,38518,1,0,0:0:0:0:
320,192,38681,1,8,0:0:0:0:
448,192,38681,128,0,39005:0:0:0:0:
192,192,39005,1,0,0:0:0:0:
320,192,39167,1,0,0:0:0:0:
64,192,39329,1,0,0:0:0:0:
192,192,39329,1,0,0:0:0:0:
192,192,39654,1,0,0:0:0:0:
320,192,39816,1,0,0:0:0:0:
64,192,39978,128,0,40302:0:0:0:0:
448,192,39978,1,8,0:0:0:0:
320,192,40302,1,0,0:0:0:0:
192,192,40464,1,0,0:0:0:0:
448,192,40627,1,0,0:0:0:0:
192,192,40789,1,0,0:0:0:0:
320,192,40951,1,0,0:0:0:0:
448,192,41113,1,0,0:0:0:0:
192,192,41275,1,8,0:0:0:0:
64,192,41275,128,0,41599:0:0:0:0:
448,192,41599,1,0,0:0:0:0:
320,192,41762,1,0,0:0:0:0:
192,192,41924,1,0,0:0:0:0:
64,192,41924,128,0,42572:0:0:0:0:
448,192,42248,1,0,0:0:0:0:
320,192,42410,1,0,0:0:0:0:
192,192,42572,128,0,43221:0:0:0:0:
448,192,42572,128,8,42897:0:0:0:0:
320,192,42897,1,0,0:0:0:0:
64,192,43059,1,0,0:0:0:0:
320,192,43221,128,0,43870:0:0:0:0:
448,192,43221,1,0,0:0:0:0:
192,192,43383,1,0,0:0:0:0:
448,192,43545,1,0,0:0:0:0:
192,192,43708,1,0,0:0:0:0:
448,192,43870,128,0,44518:0:0:0:0:
64,192,43870,128,8,44194:0:0:0:0:
192,192,44194,1,0,0:0:0:0:
320,192,44356,1,0,0:0:0:0:
64,192,44518,128,0,45167:0:0:0:0:
192,192,44518,1,0,0:0:0:0:
448,192,44843,1,0,0:0:0:0:
320,192,45005,1,0,0:0:0:0:
192,192,45167,128,0,45816:0:0:0:0:
448,192,45167,128,8,45491:0:0:0:0:
320,192,45491,1,0,0:0:0:0:
64,192,45654,1,0,0:0:0:0:
320,192,45816,1,0,0:0:0:0:
448,192,45816,1,0,0:0:0:0:
192,192,46140,1,0,0:0:0:0:
64,192,46140,1,0,0:0:0:0:
448,192,46221,1,0,0:0:0:0:
320,192,46262,1,0,0:0:0:0:
192,192,46302,1,0,0:0:0:0:
64,192,46343,1,0,0:0:0:0:
448,192,46464,1,0,0:0:0:0:
320,192,46464,1,0,0:0:0:0:
192,192,46789,128,0,47113:0:0:0:0:
448,192,47113,128,0,47437:0:0:0:0:
64,192,47113,1,2,0:0:0:0:
320,192,47113,128,0,47437:0:0:0:0:
64,192,47437,1,0,0:0:0:0:
192,192,47437,1,8,0:0:0:0:
320,192,47599,1,0,0:0:0:0:
64,192,47681,1,2,0:0:0:0:
448,192,47681,1,0,0:0:0:0:
192,192,47762,1,0,0:0:0:0:
320,192,47843,1,0,0:0:0:0:
448,192,47924,1,2,0:0:0:0:
64,192,47924,128,0,48086:0:0:0:0:
192,192,48086,1,8,0:0:0:0:
320,192,48086,1,0,0:0:0:0:
448,192,48167,128,0,48329:0:0:0:0:
64,192,48248,1,0,0:0:0:0:
192,192,48329,1,0,0:0:0:0:
320,192,48410,1,0,0:0:0:0:
448,192,48410,1,2,0:0:0:0:
320,192,48572,1,0,0:0:0:0:
448,192,48572,1,0,0:0:0:0:
64,192,48735,128,0,48897:0:0:0:0:
192,192,48735,128,8,48897:0:0:0:0:
320,192,48897,1,0,0:0:0:0:
448,192,48897,1,0,0:0:0:0:
64,192,48978,1,2,0:0:0:0:
192,192,48978,1,0,0:0:0:0:
448,192,49059,128,0,49383:0:0:0:0:
192,192,49221,1,2,0:0:0:0:
192,192,49383,128,0,49545:0:0:0:0:
320,192,49383,128,0,49545:0:0:0:0:
64,192,49383,1,8,0:0:0:0:
448,192,49545,1,2,0:0:0:0:
64,192,49708,128,0,50032:0:0:0:0:
448,192,49708,128,0,50032:0:0:0:0:
320,192,49708,1,2,0:0:0:0:
192,192,50032,1,8,0:0:0:0:
320,192,50032,1,0,0:0:0:0:
64,192,50194,1,0,0:0:0:0:
320,192,50275,1,2,0:0:0:0:
448,192,50275,1,0,0:0:0:0:
64,192,50518,1,2,0:0:0:0:
320,192,50518,1,0,0:0:0:0:
64,192,50681,1,0,0:0:0:0:
192,192,50681,1,0,0:0:0:0:
448,192,50681,1,8,0:0:0:0:
320,192,50843,1,2,0:0:0:0:
448,192,50843,1,0,0:0:0:0:
192,192,50924,1,0,0:0:0:0:
64,192,50924,1,2,0:0:0:0:
448,192,51005,1,0,0:0:0:0:
320,192,51086,1,0,0:0:0:0:
448,192,51167,1,2,0:0:0:0:
192,192,51167,128,0,51329:0:0:0:0:
320,192,51248,1,0,0:0:0:0:
64,192,51329,1,0,0:0:0:0:
448,192,51329,1,8,0:0:0:0:
192,192,51491,128,0,51654:0:0:0:0:
320,192,51572,1,0,0:0:0:0:
448,192,51572,1,2,0:0:0:0:
64,192,51654,1,0,0:0:0:0:
192,192,51816,128,0,51978:0:0:0:0:
448,192,51816,1,2,0:0:0:0:
320,192,51978,1,8,0:0:0:0:
64,192,51978,128,0,52140:0:0:0:0:
448,192,51978,128,0,52140:0:0:0:0:
448,192,52221,1,8,0:0:0:0:
64,192,52221,1,2,0:0:0:0:
192,192,52302,128,2,52627:0:0:0:0:
320,192,52302,128,0,52627:0:0:0:0:
64,192,52627,1,8,0:0:0:0:
448,192,52627,1,0,0:0:0:0:
320,192,52789,1,0,0:0:0:0:
64,192,52870,1,2,0:0:0:0:
192,192,52870,1,0,0:0:0:0:
320,192,53113,1,2,0:0:0:0:
448,192,53113,1,0,0:0:0:0:
64,192,53275,1,0,0:0:0:0:
192,192,53275,1,0,0:0:0:0:
448,192,53275,1,8,0:0:0:0:
320,192,53437,1,0,0:0:0:0:
192,192,53437,1,2,0:0:0:0:
64,192,53599,128,0,53924:0:0:0:0:
448,192,53599,128,0,53924:0:0:0:0:
320,192,53599,1,2,0:0:0:0:
192,192,53924,1,8,0:0:0:0:
320,192,53924,1,0,0:0:0:0:
64,192,54086,1,0,0:0:0:0:
192,192,54167,1,2,0:0:0:0:
320,192,54248,1,0,0:0:0:0:
448,192,54248,1,0,0:0:0:0:
320,192,54329,1,0,0:0:0:0:
448,192,54329,1,0,0:0:0:0:
192,192,54410,1,0,0:0:0:0:
64,192,54410,1,2,0:0:0:0:
320,192,54572,128,0,54735:0:0:0:0:
192,192,54572,128,0,54735:0:0:0:0:
448,192,54572,1,8,0:0:0:0:
64,192,54735,1,0,0:0:0:0:
64,192,54897,128,0,55221:0:0:0:0:
448,192,54897,128,0,55221:0:0:0:0:
320,192,54897,1,2,0:0:0:0:
192,192,55221,1,8,0:0:0:0:
320,192,55221,1,0,0:0:0:0:
448,192,55302,1,0,0:0:0:0:
320,192,55383,1,0,0:0:0:0:
192,192,55464,1,0,0:0:0:0:
64,192,55464,1,2,0:0:0:0:
448,192,55545,1,0,0:0:0:0:
320,192,55586,1,0,0:0:0:0:
64,192,55627,1,0,0:0:0:0:
192,192,55667,1,0,0:0:0:0:
320,192,55708,1,2,0:0:0:0:
448,192,55708,1,0,0:0:0:0:
64,192,55789,1,0,0:0:0:0:
448,192,55870,1,8,0:0:0:0:
192,192,55870,1,0,0:0:0:0:
320,192,55951,1,0,0:0:0:0:
64,192,56032,1,0,0:0:0:0:
448,192,56113,1,0,0:0:0:0:
64,192,56194,1,0,0:0:0:0:
192,192,56194,1,0,0:0:0:0:
320,192,56356,128,0,56518:0:0:0:0:
64,192,56518,1,8,0:0:0:0:
192,192,56518,1,0,0:0:0:0:
320,192,56681,128,0,56843:0:0:0:0:
448,192,56681,1,2,0:0:0:0:
320,192,57005,128,0,57167:0:0:0:0:
192,192,57005,1,2,0:0:0:0:
64,192,57086,1,2,0:0:0:0:
448,192,57167,128,0,57491:0:0:0:0:
192,192,57167,1,8,0:0:0:0:
64,192,57329,1,2,0:0:0:0:
192,192,57410,1,2,0:0:0:0:
320,192,57491,1,2,0:0:0:0:
64,192,57491,1,0,0:0:0:0:
192,192,57654,1,0,0:0:0:0:
320,192,57735,1,0,0:0:0:0:
64,192,57816,1,8,0:0:0:0:
448,192,57816,1,0,0:0:0:0:
192,192,57816,1,0,0:0:0:0:
320,192,57897,1,0,0:0:0:0:
64,192,57978,1,0,0:0:0:0:
192,192,57978,1,0,0:0:0:0:
448,192,58059,1,0,0:0:0:0:
320,192,58059,1,2,0:0:0:0:
192,192,58140,1,0,0:0:0:0:
320,192,58221,1,0,0:0:0:0:
64,192,58302,1,2,0:0:0:0:
448,192,58302,128,0,58464:0:0:0:0:
192,192,58464,1,8,0:0:0:0:
448,192,58545,1,0,0:0:0:0:
64,192,58545,128,0,58708:0:0:0:0:
320,192,58627,1,2,0:0:0:0:
192,192,58708,1,0,0:0:0:0:
64,192,58789,1,2,0:0:0:0:
448,192,58789,1,0,0:0:0:0:
320,192,58951,1,0,0:0:0:0:
192,192,59032,1,0,0:0:0:0:
64,192,59113,1,0,0:0:0:0:
448,192,59113,1,8,0:0:0:0:
320,192,59113,1,0,0:0:0:0:
192,192,59194,1,0,0:0:0:0:
320,192,59275,1,0,0:0:0:0:
448,192,59275,1,2,0:0:0:0:
64,192,59356,1,2,0:0:0:0:
192,192,59356,1,0,0:0:0:0:
320,192,59437,1,0,0:0:0:0:
448,192,59518,1,0,0:0:0:0:
192,192,59599,1,2,0:0:0:0:
64,192,59599,1,0,0:0:0:0:
320,192,59681,1,0,0:0:0:0:
64,192,59762,1,8,0:0:0:0:
192,192,59762,1,0,0:0:0:0:
448,192,59762,128,0,59924:0:0:0:0:
320,192,59924,1,2,0:0:0:0:
448,192,60086,1,2,0:0:0:0:
320,192,60086,1,0,0:0:0:0:
64,192,60086,128,0,60410:0:0:0:0:
192,192,60167,1,0,0:0:0:0:
320,192,60248,1,0,0:0:0:0:
448,192,60329,1,0,0:0:0:0:
192,192,60410,1,0,0:0:0:0:
320,192,60410,1,8,0:0:0:0:
64,192,60491,1,0,0:0:0:0:
320,192,60572,1,0,0:0:0:0:
448,192,60572,1,2,0:0:0:0:
64,192,60654,1,2,0:0:0:0:
192,192,60654,1,0,0:0:0:0:
448,192,60735,1,0,0:0:0:0:
64,192,60897,1,2,0:0:0:0:
320,192,60897,1,0,0:0:0:0:
192,192,60978,1,0,0:0:0:0:
64,192,61059,1,8,0:0:0:0:
448,192,61059,1,0,0:0:0:0:
320,192,61059,1,0,0:0:0:0:
192,192,61140,1,0,0:0:0:0:
448,192,61221,1,0,0:0:0:0:
320,192,61221,1,0,0:0:0:0:
192,192,61302,1,2,0:0:0:0:
64,192,61302,1,0,0:0:0:0:
448,192,61383,1,0,0:0:0:0:
192,192,61464,1,0,0:0:0:0:
320,192,61545,1,0,0:0:0:0:
448,192,61545,1,2,0:0:0:0:
64,192,61627,1,0,0:0:0:0:
192,192,61708,1,0,0:0:0:0:
448,192,61708,1,8,0:0:0:0:
320,192,61708,1,0,0:0:0:0:
192,192,61870,128,0,62032:0:0:0:0:
320,192,61951,1,0,0:0:0:0:
448,192,61951,1,2,0:0:0:0:
64,192,62032,1,0,0:0:0:0:
192,192,62194,128,0,62356:0:0:0:0:
448,192,62194,1,2,0:0:0:0:
320,192,62275,1,0,0:0:0:0:
64,192,62356,1,0,0:0:0:0:
448,192,62356,128,8,62518:0:0:0:0:
192,192,62437,1,0,0:0:0:0:
320,192,62518,1,8,0:0:0:0:
448,192,62599,1,2,0:0:0:0:
192,192,62681,1,2,0:0:0:0:
64,192,62681,128,0,63005:0:0:0:0:
448,192,62843,1,0,0:0:0:0:
192,192,62924,1,0,0:0:0:0:
320,192,63005,1,0,0:0:0:0:
448,192,63005,1,8,0:0:0:0:
192,192,63167,1,0,0:0:0:0:
64,192,63167,1,0,0:0:0:0:
448,192,63248,1,2,0:0:0:0:
320,192,63248,1,0,0:0:0:0:
192,192,63329,1,0,0:0:0:0:
320,192,63410,1,0,0:0:0:0:
448,192,63491,1,2,0:0:0:0:
64,192,63491,1,0,0:0:0:0:
192,192,63572,1,0,0:0:0:0:
448,192,63654,1,0,0:0:0:0:
64,192,63654,1,0,0:0:0:0:
320,192,63654,1,8,0:0:0:0:
192,192,63735,1,0,0:0:0:0:
64,192,63816,1,2,0:0:0:0:
448,192,63816,1,0,0:0:0:0:
320,192,63897,1,0,0:0:0:0:
448,192,63978,128,0,64302:0:0:0:0:
192,192,63978,1,2,0:0:0:0:
64,192,64140,1,0,0:0:0:0:
192,192,64302,1,8,0:0:0:0:
320,192,64302,1,0,0:0:0:0:
64,192,64464,1,0,0:0:0:0:
192,192,64545,1,2,0:0:0:0:
320,192,64627,1,0,0:0:0:0:
448,192,64627,1,0,0:0:0:0:
320,192,64708,1,0,0:0:0:0:
448,192,64708,1,0,0:0:0:0:
64,192,64789,1,2,0:0:0:0:
192,192,64789,1,0,0:0:0:0:
320,192,64870,1,0,0:0:0:0:
448,192,64951,128,0,65113:0:0:0:0:
192,192,64951,1,8,0:0:0:0:
64,192,65032,1,0,0:0:0:0:
192,192,65113,1,0,0:0:0:0:
320,192,65194,1,0,0:0:0:0:
64,192,65275,128,0,65599:0:0:0:0:
448,192,65275,1,2,0:0:0:0:
192,192,65437,1,0,0:0:0:0:
320,192,65599,1,0,0:0:0:0:
448,192,65599,1,8,0:0:0:0:
192,192,65681,1,0,0:0:0:0:
320,192,65762,1,0,0:0:0:0:
64,192,65843,1,0,0:0:0:0:
448,192,65843,1,2,0:0:0:0:
192,192,65924,1,0,0:0:0:0:
320,192,66086,1,2,0:0:0:0:
64,192,66086,1,0,0:0:0:0:
64,192,66248,1,0,0:0:0:0:
192,192,66248,1,0,0:0:0:0:
448,192,66248,1,8,0:0:0:0:
320,192,66410,1,0,0:0:0:0:
192,192,66410,1,2,0:0:0:0:
448,192,66572,1,0,0:0:0:0:
64,192,66572,1,2,0:0:0:0:
192,192,66654,1,0,0:0:0:0:
320,192,66735,128,0,66897:0:0:0:0:
448,192,66735,1,0,0:0:0:0:
192,192,66816,1,0,0:0:0:0:
64,192,66897,1,8,0:0:0:0:
448,192,66897,1,0,0:0:0:0:
320,192,66978,1,0,0:0:0:0:
192,192,67059,128,0,67221:0:0:0:0:
64,192,67059,1,2,0:0:0:0:
320,192,67140,1,0,0:0:0:0:
448,192,67221,1,0,0:0:0:0:
64,192,67221,128,0,67383:0:0:0:0:
320,192,67383,1,0,0:0:0:0:
192,192,67464,128,0,67627:0:0:0:0:
64,192,67545,1,8,0:0:0:0:
448,192,67545,1,0,0:0:0:0:
192,192,67708,1,0,0:0:0:0:
320,192,67708,128,0,67870:0:0:0:0:
64,192,67870,128,2,68356:0:0:0:0:
448,192,67870,128,4,68356:0:0:0:0:
192,192,68194,1,0,0:0:0:0:
320,192,68194,1,8,0:0:0:0:
192,192,68356,1,0,0:0:0:0:
320,192,68437,1,0,0:0:0:0:
448,192,68437,1,2,0:0:0:0:
64,192,68518,1,0,0:0:0:0:
192,192,68599,1,0,0:0:0:0:
320,192,68681,1,0,0:0:0:0:
448,192,68681,1,2,0:0:0:0:
192,192,68762,1,0,0:0:0:0:
64,192,68843,1,0,0:0:0:0:
320,192,68843,1,0,0:0:0:0:
448,192,68843,1,8,0:0:0:0:
192,192,68924,1,0,0:0:0:0:
448,192,69005,1,2,0:0:0:0:
64,192,69005,1,0,0:0:0:0:
320,192,69086,1,0,0:0:0:0:
64,192,69167,1,2,0:0:0:0:
192,192,69167,1,0,0:0:0:0:
448,192,69329,1,0,0:0:0:0:
64,192,69410,1,0,0:0:0:0:
192,192,69491,1,0,0:0:0:0:
320,192,69491,1,0,0:0:0:0:
448,192,69491,1,8,0:0:0:0:
64,192,69572,1,0,0:0:0:0:
320,192,69654,1,0,0:0:0:0:
448,192,69654,1,0,0:0:0:0:
64,192,69735,1,0,0:0:0:0:
192,192,69735,1,2,0:0:0:0:
320,192,69816,1,0,0:0:0:0:
64,192,69897,1,0,0:0:0:0:
448,192,69978,1,2,0:0:0:0:
320,192,69978,1,0,0:0:0:0:
192,192,70059,1,0,0:0:0:0:
320,192,70140,1,0,0:0:0:0:
448,192,70140,1,8,0:0:0:0:
64,192,70140,1,0,0:0:0:0:
192,192,70221,1,0,0:0:0:0:
448,192,70302,1,2,0:0:0:0:
64,192,70302,1,0,0:0:0:0:
320,192,70383,1,0,0:0:0:0:
64,192,70464,1,0,0:0:0:0:
192,192,70464,1,2,0:0:0:0:
448,192,70545,1,0,0:0:0:0:
192,192,70627,1,0,0:0:0:0:
320,192,70708,1,0,0:0:0:0:
64,192,70789,1,0,0:0:0:0:
192,192,70789,1,0,0:0:0:0:
448,192,70789,1,8,0:0:0:0:
320,192,70870,1,0,0:0:0:0:
192,192,70951,1,0,0:0:0:0:
64,192,71032,1,0,0:0:0:0:
448,192,71032,1,2,0:0:0:0:
192,192,71113,1,0,0:0:0:0:
320,192,71194,1,0,0:0:0:0:
64,192,71275,1,2,0:0:0:0:
192,192,71275,1,0,0:0:0:0:
448,192,71356,1,0,0:0:0:0:
64,192,71437,1,8,0:0:0:0:
192,192,71437,1,0,0:0:0:0:
320,192,71437,1,0,0:0:0:0:
448,192,71518,1,0,0:0:0:0:
192,192,71599,1,0,0:0:0:0:
64,192,71599,1,2,0:0:0:0:
320,192,71681,1,0,0:0:0:0:
448,192,71762,1,0,0:0:0:0:
64,192,71762,1,2,0:0:0:0:
192,192,71843,1,0,0:0:0:0:
320,192,71924,1,0,0:0:0:0:
448,192,72005,1,0,0:0:0:0:
64,192,72086,1,8,0:0:0:0:
192,192,72086,1,0,0:0:0:0:
320,192,72086,1,0,0:0:0:0:
448,192,72167,1,0,0:0:0:0:
64,192,72248,1,2,0:0:0:0:
192,192,72248,1,0,0:0:0:0:
448,192,72329,1,0,0:0:0:0:
320,192,72410,1,0,0:0:0:0:
192,192,72572,1,2,0:0:0:0:
64,192,72572,1,0,0:0:0:0:
448,192,72654,1,2,0:0:0:0:
192,192,72735,1,0,0:0:0:0:
64,192,72735,1,0,0:0:0:0:
320,192,72735,1,8,0:0:0:0:
448,192,72897,1,0,0:0:0:0:
320,192,72897,1,2,0:0:0:0:
192,192,72978,1,2,0:0:0:0:
64,192,72978,1,0,0:0:0:0:
320,192,73059,1,2,0:0:0:0:
448,192,73059,1,0,0:0:0:0:
64,192,73140,1,0,0:0:0:0:
192,192,73221,1,0,0:0:0:0:
320,192,73302,1,0,0:0:0:0:
64,192,73383,1,8,0:0:0:0:
448,192,73383,1,0,0:0:0:0:
192,192,73383,1,0,0:0:0:0:
320,192,73545,1,0,0:0:0:0:
64,192,73708,1,0,0:0:0:0:
192,192,73708,1,2,0:0:0:0:
320,192,73789,1,0,0:0:0:0:
64,192,73870,1,0,0:0:0:0:
448,192,73870,1,2,0:0:0:0:
192,192,73951,1,0,0:0:0:0:
64,192,74032,1,0,0:0:0:0:
448,192,74032,1,8,0:0:0:0:
320,192,74032,1,0,0:0:0:0:
192,192,74113,1,0,0:0:0:0:
320,192,74194,1,2,0:0:0:0:
448,192,74194,1,0,0:0:0:0:
192,192,74275,1,2,0:0:0:0:
64,192,74275,1,0,0:0:0:0:
320,192,74356,1,2,0:0:0:0:
448,192,74356,1,0,0:0:0:0:
64,192,74518,1,0,0:0:0:0:
192,192,74518,1,2,0:0:0:0:
320,192,74599,1,2,0:0:0:0:
64,192,74681,1,0,0:0:0:0:
192,192,74681,1,8,0:0:0:0:
448,192,74681,1,0,0:0:0:0:
64,192,74843,1,0,0:0:0:0:
320,192,74843,1,2,0:0:0:0:
448,192,75005,1,2,0:0:0:0:
192,192,75005,1,0,0:0:0:0:
192,192,75167,1,0,0:0:0:0:
64,192,75167,1,2,0:0:0:0:
64,192,75329,1,0,0:0:0:0:
448,192,75329,1,0,0:0:0:0:
320,192,75329,1,8,0:0:0:0:
192,192,75491,1,0,0:0:0:0:
448,192,75491,1,2,0:0:0:0:
192,192,75654,1,0,0:0:0:0:
64,192,75654,1,2,0:0:0:0:
448,192,75735,1,0,0:0:0:0:
320,192,75816,1,0,0:0:0:0:
192,192,75897,1,0,0:0:0:0:
320,192,75978,1,8,0:0:0:0:
448,192,75978,1,0,0:0:0:0:
64,192,75978,1,0,0:0:0:0:
192,192,76059,1,0,0:0:0:0:
320,192,76140,1,0,0:0:0:0:
448,192,76221,1,0,0:0:0:0:
64,192,76302,1,0,0:0:0:0:
192,192,76302,1,2,0:0:0:0:
448,192,76464,1,2,0:0:0:0:
320,192,76505,1,2,0:0:0:0:
192,192,76545,1,2,0:0:0:0:
64,192,76586,1,2,0:0:0:0:
448,192,76627,1,0,0:0:0:0:
320,192,76627,1,8,0:0:0:0:
64,192,76789,1,2,0:0:0:0:
192,192,76829,1,2,0:0:0:0:
320,192,76870,1,2,0:0:0:0:
448,192,76910,1,2,0:0:0:0:
64,192,76951,1,2,0:0:0:0:
192,192,76951,1,0,0:0:0:0:
320,192,77032,1,0,0:0:0:0:
64,192,77113,1,2,0:0:0:0:
448,192,77113,1,0,0:0:0:0:
192,192,77194,1,0,0:0:0:0:
448,192,77275,1,2,0:0:0:0:
320,192,77275,1,0,0:0:0:0:
64,192,77356,1,0,0:0:0:0:
320,192,77437,1,2,0:0:0:0:
192,192,77437,1,0,0:0:0:0:
448,192,77518,1,0,0:0:0:0:
192,192,77599,1,0,0:0:0:0:
64,192,77599,1,2,0:0:0:0:
448,192,77681,1,2,0:0:0:0:
320,192,77681,1,0,0:0:0:0:
64,192,77762,1,0,0:0:0:0:
192,192,77762,1,2,0:0:0:0:
448,192,77843,1,2,0:0:0:0:
320,192,77843,1,0,0:0:0:0:
192,192,77924,1,0,0:0:0:0:
64,192,77924,1,2,0:0:0:0:
448,192,78005,1,2,0:0:0:0:
320,192,78005,1,0,0:0:0:0:
192,192,78086,1,0,0:0:0:0:
64,192,78086,1,2,0:0:0:0:
448,192,78167,1,2,0:0:0:0:
320,192,78167,1,0,0:0:0:0:
192,192,78248,1,4,0:0:0:0:
64,192,78248,128,2,78735:0:0:0:0:
448,192,78248,128,0,78735:0:0:0:0:
192,192,78572,1,8,0:0:0:0:
320,192,78572,1,0,0:0:0:0:
320,192,78735,1,0,0:0:0:0:
192,192,78816,1,0,0:0:0:0:
64,192,78897,1,2,0:0:0:0:
448,192,78897,1,0,0:0:0:0:
320,192,78978,1,0,0:0:0:0:
192,192,79059,1,0,0:0:0:0:
320,192,79140,1,0,0:0:0:0:
448,192,79221,1,0,0:0:0:0:
64,192,79221,1,8,0:0:0:0:
192,192,79221,1,0,0:0:0:0:
320,192,79302,1,0,0:0:0:0:
192,192,79383,1,0,0:0:0:0:
64,192,79464,1,0,0:0:0:0:
448,192,79545,1,2,0:0:0:0:
192,192,79545,128,0,79789:0:0:0:0:
320,192,79789,128,0,80032:0:0:0:0:
64,192,79870,1,8,0:0:0:0:
192,192,79870,1,0,0:0:0:0:
448,192,80032,128,0,80194:0:0:0:0:
192,192,80194,1,2,0:0:0:0:
64,192,80194,128,0,80681:0:0:0:0:
320,192,80356,1,0,0:0:0:0:
192,192,80518,1,8,0:0:0:0:
448,192,80518,1,0,0:0:0:0:
320,192,80681,1,2,0:0:0:0:
448,192,80681,1,0,0:0:0:0:
448,192,80843,128,0,81329:0:0:0:0:
192,192,80843,1,4,0:0:0:0:
64,192,80843,1,2,0:0:0:0:
320,192,81005,1,0,0:0:0:0:
64,192,81167,1,0,0:0:0:0:
192,192,81167,1,8,0:0:0:0:
320,192,81329,128,2,81816:0:0:0:0:
192,192,81410,1,2,0:0:0:0:
64,192,81491,1,0,0:0:0:0:
448,192,81491,1,2,0:0:0:0:
448,192,81654,1,2,0:0:0:0:
192,192,81816,128,0,82140:0:0:0:0:
64,192,81816,1,0,0:0:0:0:
448,192,81816,1,8,0:0:0:0:
448,192,81978,1,2,0:0:0:0:
64,192,82140,128,0,82789:0:0:0:0:
320,192,82140,1,4,0:0:0:0:
448,192,82140,1,2,0:0:0:0:
320,192,82302,1,0,0:0:0:0:
192,192,82464,1,2,0:0:0:0:
448,192,82464,1,0,0:0:0:0:
192,192,82708,1,2,0:0:0:0:
320,192,82789,1,2,0:0:0:0:
448,192,82789,1,0,0:0:0:0:
320,192,82951,1,0,0:0:0:0:
448,192,82951,1,2,0:0:0:0:
64,192,83032,1,2,0:0:0:0:
192,192,83032,1,0,0:0:0:0:
320,192,83113,1,0,0:0:0:0:
448,192,83113,1,2,0:0:0:0:
64,192,83194,1,2,0:0:0:0:
192,192,83194,1,0,0:0:0:0:
320,192,83275,1,0,0:0:0:0:
448,192,83275,1,2,0:0:0:0:
64,192,83356,1,2,0:0:0:0:
192,192,83356,1,0,0:0:0:0:
320,192,83437,1,4,0:0:0:0:
448,192,83437,128,2,83924:0:0:0:0:
320,192,83599,1,0,0:0:0:0:
64,192,83762,1,8,0:0:0:0:
192,192,83762,1,0,0:0:0:0:
320,192,83924,128,0,84410:0:0:0:0:
448,192,84086,1,0,0:0:0:0:
64,192,84086,1,2,0:0:0:0:
192,192,84248,1,0,0:0:0:0:
64,192,84410,128,0,84735:0:0:0:0:
192,192,84410,1,0,0:0:0:0:
448,192,84410,1,8,0:0:0:0:
448,192,84572,1,0,0:0:0:0:
320,192,84735,128,0,85383:0:0:0:0:
192,192,84735,1,2,0:0:0:0:
448,192,84897,1,0,0:0:0:0:
64,192,85059,1,8,0:0:0:0:
192,192,85059,1,0,0:0:0:0:
64,192,85221,1,0,0:0:0:0:
192,192,85383,128,0,86032:0:0:0:0:
448,192,85383,1,2,0:0:0:0:
320,192,85545,1,0,0:0:0:0:
64,192,85708,1,8,0:0:0:0:
448,192,85708,1,0,0:0:0:0:
320,192,85870,1,0,0:0:0:0:
448,192,85870,1,2,0:0:0:0:
64,192,86032,1,0,0:0:0:0:
320,192,86032,1,4,0:0:0:0:
448,192,86032,1,2,0:0:0:0:
64,192,86194,1,0,0:0:0:0:
192,192,86194,1,2,0:0:0:0:
64,192,86356,1,0,0:0:0:0:
448,192,86356,1,0,0:0:0:0:
320,192,86356,1,8,0:0:0:0:
448,192,86518,1,2,0:0:0:0:
320,192,86559,1,2,0:0:0:0:
64,192,86599,1,2,0:0:0:0:
192,192,86640,1,2,0:0:0:0:
320,192,86681,1,2,0:0:0:0:
448,192,86681,1,4,0:0:0:0:
64,192,86843,1,2,0:0:0:0:
448,192,86843,1,0,0:0:0:0:
192,192,86924,1,2,0:0:0:0:
320,192,86924,1,0,0:0:0:0:
64,192,87005,1,0,0:0:0:0:
448,192,87005,1,8,0:0:0:0:
64,192,87167,1,2,0:0:0:0:
192,192,87208,1,2,0:0:0:0:
320,192,87248,1,2,0:0:0:0:
448,192,87289,1,2,0:0:0:0:
64,192,87329,1,2,0:0:0:0:
192,192,87329,1,0,0:0:0:0:
448,192,87491,1,2,0:0:0:0:
320,192,87532,1,2,0:0:0:0:
192,192,87572,1,2,0:0:0:0:
64,192,87613,1,2,0:0:0:0:
320,192,87654,1,0,0:0:0:0:
448,192,87654,1,2,0:0:0:0:
192,192,87816,1,2,0:0:0:0:
320,192,87816,1,0,0:0:0:0:
320,192,87978,1,2,0:0:0:0:
448,192,87978,1,0,0:0:0:0:
64,192,88059,1,0,0:0:0:0:
192,192,88059,1,2,0:0:0:0:
320,192,88140,1,2,0:0:0:0:
448,192,88140,1,0,0:0:0:0:
192,192,88221,1,2,0:0:0:0:
64,192,88221,1,0,0:0:0:0:
448,192,88302,1,0,0:0:0:0:
320,192,88302,1,2,0:0:0:0:
64,192,88383,1,0,0:0:0:0:
192,192,88383,1,2,0:0:0:0:
320,192,88464,1,2,0:0:0:0:
448,192,88464,1,0,0:0:0:0:
64,192,88505,1,2,0:0:0:0:
192,192,88545,1,2,0:0:0:0:
320,192,88586,1,2,0:0:0:0:
64,192,88627,128,4,89113:0:0:0:0:
448,192,88627,128,2,89113:0:0:0:0:
192,192,88951,1,8,0:0:0:0:
320,192,88951,1,0,0:0:0:0:
320,192,89113,1,0,0:0:0:0:
192,192,89194,1,0,0:0:0:0:
64,192,89275,1,2,0:0:0:0:
448,192,89275,1,0,0:0:0:0:
320,192,89356,1,0,0:0:0:0:
192,192,89437,1,0,0:0:0:0:
64,192,89518,1,0,0:0:0:0:
192,192,89599,1,8,0:0:0:0:
448,192,89599,1,0,0:0:0:0:
320,192,89599,1,0,0:0:0:0:
64,192,89681,1,0,0:0:0:0:
448,192,89762,1,0,0:0:0:0:
320,192,89843,1,0,0:0:0:0:
64,192,89924,1,2,0:0:0:0:
192,192,89924,128,0,90167:0:0:0:0:
320,192,90167,128,0,90410:0:0:0:0:
64,192,90248,1,8,0:0:0:0:
192,192,90248,1,0,0:0:0:0:
448,192,90410,128,0,90572:0:0:0:0:
192,192,90572,1,2,0:0:0:0:
64,192,90572,128,0,91059:0:0:0:0:
320,192,90735,1,0,0:0:0:0:
448,192,90897,1,8,0:0:0:0:
192,192,90897,1,0,0:0:0:0:
320,192,91059,1,2,0:0:0:0:
192,192,91059,1,0,0:0:0:0:
448,192,91221,128,0,91708:0:0:0:0:
64,192,91221,1,2,0:0:0:0:
320,192,91383,1,0,0:0:0:0:
320,192,91545,1,8,0:0:0:0:
64,192,91545,1,0,0:0:0:0:
192,192,91708,1,0,0:0:0:0:
320,192,91870,1,0,0:0:0:0:
448,192,91870,1,2,0:0:0:0:
64,192,92032,1,2,0:0:0:0:
192,192,92072,1,2,0:0:0:0:
320,192,92113,1,2,0:0:0:0:
448,192,92154,1,2,0:0:0:0:
64,192,92194,1,2,0:0:0:0:
192,192,92194,1,0,0:0:0:0:
448,192,92356,1,2,0:0:0:0:
320,192,92397,1,2,0:0:0:0:
192,192,92437,1,2,0:0:0:0:
64,192,92478,1,2,0:0:0:0:
320,192,92518,128,0,93167:0:0:0:0:
448,192,92518,1,2,0:0:0:0:
192,192,92681,1,0,0:0:0:0:
64,192,92843,1,8,0:0:0:0:
448,192,92843,1,0,0:0:0:0:
192,192,93005,1,2,0:0:0:0:
448,192,93086,1,2,0:0:0:0:
64,192,93167,1,2,0:0:0:0:
192,192,93167,1,0,0:0:0:0:
320,192,93329,1,2,0:0:0:0:
448,192,93329,1,0,0:0:0:0:
64,192,93410,1,0,0:0:0:0:
192,192,93410,1,2,0:0:0:0:
320,192,93491,1,2,0:0:0:0:
448,192,93491,1,0,0:0:0:0:
192,192,93572,1,2,0:0:0:0:
64,192,93572,1,0,0:0:0:0:
448,192,93654,1,2,0:0:0:0:
320,192,93694,1,2,0:0:0:0:
64,192,93735,1,2,0:0:0:0:
192,192,93775,1,2,0:0:0:0:
320,192,93816,1,4,0:0:0:0:
448,192,93816,128,2,94302:0:0:0:0:
192,192,93978,1,0,0:0:0:0:
64,192,94140,1,0,0:0:0:0:
320,192,94140,1,8,0:0:0:0:
64,192,94302,1,0,0:0:0:0:
320,192,94464,1,2,0:0:0:0:
448,192,94464,1,0,0:0:0:0:
64,192,94627,1,0,0:0:0:0:
192,192,94627,1,2,0:0:0:0:
64,192,94789,1,0,0:0:0:0:
320,192,94789,1,8,0:0:0:0:
448,192,94789,1,0,0:0:0:0:
64,192,94951,1,0,0:0:0:0:
192,192,94951,1,2,0:0:0:0:
320,192,95032,1,2,0:0:0:0:
64,192,95113,1,4,0:0:0:0:
448,192,95113,1,2,0:0:0:0:
192,192,95113,1,0,0:0:0:0:
448,192,95275,1,0,0:0:0:0:
320,192,95275,1,2,0:0:0:0:
192,192,95356,1,2,0:0:0:0:
64,192,95437,1,8,0:0:0:0:
448,192,95437,1,0,0:0:0:0:
320,192,95437,1,0,0:0:0:0:
192,192,95599,1,2,0:0:0:0:
320,192,95599,1,0,0:0:0:0:
64,192,95762,128,0,96086:0:0:0:0:
448,192,95762,1,2,0:0:0:0:
448,192,95924,1,2,0:0:0:0:
448,192,96086,128,0,96410:0:0:0:0:
192,192,96086,1,8,0:0:0:0:
320,192,96086,1,0,0:0:0:0:
64,192,96248,1,2,0:0:0:0:
64,192,96410,1,2,0:0:0:0:
320,192,96410,1,4,0:0:0:0:
192,192,96410,128,0,96897:0:0:0:0:
448,192,96572,1,0,0:0:0:0:
64,192,96735,1,8,0:0:0:0:
448,192,96735,1,0,0:0:0:0:
320,192,96897,1,0,0:0:0:0:
448,192,97059,1,0,0:0:0:0:
320,192,97059,1,2,0:0:0:0:
64,192,97221,1,2,0:0:0:0:
192,192,97262,1,2,0:0:0:0:
320,192,97302,1,2,0:0:0:0:
448,192,97343,1,2,0:0:0:0:
64,192,97383,1,0,0:0:0:0:
192,192,97383,1,2,0:0:0:0:
448,192,97545,1,2,0:0:0:0:
320,192,97586,1,2,0:0:0:0:
192,192,97627,1,2,0:0:0:0:
64,192,97667,1,2,0:0:0:0:
320,192,97708,1,2,0:0:0:0:
448,192,97708,1,0,0:0:0:0:
192,192,97870,1,2,0:0:0:0:
64,192,97870,1,0,0:0:0:0:
64,192,98032,1,2,0:0:0:0:
448,192,98032,1,0,0:0:0:0:
192,192,98194,1,2,0:0:0:0:
320,192,98194,1,0,0:0:0:0:
448,192,98356,1,0,0:0:0:0:
64,192,98356,1,2,0:0:0:0:
192,192,98437,1,2,0:0:0:0:
320,192,98437,1,0,0:0:0:0:
448,192,98518,1,0,0:0:0:0:
64,192,98518,1,2,0:0:0:0:
192,192,98599,1,2,0:0:0:0:
320,192,98599,1,0,0:0:0:0:
448,192,98681,1,0,0:0:0:0:
64,192,98681,1,2,0:0:0:0:
192,192,98762,1,2,0:0:0:0:
320,192,98762,1,0,0:0:0:0:
448,192,98843,1,0,0:0:0:0:
64,192,98843,1,2,0:0:0:0:
192,192,98924,1,2,0:0:0:0:
320,192,98924,1,0,0:0:0:0:
64,192,99005,1,4,0:0:0:0:
320,192,99005,1,0,0:0:0:0:
448,192,99005,1,2,0:0:0:0:
448,192,99491,128,0,99816:0:0:0:0:
320,192,99654,128,0,99816:0:0:0:0:
192,192,99816,128,0,100140:0:0:0:0:
64,192,99978,128,0,100140:0:0:0:0:
320,192,100140,128,0,101599:0:0:0:0:
448,192,100302,128,0,101599:0:0:0:0:
320,192,101924,128,0,102735:0:0:0:0:
448,192,102248,128,0,102735:0:0:0:0:
192,192,102735,128,0,104194:0:0:0:0:
64,192,102897,128,0,104194:0:0:0:0:
448,192,104518,128,0,105329:0:0:0:0:
320,192,104843,128,0,105329:0:0:0:0:
64,192,105329,128,0,106140:0:0:0:0:
192,192,105491,128,0,106789:0:0:0:0:
320,192,106140,128,0,106789:0:0:0:0:
64,192,107113,128,0,107924:0:0:0:0:
192,192,107437,128,0,107924:0:0:0:0:
320,192,107924,128,0,109383:0:0:0:0:
448,192,108086,128,0,109383:0:0:0:0:
64,192,109383,1,2,0:0:0:0:
192,192,109383,128,4,110032:0:0:0:0:
320,192,110032,128,0,110518:0:0:0:0:
448,192,110032,1,0,0:0:0:0:
64,192,110032,1,8,0:0:0:0:
64,192,110518,128,0,110681:0:0:0:0:
192,192,110518,1,2,0:0:0:0:
448,192,110681,128,0,111978:0:0:0:0:
320,192,110681,1,2,0:0:0:0:
320,192,111005,1,2,0:0:0:0:
192,192,111329,1,0,0:0:0:0:
64,192,111329,1,8,0:0:0:0:
320,192,111437,1,0,0:0:0:0:
192,192,111545,1,0,0:0:0:0:
64,192,111654,1,0,0:0:0:0:
192,192,111762,1,0,0:0:0:0:
320,192,111870,1,0,0:0:0:0:
192,192,111978,1,0,0:0:0:0:
64,192,111978,1,2,0:0:0:0:
192,192,112302,128,0,112627:0:0:0:0:
448,192,112464,1,2,0:0:0:0:
320,192,112627,128,0,113113:0:0:0:0:
64,192,112627,1,0,0:0:0:0:
448,192,112627,1,8,0:0:0:0:
64,192,113113,128,0,113275:0:0:0:0:
320,192,113194,1,2,0:0:0:0:
448,192,113275,128,0,113924:0:0:0:0:
192,192,113275,1,2,0:0:0:0:
192,192,113518,1,2,0:0:0:0:
320,192,113762,1,2,0:0:0:0:
192,192,113924,1,8,0:0:0:0:
320,192,113924,1,0,0:0:0:0:
64,192,113924,128,0,114897:0:0:0:0:
448,192,114248,1,2,0:0:0:0:
320,192,114410,1,2,0:0:0:0:
192,192,114572,1,2,0:0:0:0:
448,192,114897,128,0,115221:0:0:0:0:
320,192,115221,128,0,115708:0:0:0:0:
64,192,115221,1,8,0:0:0:0:
192,192,115221,1,0,0:0:0:0:
64,192,115708,128,0,115870:0:0:0:0:
448,192,115708,1,2,0:0:0:0:
192,192,115870,128,0,116518:0:0:0:0:
320,192,115870,1,2,0:0:0:0:
320,192,116194,1,2,0:0:0:0:
448,192,116518,128,0,118140:0:0:0:0:
64,192,116518,1,8,0:0:0:0:
320,192,116518,1,0,0:0:0:0:
320,192,117167,128,0,118140:0:0:0:0:
64,192,117167,1,2,0:0:0:0:
64,192,117654,1,2,0:0:0:0:
64,192,117816,1,8,0:0:0:0:
192,192,117816,1,0,0:0:0:0:
64,192,118140,128,0,119437:0:0:0:0:
320,192,118383,1,2,0:0:0:0:
192,192,118464,128,0,119437:0:0:0:0:
448,192,118464,1,2,0:0:0:0:
448,192,118708,1,2,0:0:0:0:
320,192,118951,1,2,0:0:0:0:
320,192,119113,1,0,0:0:0:0:
448,192,119113,1,8,0:0:0:0:
320,192,119437,1,0,0:0:0:0:
448,192,119437,1,2,0:0:0:0:
64,192,119599,1,2,0:0:0:0:
192,192,119599,1,0,0:0:0:0:
320,192,119762,1,0,0:0:0:0:
448,192,119762,128,0,124951:0:0:0:0:
64,192,119924,1,0,0:0:0:0:
192,192,120086,1,0,0:0:0:0:
64,192,120248,1,0,0:0:0:0:
320,192,120410,1,0,0:0:0:0:
192,192,120572,1,0,0:0:0:0:
64,192,120735,1,0,0:0:0:0:
320,192,120897,1,0,0:0:0:0:
192,192,121059,1,0,0:0:0:0:
320,192,121221,1,0,0:0:0:0:
64,192,121383,1,0,0:0:0:0:
192,192,121545,1,0,0:0:0:0:
320,192,121708,1,0,0:0:0:0:
64,192,121870,1,0,0:0:0:0:
320,192,122032,1,0,0:0:0:0:
192,192,122194,1,0,0:0:0:0:
64,192,122356,1,0,0:0:0:0:
320,192,122356,128,0,124951:0:0:0:0:
64,192,124951,1,2,0:0:0:0:
192,192,124951,1,0,0:0:0:0:
448,192,125275,128,0,125599:0:0:0:0:
320,192,125599,128,0,127545:0:0:0:0:
64,192,125924,128,0,126248:0:0:0:0:
192,192,126248,128,0,127545:0:0:0:0:
192,192,127870,128,0,128194:0:0:0:0:
64,192,128194,128,0,130140:0:0:0:0:
320,192,128518,128,0,128843:0:0:0:0:
448,192,128843,128,0,130140:0:0:0:0:
64,192,130464,128,0,131113:0:0:0:0:
192,192,130789,128,0,131437:0:0:0:0:
320,192,131113,128,0,132086:0:0:0:0:
448,192,131437,128,0,132735:0:0:0:0:
64,192,132086,128,0,133383:0:0:0:0:
320,192,132735,128,0,134032:0:0:0:0:
192,192,133383,128,0,134032:0:0:0:0:
448,192,134032,1,8,0:0:0:0:
64,192,134032,1,0,0:0:0:0:
64,192,134194,1,0,0:0:0:0:
192,192,134194,1,2,0:0:0:0:
320,192,134275,1,2,0:0:0:0:
448,192,134275,1,0,0:0:0:0:
64,192,134356,1,0,0:0:0:0:
192,192,134356,1,2,0:0:0:0:
320,192,134437,1,2,0:0:0:0:
448,192,134437,1,0,0:0:0:0:
64,192,134518,1,0,0:0:0:0:
192,192,134518,1,0,0:0:0:0:
448,192,134518,1,8,0:0:0:0:
320,192,134681,1,2,0:0:0:0:
448,192,134681,1,0,0:0:0:0:
64,192,134762,1,0,0:0:0:0:
192,192,134762,1,2,0:0:0:0:
320,192,134843,1,2,0:0:0:0:
448,192,134843,1,0,0:0:0:0:
64,192,134924,1,0,0:0:0:0:
192,192,134924,1,2,0:0:0:0:
448,192,135005,1,0,0:0:0:0:
320,192,135086,1,0,0:0:0:0:
192,192,135167,1,0,0:0:0:0:
64,192,135248,1,2,0:0:0:0:
320,192,135329,128,0,135654:0:0:0:0:
448,192,135329,128,0,135654:0:0:0:0:
192,192,135329,1,2,0:0:0:0:
64,192,135654,1,8,0:0:0:0:
192,192,135654,1,0,0:0:0:0:
320,192,135816,1,0,0:0:0:0:
64,192,135897,1,2,0:0:0:0:
448,192,135897,1,0,0:0:0:0:
192,192,135978,1,0,0:0:0:0:
320,192,136059,1,0,0:0:0:0:
448,192,136140,128,0,136302:0:0:0:0:
64,192,136140,1,2,0:0:0:0:
192,192,136302,1,8,0:0:0:0:
320,192,136302,1,0,0:0:0:0:
64,192,136383,128,0,136545:0:0:0:0:
448,192,136464,1,2,0:0:0:0:
320,192,136545,1,0,0:0:0:0:
64,192,136627,1,2,0:0:0:0:
192,192,136627,1,0,0:0:0:0:
64,192,136789,1,0,0:0:0:0:
192,192,136789,1,0,0:0:0:0:
320,192,136951,128,8,137113:0:0:0:0:
448,192,136951,128,0,137113:0:0:0:0:
64,192,137113,1,0,0:0:0:0:
192,192,137113,1,0,0:0:0:0:
320,192,137194,1,2,0:0:0:0:
448,192,137194,1,0,0:0:0:0:
64,192,137275,128,0,137599:0:0:0:0:
320,192,137437,1,2,0:0:0:0:
192,192,137599,128,0,137762:0:0:0:0:
320,192,137599,128,0,137762:0:0:0:0:
448,192,137599,1,8,0:0:0:0:
64,192,137762,1,2,0:0:0:0:
64,192,137924,128,0,138248:0:0:0:0:
448,192,137924,128,0,138248:0:0:0:0:
320,192,137924,1,2,0:0:0:0:
192,192,138248,1,8,0:0:0:0:
320,192,138248,1,0,0:0:0:0:
448,192,138410,1,0,0:0:0:0:
64,192,138491,1,2,0:0:0:0:
192,192,138491,1,0,0:0:0:0:
192,192,138735,1,2,0:0:0:0:
448,192,138735,1,0,0:0:0:0:
64,192,138897,1,8,0:0:0:0:
320,192,138897,1,0,0:0:0:0:
448,192,138897,1,0,0:0:0:0:
320,192,139059,1,2,0:0:0:0:
448,192,139059,1,0,0:0:0:0:
64,192,139140,1,0,0:0:0:0:
192,192,139140,1,2,0:0:0:0:
448,192,139221,1,0,0:0:0:0:
320,192,139383,128,0,139545:0:0:0:0:
192,192,139383,1,2,0:0:0:0:
64,192,139545,1,8,0:0:0:0:
448,192,139545,1,0,0:0:0:0:
320,192,139708,128,0,139870:0:0:0:0:
64,192,139789,1,0,0:0:0:0:
192,192,139789,1,2,0:0:0:0:
320,192,140032,128,0,140194:0:0:0:0:
448,192,140032,1,2,0:0:0:0:
64,192,140194,128,0,140356:0:0:0:0:
448,192,140194,128,0,140356:0:0:0:0:
192,192,140194,1,8,0:0:0:0:
64,192,140437,1,2,0:0:0:0:
448,192,140437,1,0,0:0:0:0:
192,192,140518,128,2,140843:0:0:0:0:
320,192,140518,128,0,140843:0:0:0:0:
64,192,140843,1,8,0:0:0:0:
448,192,140843,1,0,0:0:0:0:
320,192,141005,1,0,0:0:0:0:
192,192,141086,1,2,0:0:0:0:
64,192,141086,1,0,0:0:0:0:
320,192,141167,128,0,141329:0:0:0:0:
448,192,141167,128,0,141329:0:0:0:0:
192,192,141329,1,2,0:0:0:0:
448,192,141491,1,8,0:0:0:0:
64,192,141491,128,0,141654:0:0:0:0:
192,192,141491,128,0,141654:0:0:0:0:
320,192,141654,1,2,0:0:0:0:
64,192,141816,128,0,142140:0:0:0:0:
448,192,141816,128,0,142140:0:0:0:0:
192,192,141816,1,2,0:0:0:0:
192,192,142140,1,0,0:0:0:0:
320,192,142140,1,8,0:0:0:0:
64,192,142302,1,2,0:0:0:0:
192,192,142383,1,2,0:0:0:0:
320,192,142464,1,0,0:0:0:0:
448,192,142464,1,0,0:0:0:0:
320,192,142545,1,0,0:0:0:0:
448,192,142545,1,0,0:0:0:0:
192,192,142627,1,0,0:0:0:0:
64,192,142627,1,2,0:0:0:0:
192,192,142789,128,0,142951:0:0:0:0:
320,192,142789,128,0,142951:0:0:0:0:
448,192,142789,1,8,0:0:0:0:
64,192,142951,1,2,0:0:0:0:
64,192,143113,128,0,143437:0:0:0:0:
448,192,143113,128,0,143437:0:0:0:0:
320,192,143113,1,2,0:0:0:0:
192,192,143437,1,0,0:0:0:0:
320,192,143437,1,8,0:0:0:0:
64,192,143518,1,0,0:0:0:0:
192,192,143599,1,0,0:0:0:0:
320,192,143681,1,0,0:0:0:0:
448,192,143681,1,2,0:0:0:0:
64,192,143762,1,0,0:0:0:0:
192,192,143802,1,0,0:0:0:0:
448,192,143843,1,0,0:0:0:0:
320,192,143883,1,0,0:0:0:0:
192,192,143924,1,2,0:0:0:0:
64,192,143924,1,0,0:0:0:0:
448,192,144005,1,0,0:0:0:0:
64,192,144086,1,8,0:0:0:0:
320,192,144086,1,0,0:0:0:0:
192,192,144167,1,0,0:0:0:0:
448,192,144248,1,0,0:0:0:0:
64,192,144329,1,0,0:0:0:0:
448,192,144410,1,0,0:0:0:0:
320,192,144410,1,0,0:0:0:0:
320,192,144572,128,0,144735:0:0:0:0:
64,192,144735,1,0,0:0:0:0:
192,192,144735,1,8,0:0:0:0:
320,192,144897,128,0,145059:0:0:0:0:
448,192,144897,1,2,0:0:0:0:
320,192,145221,128,0,145383:0:0:0:0:
64,192,145221,1,2,0:0:0:0:
192,192,145302,1,2,0:0:0:0:
64,192,145383,1,8,0:0:0:0:
448,192,145383,128,0,145708:0:0:0:0:
320,192,145545,1,2,0:0:0:0:
192,192,145627,1,2,0:0:0:0:
64,192,145708,1,2,0:0:0:0:
320,192,145708,1,4,0:0:0:0:
320,192,145870,1,0,0:0:0:0:
192,192,145951,1,0,0:0:0:0:
448,192,146032,1,8,0:0:0:0:
64,192,146032,1,0,0:0:0:0:
320,192,146032,1,0,0:0:0:0:
192,192,146113,1,0,0:0:0:0:
448,192,146194,1,0,0:0:0:0:
320,192,146194,1,0,0:0:0:0:
64,192,146275,1,0,0:0:0:0:
192,192,146275,1,2,0:0:0:0:
320,192,146356,1,0,0:0:0:0:
192,192,146437,1,0,0:0:0:0:
64,192,146518,128,0,146681:0:0:0:0:
448,192,146518,1,2,0:0:0:0:
320,192,146681,1,8,0:0:0:0:
448,192,146762,128,0,146924:0:0:0:0:
64,192,146762,1,0,0:0:0:0:
192,192,146843,1,2,0:0:0:0:
320,192,146924,1,0,0:0:0:0:
448,192,147005,1,0,0:0:0:0:
64,192,147005,1,2,0:0:0:0:
192,192,147005,1,0,0:0:0:0:
320,192,147167,1,0,0:0:0:0:
192,192,147248,1,0,0:0:0:0:
448,192,147329,1,8,0:0:0:0:
64,192,147329,1,0,0:0:0:0:
320,192,147329,1,0,0:0:0:0:
192,192,147410,1,0,0:0:0:0:
448,192,147491,1,2,0:0:0:0:
320,192,147491,1,0,0:0:0:0:
64,192,147572,1,2,0:0:0:0:
192,192,147572,1,0,0:0:0:0:
448,192,147654,1,0,0:0:0:0:
64,192,147735,1,0,0:0:0:0:
320,192,147816,1,0,0:0:0:0:
448,192,147816,1,2,0:0:0:0:
192,192,147897,1,0,0:0:0:0:
448,192,147978,1,8,0:0:0:0:
64,192,147978,128,0,148140:0:0:0:0:
320,192,147978,1,0,0:0:0:0:
192,192,148140,1,2,0:0:0:0:
192,192,148302,1,0,0:0:0:0:
448,192,148302,128,0,148627:0:0:0:0:
64,192,148302,1,2,0:0:0:0:
320,192,148383,1,0,0:0:0:0:
192,192,148464,1,0,0:0:0:0:
64,192,148545,1,0,0:0:0:0:
192,192,148627,1,8,0:0:0:0:
320,192,148627,1,0,0:0:0:0:
64,192,148708,1,0,0:0:0:0:
448,192,148789,1,2,0:0:0:0:
320,192,148789,1,0,0:0:0:0:
192,192,148870,1,0,0:0:0:0:
64,192,148870,1,2,0:0:0:0:
448,192,148951,1,0,0:0:0:0:
64,192,149113,1,2,0:0:0:0:
192,192,149113,1,0,0:0:0:0:
320,192,149194,1,0,0:0:0:0:
448,192,149275,1,8,0:0:0:0:
64,192,149275,1,0,0:0:0:0:
192,192,149275,1,0,0:0:0:0:
320,192,149356,1,0,0:0:0:0:
192,192,149437,1,0,0:0:0:0:
64,192,149437,1,0,0:0:0:0:
448,192,149518,1,0,0:0:0:0:
320,192,149518,1,2,0:0:0:0:
64,192,149599,1,0,0:0:0:0:
320,192,149681,1,0,0:0:0:0:
192,192,149762,1,0,0:0:0:0:
64,192,149762,1,2,0:0:0:0:
448,192,149843,1,0,0:0:0:0:
64,192,149924,1,8,0:0:0:0:
192,192,149924,1,0,0:0:0:0:
320,192,149924,1,0,0:0:0:0:
320,192,150086,128,0,150248:0:0:0:0:
192,192,150167,1,0,0:0:0:0:
64,192,150167,1,2,0:0:0:0:
448,192,150248,1,0,0:0:0:0:
320,192,150410,128,0,150572:0:0:0:0:
64,192,150410,1,2,0:0:0:0:
192,192,150491,1,0,0:0:0:0:
448,192,150572,1,0,0:0:0:0:
64,192,150572,128,8,150735:0:0:0:0:
320,192,150654,1,0,0:0:0:0:
192,192,150735,1,8,0:0:0:0:
64,192,150816,1,2,0:0:0:0:
320,192,150897,1,2,0:0:0:0:
448,192,150897,128,0,151221:0:0:0:0:
64,192,151059,1,0,0:0:0:0:
320,192,151140,1,0,0:0:0:0:
192,192,151221,1,0,0:0:0:0:
64,192,151221,1,8,0:0:0:0:
320,192,151383,1,0,0:0:0:0:
448,192,151383,1,0,0:0:0:0:
64,192,151464,1,2,0:0:0:0:
192,192,151464,1,0,0:0:0:0:
320,192,151545,1,0,0:0:0:0:
192,192,151627,1,0,0:0:0:0:
64,192,151708,1,2,0:0:0:0:
448,192,151708,1,0,0:0:0:0:
320,192,151789,1,0,0:0:0:0:
64,192,151870,1,0,0:0:0:0:
448,192,151870,1,0,0:0:0:0:
192,192,151870,1,8,0:0:0:0:
320,192,151951,1,0,0:0:0:0:
448,192,152032,1,2,0:0:0:0:
64,192,152032,1,0,0:0:0:0:
192,192,152113,1,0,0:0:0:0:
64,192,152194,128,0,152518:0:0:0:0:
320,192,152194,1,2,0:0:0:0:
192,192,152356,1,0,0:0:0:0:
320,192,152518,1,8,0:0:0:0:
448,192,152518,1,0,0:0:0:0:
448,192,152681,1,0,0:0:0:0:
320,192,152762,1,2,0:0:0:0:
192,192,152843,1,0,0:0:0:0:
64,192,152843,1,0,0:0:0:0:
192,192,152924,1,0,0:0:0:0:
64,192,152924,1,0,0:0:0:0:
448,192,153005,1,2,0:0:0:0:
320,192,153005,1,0,0:0:0:0:
192,192,153086,1,0,0:0:0:0:
64,192,153167,128,0,153329:0:0:0:0:
320,192,153167,1,8,0:0:0:0:
448,192,153248,1,0,0:0:0:0:
320,192,153329,1,0,0:0:0:0:
192,192,153410,1,0,0:0:0:0:
64,192,153491,1,2,0:0:0:0:
448,192,153491,128,0,153816:0:0:0:0:
320,192,153572,1,0,0:0:0:0:
192,192,153654,1,0,0:0:0:0:
64,192,153816,1,8,0:0:0:0:
192,192,153816,1,0,0:0:0:0:
320,192,153897,1,0,0:0:0:0:
448,192,153978,1,0,0:0:0:0:
64,192,153978,1,0,0:0:0:0:
192,192,154059,1,2,0:0:0:0:
448,192,154140,1,0,0:0:0:0:
320,192,154140,1,0,0:0:0:0:
192,192,154221,1,0,0:0:0:0:
64,192,154302,1,2,0:0:0:0:
448,192,154302,1,0,0:0:0:0:
320,192,154383,1,0,0:0:0:0:
64,192,154464,1,8,0:0:0:0:
192,192,154464,1,0,0:0:0:0:
320,192,154545,1,0,0:0:0:0:
448,192,154627,1,0,0:0:0:0:
64,192,154627,1,0,0:0:0:0:
192,192,154708,1,0,0:0:0:0:
448,192,154789,1,2,0:0:0:0:
320,192,154789,1,0,0:0:0:0:
192,192,154870,1,0,0:0:0:0:
448,192,154951,128,0,155113:0:0:0:0:
64,192,154951,1,0,0:0:0:0:
320,192,155032,1,0,0:0:0:0:
192,192,155113,1,8,0:0:0:0:
64,192,155113,1,0,0:0:0:0:
320,192,155194,1,0,0:0:0:0:
448,192,155275,1,2,0:0:0:0:
64,192,155275,128,0,155437:0:0:0:0:
192,192,155356,1,0,0:0:0:0:
448,192,155437,128,0,155599:0:0:0:0:
320,192,155437,1,0,0:0:0:0:
192,192,155599,1,0,0:0:0:0:
320,192,155681,128,0,155843:0:0:0:0:
64,192,155762,1,8,0:0:0:0:
448,192,155762,1,0,0:0:0:0:
192,192,155924,128,0,156086:0:0:0:0:
320,192,155924,1,0,0:0:0:0:
320,192,156086,1,4,0:0:0:0:
64,192,156086,1,0,0:0:0:0:
448,192,156086,1,2,0:0:0:0:
