osu file format v14

[General]
AudioFilename: audio.mp3
AudioLeadIn: 0
PreviewTime: 68193
Countdown: 0
SampleSet: Soft
StackLeniency: 0.4
Mode: 0
LetterboxInBreaks: 0
WidescreenStoryboard: 0

[Editor]
DistanceSpacing: 0.8
BeatDivisor: 4
GridSize: 32
TimelineZoom: 2.999999

[Metadata]
Title:Amphisbaena
TitleUnicode:Amphisbaena
Artist:Mitsuyoshi Takenobu no Ani
ArtistUnicode:Mitsuyoshi Takenobu no Ani
Creator:Cassu2
Version:Serpent
Source:
Tags:
BeatmapID:1214843
BeatmapSetID:573476

[Difficulty]
HPDrainRate:6
CircleSize:4
OverallDifficulty:8.5
ApproachRate:9.5
SliderMultiplier:2.2
SliderTickRate:1

[Events]
//Background and Video events
0,0,"gothic.jpg",0,0
//Break Periods
//Storyboard Layer 0 (Background)
//Storyboard Layer 1 (Fail)
//Storyboard Layer 2 (Pass)
//Storyboard Layer 3 (Foreground)
//Storyboard Sound Samples

[TimingPoints]
410,324.324324324324,4,2,0,100,1,0
3004,-100,4,2,0,5,0,0
3166,-100,4,2,0,10,0,0
3328,-100,4,2,0,15,0,0
3491,-100,4,2,0,20,0,0
3653,-100,4,2,0,25,0,0
3815,-100,4,2,0,30,0,0
3977,-100,4,2,0,35,0,0
4139,-100,4,2,0,40,0,0
4301,-100,4,2,0,45,0,0
4464,-100,4,2,0,50,0,0
4626,-100,4,2,0,55,0,0
4788,-100,4,2,0,60,0,0
4950,-100,4,2,0,65,0,0
5112,-100,4,2,0,70,0,0
5274,-100,4,2,0,75,0,0
5437,-100,4,2,0,80,0,0
5599,-100,4,2,0,65,0,0
6085,-333.333333333333,4,2,0,40,0,0
15977,-200,4,2,0,55,0,0
16869,-200,4,2,0,5,0,0
16950,-200,4,2,0,55,0,0
20761,-200,4,2,0,5,0,0
20842,-200,4,2,0,55,0,0
24653,-200,4,2,0,5,0,0
24734,-200,4,2,0,55,0,0
25950,-200,4,2,0,5,0,0
26031,-200,4,2,0,55,0,0
26680,-500,4,2,0,25,0,0
29112,-500,4,2,0,5,0,0
29274,-500,4,2,0,25,0,0
31626,-500,4,2,0,5,0,0
31869,-500,4,2,0,25,0,0
35599,-500,4,2,0,5,0,0
35761,-500,4,2,0,25,0,0
36734,-166.666666666667,4,2,0,55,0,0
47112,-90.9090909090909,4,2,0,70,0,1
49058,-111.111111111111,4,2,0,70,0,1
49382,-66.6666666666667,4,2,0,70,0,1
49707,-62.5,4,2,0,70,0,1
50031,-90.9090909090909,4,2,0,70,0,1
51004,-76.9230769230769,4,2,0,70,0,1
51653,-90.9090909090909,4,2,0,70,0,1
51977,-66.6666666666667,4,2,0,70,0,1
52301,-83.3333333333333,4,2,0,70,0,1
52788,-90.9090909090909,4,2,0,70,0,1
53599,-83.3333333333333,4,2,0,70,0,1
53923,-90.9090909090909,4,2,0,70,0,1
54247,-83.3333333333333,4,2,0,70,0,1
54572,-66.6666666666667,4,2,0,70,0,1
54896,-62.5,4,2,0,70,0,1
55220,-90.9090909090909,4,2,0,70,0,1
57166,-66.6666666666667,4,2,0,70,0,1
57491,-90.9090909090909,4,2,0,70,0,1
59761,-66.6666666666667,4,2,0,70,0,1
60085,-62.5,4,2,0,70,0,1
60328,-90.9090909090909,4,2,0,70,0,1
61707,-76.9230769230769,4,2,0,70,0,1
62031,-90.9090909090909,4,2,0,70,0,1
62355,-66.6666666666667,4,2,0,70,0,1
62680,-83.3333333333333,4,2,0,70,0,1
63004,-83.3333333333333,4,2,0,70,0,1
63977,-71.4285714285714,4,2,0,70,0,1
64301,-66.6666666666667,4,2,0,70,0,1
65274,-62.5,4,2,0,70,0,1
65599,-90.9090909090909,4,2,0,70,0,1
67869,-90.9090909090909,4,2,0,70,0,0
99004,-200,4,2,0,70,0,0
99085,-200,4,2,0,45,0,0
109301,-200,4,2,0,5,0,0
109382,-200,4,2,0,45,0,0
113437,-200,4,2,0,5,0,0
113518,-200,4,2,0,45,0,0
113680,-200,4,2,0,5,0,0
113761,-200,4,2,0,45,0,0
116761,-200,4,2,0,5,0,0
116842,-200,4,2,0,45,0,0
125274,-333.333333333333,4,2,0,40,0,0
127707,-333.333333333333,4,2,0,5,0,0
127869,-333.333333333333,4,2,0,40,0,0
130301,-333.333333333333,4,2,0,5,0,0
130464,-333.333333333333,4,2,0,40,0,0
134031,-90.9090909090909,4,2,0,70,0,0
135004,-90.9090909090909,4,2,0,40,0,0
135328,-83.3333333333333,4,2,0,70,0,1
137599,-66.6666666666667,4,2,0,70,0,1
137923,-62.5,4,2,0,70,0,1
138247,-90.9090909090909,4,2,0,70,0,1
140193,-66.6666666666667,4,2,0,70,0,1
140518,-83.3333333333333,4,2,0,70,0,1
141004,-90.9090909090909,4,2,0,70,0,1
141815,-76.9230769230769,4,2,0,70,0,1
142139,-90.9090909090909,4,2,0,70,0,1
142788,-66.6666666666667,4,2,0,70,0,1
143112,-62.5,4,2,0,70,0,1
143437,-90.9090909090909,4,2,0,70,0,1
145382,-66.6666666666667,4,2,0,70,0,1
145707,-83.3333333333333,4,2,0,70,0,1
147977,-66.6666666666667,4,2,0,70,0,1
148301,-62.5,4,2,0,70,0,1
148626,-83.3333333333333,4,2,0,70,0,1
149923,-71.4285714285714,4,2,0,70,0,1
150166,-83.3333333333333,4,2,0,70,0,1
150572,-66.6666666666667,4,2,0,70,0,1
150896,-76.9230769230769,4,2,0,70,0,1
151220,-83.3333333333333,4,2,0,70,0,1
153166,-66.6666666666667,4,2,0,70,0,1
153491,-62.5,4,2,0,70,0,1
153815,-83.3333333333333,4,2,0,70,0,1
156085,-83.3333333333333,4,2,0,70,0,0
156166,-83.3333333333333,4,2,0,40,0,0
161274,-83.3333333333333,4,2,0,25,0,0

[HitObjects]
256,192,3004,12,0,5599,3:0:0:0:
161,258,6085,6,0,L|241:254,1,65.9999979858399
164,126,6572,6,0,L|171:164,1,32.99999899292,2|0,0:0|0:0,0:0:0:0:
238,64,6896,2,0,L|240:98,1,32.99999899292,2|0,0:0|0:0,0:0:0:0:
334,133,7220,6,0,L|335:100,1,32.99999899292,2|0,0:0|0:0,0:0:0:0:
403,194,7545,2,0,L|408:161,1,32.99999899292,2|0,0:0|0:0,0:0:0:0:
250,187,7869,6,0,L|257:225,1,32.99999899292,2|0,0:0|0:0,0:0:0:0:
321,274,8193,2,0,L|314:312,1,32.99999899292,2|0,0:0|0:0,0:0:0:0:
127,278,8518,6,0,L|165:285,1,32.99999899292,2|0,0:0|0:0,0:0:0:0:
214,349,8842,2,0,L|252:342,1,32.99999899292,2|0,0:0|0:0,0:0:0:0:
229,206,9166,6,0,P|225:186|225:159,2,32.99999899292,2|0|2,0:0|0:0|0:0,0:0:0:0:
319,177,9653,1,0,0:0:0:0:
265,81,9815,6,0,L|223:85,1,32.99999899292,2|0,0:0|0:0,0:0:0:0:
144,134,10139,2,0,L|111:130,1,32.99999899292,2|0,0:0|0:0,0:0:0:0:
229,206,10464,6,0,L|187:210,1,32.99999899292,2|0,0:0|0:0,0:0:0:0:
89,229,10788,1,2,0:0:0:0:
89,229,10950,1,0,0:0:0:0:
139,101,11112,6,0,L|144:141,1,32.99999899292,2|0,0:0|0:0,0:0:0:0:
229,206,11437,2,0,L|224:246,1,32.99999899292,2|0,0:0|0:0,0:0:0:0:
60,252,11761,2,0,P|92:241|130:244,1,65.9999979858399,2|2,0:0|0:0,0:0:0:0:
104,337,12247,1,0,0:0:0:0:
202,321,12409,6,0,L|246:325,1,32.99999899292,2|0,0:0|0:0,0:0:0:0:
257,235,12734,2,0,L|213:239,1,32.99999899292,2|0,0:0|0:0,0:0:0:0:
338,281,13058,6,0,P|346:252|342:203,1,65.9999979858399,2|0,0:0|0:0,0:0:0:0:
299,139,13545,1,0,0:0:0:0:
299,139,13707,6,0,L|331:136,1,32.99999899292,2|0,0:0|0:0,0:0:0:0:
375,59,14031,2,0,L|407:61,1,32.99999899292,2|0,0:0|0:0,0:0:0:0:
436,171,14355,6,0,P|442:188|459:211,1,32.99999899292,2|0,0:0|0:0,0:0:0:0:
374,256,14680,2,0,P|368:273|351:296,1,32.99999899292,2|0,0:0|0:0,0:0:0:0:
265,171,15004,2,0,L|335:170,1,65.9999979858399,2|2,0:0|0:0,0:0:0:0:
225,44,15491,5,0,0:0:0:0:
225,44,15653,2,0,L|227:88,1,32.99999899292,2|0,0:0|0:0,0:0:0:0:
169,238,15977,6,0,B|162:199|162:199|162:176|162:176|150:114,1,110,0|0,3:0|0:0,0:0:0:0:
61,173,16464,1,0,0:0:0:0:
246,186,16626,6,0,L|347:178,1,82.5,0|0,1:0|0:0,0:0:0:0:
328,179,16950,1,2,0:0:0:0:
242,300,17112,1,0,3:0:0:0:
140,191,17274,6,0,P|159:217|172:248,1,55,0|0,3:0|0:0,0:0:0:0:
282,111,17599,2,0,P|263:137|250:168,1,55,0|0,3:0|0:0,0:0:0:0:
113,19,17923,2,0,P|141:43|172:127,1,110,0|0,1:0|0:0,0:0:0:0:
55,121,18409,1,0,0:0:0:0:
204,30,18572,6,0,L|274:35,1,55,0|0,3:0|0:0,0:0:0:0:
371,44,18896,1,2,0:0:0:0:
171,109,19058,1,0,3:0:0:0:
386,153,19220,2,0,L|371:43,1,110,0|2,1:0|0:0,0:0:0:0:
228,195,19707,1,0,3:0:0:0:
230,205,19788,1,0,3:0:0:0:
232,215,19869,6,0,L|162:220,1,55,0|0,3:0|0:0,0:0:0:0:
100,225,20112,1,0,3:0:0:0:
100,225,20193,1,2,0:0:0:0:
310,211,20355,1,0,3:0:0:0:
169,137,20518,6,0,L|179:232,1,82.5,0|0,1:0|0:0,0:0:0:0:
177,219,20842,1,0,3:0:0:0:
162,59,21004,1,0,3:0:0:0:
279,145,21166,6,0,L|165:137,1,110,0|8,3:0|0:0,0:0:0:0:
37,128,21653,1,8,0:0:0:0:
219,22,21815,6,0,P|228:61|226:91,1,55,0|0,1:0|0:0,0:0:0:0:
163,214,22139,1,2,0:0:0:0:
145,60,22301,1,0,3:0:0:0:
290,174,22464,6,0,L|228:185,1,55,0|0,3:0|0:0,0:0:0:0:
47,116,22788,2,0,L|109:127,1,55,0|0,3:0|0:0,0:0:0:0:
323,95,23112,6,0,L|385:106,1,55,0|0,1:0|0:0,0:0:0:0:
236,184,23437,1,2,0:0:0:0:
210,44,23599,1,0,0:0:0:0:
343,197,23761,6,0,L|336:315,1,110,0|0,3:0|0:0,0:0:0:0:
251,357,24247,1,0,3:0:0:0:
417,261,24409,6,0,L|507:268,1,82.5,0|0,1:0|0:0,0:0:0:0:
499,267,24734,1,2,0:0:0:0:
342,347,24896,1,0,3:0:0:0:
338,336,24977,1,0,3:0:0:0:
334,325,25058,1,0,3:0:0:0:
327,180,25220,6,0,L|361:174,1,27.5,0|0,3:0|3:0,0:0:0:0:
429,159,25382,1,0,3:0:0:0:
407,277,25545,1,0,3:0:0:0:
236,117,25707,6,0,B|241:148|241:148|231:178|231:178|237:223,1,82.5,0|0,1:0|0:0,0:0:0:0:
233,197,26031,1,0,3:0:0:0:
332,53,26193,2,0,P|361:50|398:55,1,55,0|0,3:0|3:0,3:0:0:0:
139,88,26680,6,0,B|154:130|154:130|134:181|134:181|146:225|146:225|98:242|79:301|126:356|189:334,1,330
241,253,29274,6,0,B|289:244|289:244|350:258|350:258|411:244|472:250|472:250|478:197|426:179,1,319
302,58,31869,6,0,B|249:40|249:40|220:55|220:55|171:34|171:34|91:74,1,231
154,156,34139,6,0,L|161:260,2,99
72,176,35761,6,0,L|80:287,1,110
216,313,36734,6,0,B|267:315|267:315|299:301|299:301|366:303,1,131.99999597168,0|0,3:0|0:0,0:0:0:0:
459,234,37220,1,0,0:0:0:0:
334,180,37382,2,0,P|319:239|359:316,1,131.99999597168,0|0,1:0|0:0,0:0:0:0:
345,302,37869,5,0,0:0:0:0:
239,219,38031,2,0,L|164:225,1,65.9999979858399,8|0,0:0|0:0,0:0:0:0:
199,347,38355,2,0,L|274:353,1,65.9999979858399,8|0,0:0|0:0,0:0:0:0:
63,205,38680,2,0,L|77:354,1,131.99999597168,0|0,1:0|0:0,0:0:0:0:
173,224,39166,1,0,0:0:0:0:
52,94,39328,6,0,B|98:89|98:89|131:102|131:102|199:99,1,131.99999597168,0|0,3:0|0:0,0:0:0:0:
332,129,39815,1,0,0:0:0:0:
227,224,39977,2,0,L|84:233,1,131.99999597168,0|0,1:0|0:0,0:0:0:0:
182,100,40464,1,0,0:0:0:0:
52,94,40626,6,0,L|61:168,1,65.9999979858399,8|0,0:0|0:0,0:0:0:0:
227,224,40950,2,0,L|218:298,1,65.9999979858399,8|0,0:0|0:0,0:0:0:0:
15,269,41274,2,0,P|52:247|159:265,1,131.99999597168,0|0,1:0|0:0,0:0:0:0:
236,367,41761,1,0,0:0:0:0:
87,351,41923,1,0,3:0:0:0:
87,351,42247,5,0,0:0:0:0:
236,273,42409,1,0,0:0:0:0:
77,221,42572,2,0,B|72:271|72:271|93:380,1,131.99999597168,0|0,1:0|0:0,0:0:0:0:
176,171,43058,1,0,0:0:0:0:
234,288,43220,6,0,L|302:279,1,65.9999979858399,8|0,0:0|0:0,0:0:0:0:
345,134,43545,2,0,L|410:142,1,65.9999979858399,8|0,0:0|0:0,0:0:0:0:
404,351,43869,2,0,L|384:218,1,131.99999597168,0|0,1:0|0:0,0:0:0:0:
420,67,44355,1,0,0:0:0:0:
507,215,44518,1,0,3:0:0:0:
507,215,44842,5,8,0:0:0:0:
345,134,45004,1,0,0:0:0:0:
479,20,45166,2,0,L|459:150,1,131.99999597168,0|0,1:0|0:0,0:0:0:0:
273,68,45653,1,8,0:0:0:0:
384,220,45815,5,2,0:0:0:0:
384,220,46139,1,2,0:0:0:0:
381,232,46220,1,2,0:0:0:0:
373,242,46301,1,2,0:0:0:0:
362,249,46382,1,2,0:0:0:0:
330,255,46464,5,2,0:0:0:0:
330,255,47112,6,0,B|282:247|265:226|265:226|233:257|190:247|190:247|160:261|117:253,1,181.500005538941,0|0,3:0|0:0,0:0:0:0:
94,229,47437,6,0,P|163:187|162:256,1,181.500005538941,2|0,1:0|3:0,0:0:0:0:
98,363,47761,6,0,P|97:351|112:299,1,60.5000018463135
253,168,47923,2,0,P|263:196|263:226,1,60.5000018463135,0|0,3:0|0:0,0:0:0:0:
47,146,48085,1,2,1:0:0:0:
55,108,48166,2,0,B|85:113|105:102|105:102|123:109|146:104|146:104|160:109|194:103,1,121.000003692627,2|0,0:0|0:0,0:0:0:0:
222,47,48409,5,0,3:0:0:0:
142,229,48572,1,0,3:0:0:0:
67,35,48734,1,0,1:0:0:0:
281,163,48896,1,0,3:0:0:0:
281,163,48977,1,0,3:0:0:0:
281,163,49058,2,0,B|287:226|287:226|256:183,1,98.9999969787599,2|0,0:0|3:0,0:0:0:0:
243,60,49301,5,0,3:0:0:0:
319,39,49382,2,0,B|352:38|377:47|377:47|433:35|433:35|471:47|525:51,1,165.000006294251,2|0,1:0|0:0,0:0:0:0:
266,197,49707,6,0,B|317:185|351:202|351:202|380:185|406:185|406:185|429:222|472:245|472:245|409:254,1,264,2|0,1:0|0:0,0:0:0:0:
306,272,50031,5,0,1:0:0:0:
485,159,50193,2,0,P|488:130|473:92,1,60.5000018463135,0|0,3:0|3:0,0:0:0:0:
319,39,50355,1,0,0:0:0:0:
443,249,50518,1,0,3:0:0:0:
214,127,50680,2,0,L|74:136,1,121.000003692627,0|0,1:0|0:0,0:0:0:0:
111,264,50923,1,0,3:0:0:0:
156,279,51004,6,0,P|157:239|143:207,1,71.4999967269899,2|0,0:0|0:0,0:0:0:0:
28,89,51166,6,0,P|15:122|17:157,1,71.4999967269899,0|0,3:0|3:0,0:0:0:0:
243,169,51328,6,0,B|259:67|259:67|213:96,1,142.99999345398,2|2,1:0|0:0,0:0:0:0:
145,210,51572,5,0,3:0:0:0:
154,251,51653,2,0,L|234:256,1,60.5000018463135,0|0,3:0|0:0,0:0:0:0:
285,84,51815,2,0,L|205:89,1,60.5000018463135,0|0,3:0|3:0,0:0:0:0:
282,310,51977,6,0,B|322:354|322:354|385:349|385:349|417:288|417:288|369:219,1,247.500009441376,2|0,1:0|0:0,0:0:0:0:
275,318,52301,6,0,P|336:360|387:227,1,263.99999194336,4|0,3:0|1:0,0:0:0:0:
335,39,52788,5,0,3:0:0:0:
337,63,52869,2,0,B|338:117|338:117|308:174|308:174|309:253,1,181.500005538941,0|0,3:0|3:0,0:0:0:0:
231,53,53274,1,0,1:0:0:0:
466,115,53437,1,0,3:0:0:0:
189,189,53599,6,0,B|151:193|125:182|125:182|95:192|35:176|35:176|94:159,1,197.99999395752,0|0,3:0|0:0,0:0:0:0:
228,115,53923,6,0,P|272:173|265:228,1,121.000003692627,0|0,1:0|3:0,0:0:0:0:
134,250,54166,1,0,3:0:0:0:
127,209,54247,6,0,P|163:193|197:189,1,65.9999979858399,2|2,0:0|0:0,0:0:0:0:
331,238,54409,2,0,P|298:232|268:218,1,65.9999979858399,0|0,3:0|0:0,0:0:0:0:
430,85,54572,6,0,B|452:147|452:147|418:192|418:192|440:262,1,165.000006294251,2|0,1:0|0:0,0:0:0:0:
304,61,54896,6,0,P|296:176|411:163,1,264,2|0,1:0|0:0,0:0:0:0:
348,121,55220,5,0,1:0:0:0:
125,103,55382,1,0,0:0:0:0:
128,120,55464,1,0,3:0:0:0:
131,137,55545,2,0,L|139:193,4,30.2500009231568,0|0|0|0|0,3:0|0:0|0:0|0:0|3:0,0:0:0:0:
48,178,55788,1,0,0:0:0:0:
45,195,55869,2,0,L|41:259,1,60.5000018463135,0|0,1:0|0:0,0:0:0:0:
212,211,56031,2,0,L|216:275,1,60.5000018463135,0|0,3:0|0:0,0:0:0:0:
55,95,56193,1,0,3:0:0:0:
55,95,56355,6,0,L|125:89,1,60.5000018463135,2|0,0:0|0:0,0:0:0:0:
143,325,56518,1,0,1:0:0:0:
143,325,56680,6,0,L|73:319,1,60.5000018463135,2|0,0:0|0:0,0:0:0:0:
243,151,56842,1,0,3:0:0:0:
243,151,57004,6,0,L|247:215,1,60.5000018463135,2|0,0:0|1:0,0:0:0:0:
109,112,57166,6,0,B|146:86|182:76|182:76|219:48|264:66|264:66|315:72|334:142,1,247.500009441376,2|0,1:0|3:0,0:0:0:0:
225,258,57491,6,0,P|213:194|277:136,1,121.000003692627,0|0,3:0|0:0,0:0:0:0:
350,230,57734,5,0,0:0:0:0:
362,264,57815,1,0,1:0:0:0:
360,300,57896,1,0,0:0:0:0:
348,334,57977,1,0,0:0:0:0:
324,361,58058,1,0,3:0:0:0:
291,376,58139,6,0,P|293:345|308:313,1,60.5000018463135
489,267,58301,2,0,P|487:236|472:204,1,60.5000018463135,0|0,3:0|0:0,0:0:0:0:
261,183,58464,6,0,P|262:213|274:240,1,60.5000018463135,0|0,1:0|0:0,0:0:0:0:
412,361,58626,2,0,P|423:333|425:303,1,60.5000018463135,0|0,3:0|3:0,0:0:0:0:
196,292,58788,5,0,3:0:0:0:
153,292,58869,1,0,0:0:0:0:
112,304,58950,1,0,0:0:0:0:
79,331,59031,1,0,0:0:0:0:
52,363,59112,5,0,1:0:0:0:
100,362,59193,1,0,0:0:0:0:
132,325,59274,1,0,3:0:0:0:
133,276,59355,1,0,3:0:0:0:
108,233,59437,1,0,0:0:0:0:
66,208,59518,1,0,0:0:0:0:
43,165,59599,1,0,3:0:0:0:
46,116,59680,1,0,0:0:0:0:
75,77,59761,6,0,B|190:73|190:73|152:123,1,165.000006294251,2|0,1:0|0:0,0:0:0:0:
280,145,60004,1,0,0:0:0:0:
337,79,60085,6,0,B|222:75|222:75|262:128,1,176,2|0,1:0|0:0,0:0:0:0:
369,180,60328,5,0,0:0:0:0:
403,167,60409,1,0,1:0:0:0:
428,141,60491,1,0,0:0:0:0:
440,106,60572,1,0,3:0:0:0:
445,70,60653,1,0,3:0:0:0:
429,37,60734,5,0,0:0:0:0:
394,71,60815,1,0,0:0:0:0:
389,119,60896,1,0,3:0:0:0:
403,167,60977,1,0,0:0:0:0:
422,211,61058,1,0,1:0:0:0:
431,258,61139,1,0,0:0:0:0:
424,305,61220,1,0,0:0:0:0:
397,345,61301,1,0,3:0:0:0:
318,347,61382,6,0,P|334:298|356:279,1,60.5000018463135,2|0,0:0|0:0,0:0:0:0:
504,211,61545,2,0,P|488:162|466:143,1,60.5000018463135,2|0,0:0|0:0,0:0:0:0:
185,144,61707,6,0,B|232:158|232:158|271:154|271:154|327:171,1,142.99999345398,0|0,1:0|3:0,0:0:0:0:
223,60,61950,1,0,3:0:0:0:
180,83,62031,6,0,L|186:163,1,60.5000018463135,0|0,3:0|0:0,0:0:0:0:
319,230,62193,2,0,L|323:169,1,60.5000018463135,0|0,3:0|0:0,0:0:0:0:
73,85,62355,6,0,B|86:117|77:149|77:149|101:197|101:197|88:255|88:255|114:279|114:326,1,247.500009441376,2|0,1:0|0:0,0:0:0:0:
193,259,62680,6,0,P|144:222|126:323,1,197.99999395752,4|0,3:0|0:0,0:0:0:0:
202,360,63004,6,0,L|348:350,1,131.99999597168,0|0,1:0|3:0,0:0:0:0:
397,301,63247,5,0,3:0:0:0:
408,270,63328,1,0,0:0:0:0:
410,237,63409,1,0,0:0:0:0:
401,204,63491,1,0,3:0:0:0:
386,174,63572,1,0,0:0:0:0:
365,148,63653,5,0,1:0:0:0:
335,183,63734,1,0,0:0:0:0:
324,227,63815,1,0,3:0:0:0:
333,272,63896,1,0,0:0:0:0:
362,315,63977,6,0,B|398:308|431:315|431:315|488:311|488:311|469:349|469:349|407:333,1,230.99999295044,0|0,3:0|0:0,0:0:0:0:
245,330,64301,6,0,L|257:252,1,65.9999979858399,0|0,1:0|0:0,0:0:0:0:
410,237,64464,2,0,L|398:159,1,65.9999979858399,0|0,3:0|3:0,0:0:0:0:
162,121,64626,5,2,0:0:0:0:
223,145,64707,1,2,0:0:0:0:
288,142,64788,1,0,3:0:0:0:
342,104,64869,1,0,0:0:0:0:
358,40,64950,2,0,B|299:32|299:32|254:63|254:63|183:48,1,165.000006294251,2|0,1:0|0:0,0:0:0:0:
136,184,65193,5,0,0:0:0:0:
206,222,65274,2,0,P|286:157|193:53,1,264,2|0,1:0|0:0,0:0:0:0:
77,183,65599,6,0,P|106:189|162:170,1,60.5000018463135,0|0,3:0|0:0,0:0:0:0:
203,52,65761,2,0,P|232:47|262:53,1,60.5000018463135,0|0,3:0|3:0,0:0:0:0:
353,197,65923,2,0,P|370:200|389:196,4,30.2500009231568,0|0|0|0|0,1:0|1:0|1:0|1:0|1:0,1:0:0:0:
425,124,66166,5,0,3:0:0:0:
455,121,66247,2,0,L|459:195,1,60.5000018463135,0|0,1:0|0:0,0:0:0:0:
396,351,66409,1,0,3:0:0:0:
286,138,66572,1,0,3:0:0:0:
275,166,66653,5,0,0:0:0:0:
273,196,66734,1,0,0:0:0:0:
275,226,66815,1,0,0:0:0:0:
284,254,66896,1,0,1:0:0:0:
299,280,66977,1,0,0:0:0:0:
306,309,67058,1,0,3:0:0:0:
303,339,67139,1,0,0:0:0:0:
291,367,67220,6,0,P|277:335|277:303,1,60.5000018463135,2|0,1:0|0:0,0:0:0:0:
362,147,67382,1,0,0:0:0:0:
384,149,67464,6,0,P|381:179|368:206,1,60.5000018463135,2|0,1:0|0:0,0:0:0:0:
151,111,67626,1,0,0:0:0:0:
164,91,67707,6,0,P|194:93|221:106,1,60.5000018463135,2|0,1:0|0:0,0:0:0:0:
132,269,67869,6,0,P|51:291|113:206,1,242.000007385254,4|0,3:0|1:0,0:0:0:0:
291,367,68355,5,0,3:0:0:0:
333,369,68437,1,0,3:0:0:0:
369,347,68518,1,0,0:0:0:0:
389,310,68599,1,0,0:0:0:0:
389,267,68680,1,0,3:0:0:0:
373,227,68761,1,0,0:0:0:0:
364,185,68842,1,0,1:0:0:0:
373,143,68923,1,0,0:0:0:0:
401,111,69004,1,0,3:0:0:0:
441,99,69085,1,0,0:0:0:0:
479,115,69166,6,0,P|466:154|441:173,1,60.5000018463135,0|0,3:0|0:0,0:0:0:0:
295,135,69328,2,0,P|308:96|333:77,1,60.5000018463135
373,227,69491,5,0,1:0:0:0:
333,254,69572,1,0,0:0:0:0:
285,263,69653,1,0,3:0:0:0:
236,257,69734,1,0,3:0:0:0:
193,233,69815,1,0,0:0:0:0:
162,195,69896,1,0,0:0:0:0:
124,163,69977,1,0,3:0:0:0:
76,156,70058,1,0,0:0:0:0:
33,178,70139,5,0,1:0:0:0:
62,223,70220,1,0,0:0:0:0:
112,242,70301,1,0,3:0:0:0:
164,226,70382,1,0,0:0:0:0:
191,178,70464,1,0,3:0:0:0:
186,123,70545,1,0,0:0:0:0:
146,85,70626,1,0,0:0:0:0:
91,87,70707,1,0,0:0:0:0:
58,130,70788,6,0,L|68:210,1,60.5000018463135,0|0,1:0|0:0,0:0:0:0:
247,242,70950,2,0,L|237:322,1,60.5000018463135,0|0,0:0|3:0,0:0:0:0:
84,371,71112,5,0,0:0:0:0:
106,328,71193,1,0,3:0:0:0:
145,300,71274,1,0,3:0:0:0:
192,291,71355,1,0,0:0:0:0:
239,302,71437,1,0,1:0:0:0:
274,335,71518,1,0,0:0:0:0:
320,346,71599,1,0,3:0:0:0:
366,332,71680,1,0,0:0:0:0:
396,294,71761,6,0,L|385:208,1,60.5000018463135,0|0,3:0|0:0,0:0:0:0:
241,169,71923,2,0,L|233:229,1,60.5000018463135
455,188,72085,1,0,1:0:0:0:
462,152,72166,1,0,0:0:0:0:
455,116,72247,1,0,3:0:0:0:
433,86,72328,1,0,0:0:0:0:
402,66,72409,5,0,0:0:0:0:
359,61,72491,1,0,0:0:0:0:
321,80,72572,1,0,3:0:0:0:
308,120,72653,1,0,3:0:0:0:
320,160,72734,2,0,P|365:164|399:142,1,60.5000018463135,0|0,1:0|0:0,0:0:0:0:
187,56,72896,2,0,P|232:52|266:74,1,60.5000018463135,0|0,3:0|0:0,0:0:0:0:
311,285,73058,5,0,3:0:0:0:
266,265,73139,1,0,0:0:0:0:
232,230,73220,1,0,0:0:0:0:
212,185,73301,1,0,0:0:0:0:
212,136,73382,6,0,B|230:166|230:166|235:207,1,60.5000018463135,0|0,1:0|0:0,0:0:0:0:
110,272,73545,2,0,B|113:246|113:246|131:216,1,60.5000018463135,0|0,0:0|3:0,0:0:0:0:
311,285,73707,5,0,3:0:0:0:
356,268,73788,1,0,0:0:0:0:
389,234,73869,1,0,3:0:0:0:
404,188,73950,1,0,0:0:0:0:
398,140,74031,1,0,1:0:0:0:
372,100,74112,1,0,0:0:0:0:
331,75,74193,5,0,3:0:0:0:
308,103,74274,1,0,3:0:0:0:
301,138,74355,2,0,L|388:150,1,60.5000018463135,0|0,3:0|0:0,0:0:0:0:
221,240,74518,2,0,L|308:228,1,60.5000018463135,0|0,3:0|3:0,3:0:0:0:
159,120,74680,6,0,L|152:190,1,60.5000018463135,0|0,1:0|0:0,0:0:0:0:
369,283,74842,2,0,L|362:222,1,60.5000018463135,0|0,3:0|0:0,0:0:0:0:
164,304,75004,5,0,3:0:0:0:
454,215,75166,1,0,3:0:0:0:
72,136,75328,1,0,1:0:0:0:
376,41,75491,1,0,3:0:0:0:
206,195,75653,5,0,3:0:0:0:
214,159,75734,1,0,0:0:0:0:
231,127,75815,1,0,0:0:0:0:
255,99,75896,1,0,0:0:0:0:
287,83,75977,5,0,1:0:0:0:
302,128,76058,1,0,0:0:0:0:
302,176,76139,1,0,0:0:0:0:
284,221,76220,1,0,0:0:0:0:
253,258,76301,2,0,L|195:242,1,60.5000018463135,0|0,3:0|0:0,0:0:0:0:
169,143,76464,2,0,L|215:146,4,30.2500009231568,0|0|0|0|0,1:0|1:0|1:0|1:0|1:0,1:0:0:0:
85,178,76707,5,0,0:0:0:0:
85,178,76788,2,0,L|39:181,3,30.2500009231568,0|0|0|0,1:0|1:0|1:0|1:0,1:0:0:0:
88,261,76950,6,2,L|93:301,1,30.2500009231568
112,295,77031,2,2,L|121:325,1,30.2500009231568
146,319,77112,2,2,L|162:345,1,30.2500009231568
186,330,77193,2,2,L|206:354,1,30.2500009231568
228,332,77274,2,0,L|257:346,1,30.2500009231568,0|0,3:0|0:0,0:0:0:0:
269,324,77355,2,0,L|300:332,1,30.2500009231568
306,303,77437,2,0,L|340:301,1,30.2500009231568,0|0,3:0|0:0,0:0:0:0:
331,269,77518,2,0,L|364:256,1,30.2500009231568
283,204,77599,5,0,3:0:0:0:
266,222,77680,1,0,3:0:0:0:
256,244,77761,1,0,3:0:0:0:
253,268,77842,1,0,3:0:0:0:
257,291,77923,1,0,3:0:0:0:
266,313,78004,1,0,3:0:0:0:
281,331,78085,1,0,3:0:0:0:
301,343,78166,1,0,3:0:0:0:
324,346,78247,6,0,B|372:381|454:304|509:355,1,181.500005538941,4|0,3:0|0:0,0:0:0:0:
499,347,78572,1,0,1:0:0:0:
359,278,78734,1,0,0:0:0:0:
354,242,78815,1,0,0:0:0:0:
364,207,78896,1,0,3:0:0:0:
387,179,78977,1,0,0:0:0:0:
421,166,79058,1,0,0:0:0:0:
457,168,79139,1,0,0:0:0:0:
485,190,79220,5,0,1:0:0:0:
412,364,79382,1,0,0:0:0:0:
266,171,79545,2,0,L|409:180,1,121.000003692627,0|0,3:0|0:0,0:0:0:0:
387,179,79788,1,0,0:0:0:0:
387,179,79869,1,0,1:0:0:0:
230,93,80031,1,0,0:0:0:0:
264,285,80193,6,0,P|282:227|249:152,1,121.000003692627,0|0,3:0|0:0,0:0:0:0:
89,230,80518,1,0,1:0:0:0:
230,93,80680,5,2,3:0:0:0:
40,135,80842,2,0,B|38:197|38:197|59:234|59:234|56:335,1,181.500005538941,2|0,3:0|0:0,0:0:0:0:
56,310,81166,1,0,1:0:0:0:
134,114,81328,1,0,3:0:0:0:
134,114,81409,1,0,3:0:0:0:
134,114,81491,1,0,3:0:0:0:
182,295,81653,1,0,3:0:0:0:
8,198,81815,1,0,1:0:0:0:
250,138,81977,1,0,3:0:0:0:
111,363,82139,6,0,B|101:219|101:219|144:259,1,181.500005538941,2|0,3:0|0:0,0:0:0:0:
182,295,82464,1,0,1:0:0:0:
368,255,82626,1,0,3:0:0:0:
363,278,82707,1,0,3:0:0:0:
358,301,82788,1,2,3:0:0:0:
240,92,82950,1,0,3:0:0:0:
245,115,83031,1,0,3:0:0:0:
250,138,83112,1,0,3:0:0:0:
249,162,83193,1,0,3:0:0:0:
244,185,83274,1,0,3:0:0:0:
239,208,83355,1,0,3:0:0:0:
232,231,83437,6,0,B|197:189|197:189|206:77,1,121.000003692627,2|0,3:0|0:0,0:0:0:0:
410,42,83761,2,0,B|445:84|445:84|436:196,1,121.000003692627,0|0,1:0|0:0,0:0:0:0:
362,327,84085,1,0,3:0:0:0:
327,147,84247,1,0,0:0:0:0:
468,228,84409,2,0,B|415:237|415:237|278:230,1,181.500005538941,0|0,1:0|0:0,0:0:0:0:
287,230,84734,5,0,3:0:0:0:
439,150,84896,1,0,0:0:0:0:
233,51,85058,2,0,P|222:105|244:181,1,121.000003692627,0|0,1:0|0:0,0:0:0:0:
362,327,85382,2,0,P|376:268|365:209,1,121.000003692627,0|0,3:0|0:0,0:0:0:0:
95,186,85707,5,0,1:0:0:0:
291,266,85869,1,0,0:0:0:0:
233,51,86031,1,2,3:0:0:0:
152,274,86193,1,0,3:0:0:0:
368,137,86355,1,0,1:0:0:0:
183,144,86518,6,0,L|144:148,4,30.2500009231568,0|0|0|0|2,1:0|1:0|1:0|1:0|1:0,1:0:0:0:
367,124,86842,1,0,3:0:0:0:
368,137,86923,1,0,3:0:0:0:
369,150,87004,1,0,1:0:0:0:
184,221,87166,6,0,L|145:225,4,30.2500009231568,0|0|0|0|0,1:0|1:0|1:0|1:0|1:0,1:0:0:0:
247,87,87491,6,0,L|277:83,4,30.2500009231568,0|0|0|0|0,1:0|1:0|1:0|1:0|1:0,1:0:0:0:
34,113,87815,1,0,3:0:0:0:
277,83,87977,5,0,3:0:0:0:
289,116,88058,1,0,3:0:0:0:
292,152,88139,1,0,3:0:0:0:
283,187,88220,1,0,3:0:0:0:
260,215,88301,1,0,3:0:0:0:
228,232,88382,1,0,3:0:0:0:
191,239,88464,2,0,L|182:208,3,30.2500009231568,0|0|0|0,1:0|1:0|1:0|1:0,1:0:0:0:
122,279,88626,6,0,P|192:275|285:348,1,181.500005538941,2|0,1:0|0:0,0:0:0:0:
279,337,88950,1,0,1:0:0:0:
46,234,89112,5,0,0:0:0:0:
51,192,89193,1,0,0:0:0:0:
74,156,89274,1,0,3:0:0:0:
106,128,89355,1,0,0:0:0:0:
127,90,89437,1,0,0:0:0:0:
118,48,89518,1,0,0:0:0:0:
89,18,89599,5,0,1:0:0:0:
77,46,89680,1,0,0:0:0:0:
81,75,89761,1,0,0:0:0:0:
89,104,89842,1,0,0:0:0:0:
106,128,89923,1,0,3:0:0:0:
271,44,90085,1,0,0:0:0:0:
271,44,90166,1,0,0:0:0:0:
271,44,90247,6,0,L|255:168,1,121.000003692627,0|0,1:0|0:0,0:0:0:0:
90,248,90572,2,0,L|105:127,1,121.000003692627,0|0,3:0|0:0,0:0:0:0:
269,250,90896,1,0,1:0:0:0:
84,352,91058,1,0,3:0:0:0:
255,164,91220,6,0,B|316:167|316:167|372:189|372:189|441:193,1,181.500005538941,0|0,3:0|0:0,0:0:0:0:
432,192,91545,1,0,1:0:0:0:
269,250,91707,1,0,0:0:0:0:
410,104,91869,1,0,3:0:0:0:
325,314,92031,6,0,L|333:353,4,30.2500009231568,0|0|0|0|0,1:0|1:0|1:0|1:0|1:0,1:0:0:0:
255,164,92355,2,0,L|248:134,4,30.2500009231568,0|0|0|0|0,1:0|1:0|1:0|1:0|3:0,1:0:0:0:
432,192,92680,5,0,0:0:0:0:
236,327,92842,1,0,1:0:0:0:
462,314,93004,1,0,3:0:0:0:
457,296,93085,1,0,3:0:0:0:
452,278,93166,1,0,3:0:0:0:
265,128,93328,1,0,3:0:0:0:
260,146,93409,1,0,3:0:0:0:
255,164,93490,1,0,1:0:0:0:
250,182,93572,1,0,3:0:0:0:
245,200,93653,6,0,L|212:195,3,30.2500009231568,0|0|0|0,1:0|1:0|1:0|1:0,1:0:0:0:
140,224,93815,6,0,L|337:247,1,181.500005538941,2|0,3:0|0:0,0:0:0:0:
320,245,94139,1,0,1:0:0:0:
202,80,94301,1,0,0:0:0:0:
45,271,94464,5,0,3:0:0:0:
245,200,94626,1,0,3:0:0:0:
41,109,94788,1,0,1:0:0:0:
157,329,94950,1,0,3:0:0:0:
173,322,95031,1,0,3:0:0:0:
189,315,95112,1,2,3:0:0:0:
169,97,95274,1,0,3:0:0:0:
153,104,95355,1,0,3:0:0:0:
137,111,95437,5,0,1:0:0:0:
298,291,95599,1,0,3:0:0:0:
235,58,95761,2,0,P|217:114|222:179,1,121.000003692627,0|0,3:0|3:0,0:0:0:0:
465,265,96085,5,0,1:0:0:0:
298,132,96247,1,0,3:0:0:0:
305,364,96409,2,0,B|333:317|333:317|335:256|335:256|375:185,1,181.500005538941,2|0,1:0|0:0,0:0:0:0:
367,198,96734,1,0,3:0:0:0:
236,292,96896,1,2,0:0:0:0:
433,262,97058,1,0,3:0:0:0:
217,151,97220,6,0,L|178:155,3,30.2500009231568,0|0|0|0,1:0|1:0|1:0|1:0,1:0:0:0:
199,77,97382,1,2,3:0:0:0:
337,195,97545,6,0,L|376:199,3,30.2500009231568,0|0|0|0,3:0|3:0|3:0|3:0,3:0:0:0:
355,121,97707,1,2,3:0:0:0:
225,264,97869,1,0,3:0:0:0:
199,77,98031,1,0,3:0:0:0:
334,218,98193,1,0,3:0:0:0:
338,18,98355,5,0,3:0:0:0:
372,29,98437,1,0,3:0:0:0:
391,59,98518,1,0,3:0:0:0:
386,94,98599,1,0,3:0:0:0:
360,120,98680,1,0,3:0:0:0:
323,119,98761,1,0,3:0:0:0:
293,97,98842,1,0,3:0:0:0:
286,61,98923,1,0,3:0:0:0:
307,32,99004,6,0,B|365:24|365:24|408:59|408:59|492:50,1,192.5,4|0,3:0|0:0,0:0:0:0:
486,50,99653,1,0,0:0:0:0:
323,119,99815,1,0,0:0:0:0:
460,179,99977,2,0,L|452:241,1,55
284,251,100301,2,0,L|297:372,1,110
460,179,100950,6,0,L|447:300,1,110
448,288,101599,6,0,L|384:294,1,55
405,173,101923,2,0,L|469:179,1,55
309,230,102247,2,0,L|194:222,1,110
141,94,102734,5,0,0:0:0:0:
63,162,102896,2,0,L|67:283,1,110
304,338,103545,2,0,L|307:228,1,110
307,229,104193,6,0,L|306:298,1,55
215,173,104518,2,0,L|216:242,1,55
378,141,104842,2,0,L|383:209,1,55
150,91,105166,2,0,L|139:159,1,55
314,34,105491,6,0,P|268:25|202:34,1,110
255,172,105977,1,0,0:0:0:0:
255,172,106139,2,0,L|256:113,1,55
142,200,106464,2,0,L|141:141,1,55
362,166,106788,6,0,P|308:179|240:166,1,110
437,71,107274,1,0,0:0:0:0:
437,71,107437,2,0,L|443:143,1,55
362,166,107761,2,0,L|356:238,1,55
339,353,108085,6,0,B|318:270|275:254|275:254|208:247|151:304|151:304|117:240|47:240|8:289,1,412.5
75,330,109382,1,0,3:0:0:0:
75,330,110031,5,0,1:0:0:0:
75,330,110518,1,0,3:0:0:0:
139,225,110680,2,0,L|131:99,1,110,0|0,3:0|3:0,3:0:0:0:
240,81,111328,6,0,L|292:79,2,36.6666666666667,0|0|0,1:0|0:0|0:0,0:0:0:0:
161,28,111653,2,0,L|109:26,2,36.6666666666667
240,81,111977,6,0,B|323:79|323:79|359:94|359:94|385:87|409:93,1,165,0|0,3:0|3:0,0:0:0:0:
289,271,112626,2,0,B|280:226|280:226|287:145,1,110,0|0,1:0|0:0,0:0:0:0:
453,240,113112,1,0,0:0:0:0:
453,240,113193,1,0,3:0:0:0:
453,240,113274,6,0,P|417:239|393:233,1,55,0|0,3:0|0:0,0:0:0:0:
329,128,113518,6,0,P|353:154|366:175,1,55,0|0,3:0|0:0,0:0:0:0:
350,291,113761,5,0,3:0:0:0:
288,194,113923,1,0,1:0:0:0:
269,187,114247,5,0,3:0:0:0:
343,307,114409,1,0,3:0:0:0:
181,253,114572,6,0,L|255:256,1,55,0|0,3:0|0:0,0:0:0:0:
220,354,114896,2,0,L|274:351,1,55
196,149,115220,2,0,L|73:154,1,110,0|0,1:0|0:0,0:0:0:0:
181,253,115707,5,0,3:0:0:0:
147,68,115869,2,0,L|270:73,1,110,0|0,3:0|3:0,0:0:0:0:
256,72,116355,1,0,0:0:0:0:
86,153,116518,6,0,B|80:180|80:180|87:209|87:209|76:250,1,82.5,0|0,1:0|0:0,0:0:0:0:
135,227,116842,6,0,L|80:233,1,55
258,341,117166,2,0,L|204:336,1,55,0|0,3:0|0:0,0:0:0:0:
350,229,117491,1,0,0:0:0:0:
239,247,117653,5,0,3:0:0:0:
425,285,117815,2,0,P|442:230|418:165,1,110,0|0,1:0|0:0,0:0:0:0:
254,96,118301,5,0,3:0:0:0:
254,96,118382,1,0,3:0:0:0:
254,96,118464,1,0,3:0:0:0:
429,181,118707,1,0,3:0:0:0:
187,270,118950,1,0,3:0:0:0:
245,71,119112,5,0,1:0:0:0:
237,48,119437,5,0,3:0:0:0:
314,238,119599,1,0,3:0:0:0:
256,192,119761,12,0,124950,3:0:0:0:
225,61,125274,6,0,B|309:57|309:57|371:78|371:78|430:65|430:65|472:67|516:83|562:163|465:259|391:205|373:166,1,494.999984893799
225,61,127869,6,0,L|232:140,2,65.9999979858399
141,103,128680,1,0,0:0:0:0:
141,103,128842,2,0,B|153:261|153:261|138:307|138:307|141:353|141:353|176:389,1,296.99999093628
252,315,130464,6,0,L|329:310,1,65.9999979858399
231,218,131112,1,0,0:0:0:0:
259,337,131437,6,0,L|336:332,1,65.9999979858399
288,181,132085,2,0,L|222:185,1,65.9999979858399
399,255,132734,6,0,L|404:155,1,98.9999969787599
288,181,133382,6,0,L|283:81,1,98.9999969787599
468,93,134031,5,2,1:0:0:0:
181,183,134193,1,0,3:0:0:0:
178,146,134274,1,0,3:0:0:0:
175,109,134355,1,0,3:0:0:0:
172,72,134437,1,0,3:0:0:0:
169,35,134518,5,2,1:0:0:0:
404,156,134680,1,0,3:0:0:0:
401,193,134761,1,0,3:0:0:0:
398,230,134843,1,0,3:0:0:0:
395,267,134924,1,0,3:0:0:0:
392,304,135005,5,0,0:0:0:0:
375,296,135085,1,0,0:0:0:0:
358,288,135166,1,0,0:0:0:0:
341,280,135247,1,0,0:0:0:0:
324,272,135328,6,0,B|273:234|183:302|115:242,1,197.99999395752,0|0,3:0|0:0,0:0:0:0:
180,187,135653,1,0,1:0:0:0:
273,345,135815,1,0,0:0:0:0:
253,343,135896,1,0,3:0:0:0:
233,341,135977,6,0,L|243:270,1,65.9999979858399,0|0,3:0|0:0,0:0:0:0:
351,141,136139,2,0,L|360:206,1,65.9999979858399,0|0,3:0|0:0,0:0:0:0:
180,187,136301,1,0,1:0:0:0:
162,178,136382,2,0,B|159:133|159:133|173:95|173:95|170:39,1,131.99999597168,2|2,0:0|0:0,0:0:0:0:
91,66,136626,5,0,3:0:0:0:
277,133,136788,1,0,3:0:0:0:
20,209,136950,1,0,1:0:0:0:
255,309,137112,1,0,3:0:0:0:
255,309,137193,1,0,3:0:0:0:
255,309,137274,1,0,3:0:0:0:
180,122,137437,1,0,3:0:0:0:
95,322,137599,6,0,B|141:328|141:328|182:309|182:309|221:315|221:315|280:304,1,165.000006294251,2|0,1:0|0:0,0:0:0:0:
155,141,137923,6,0,P|75:119|130:230,1,264,2|0,1:0|0:0,0:0:0:0:
217,229,138247,5,0,1:0:0:0:
137,40,138409,1,0,3:0:0:0:
137,40,138491,1,0,3:0:0:0:
137,40,138572,1,0,3:0:0:0:
110,235,138734,1,0,3:0:0:0:
241,93,138896,2,0,L|379:105,1,121.000003692627,0|0,1:0|3:0,0:0:0:0:
327,190,139139,1,0,3:0:0:0:
308,189,139220,1,0,3:0:0:0:
370,345,139382,6,0,L|398:274,1,60.5000018463135,2|0,0:0|0:0,0:0:0:0:
435,183,139545,1,0,1:0:0:0:
243,351,139707,6,0,L|271:280,1,60.5000018463135,2|0,0:0|3:0,0:0:0:0:
308,189,139870,1,0,3:0:0:0:
116,357,140031,6,0,L|144:286,1,60.5000018463135,2|0,0:0|1:0,0:0:0:0:
207,150,140193,6,0,B|173:104|173:104|115:105|115:105|68:153|68:153|124:243,1,247.500009441376,2|0,1:0|0:0,0:0:0:0:
211,139,140518,6,0,P|95:111|101:228,1,263.99999194336,4|0,3:0|1:0,0:0:0:0:
388,100,141004,5,0,3:0:0:0:
383,80,141085,1,0,3:0:0:0:
378,60,141166,2,0,B|289:49|289:49|329:93,1,121.000003692627,0|0,3:0|0:0,0:0:0:0:
411,226,141491,2,0,B|500:237|500:237|460:193,1,121.000003692627,0|0,3:0|0:0,0:0:0:0:
231,158,141815,6,0,B|237:194|222:222|222:222|237:258|237:258|236:302|236:302|244:334|231:369,1,214.49999018097,2|0,1:0|0:0,0:0:0:0:
161,331,142139,1,0,1:0:0:0:
411,226,142301,1,0,3:0:0:0:
411,226,142382,1,0,3:0:0:0:
411,226,142464,6,0,L|415:145,1,60.5000018463135,2|0,0:0|0:0,0:0:0:0:
231,158,142626,2,0,L|227:77,1,60.5000018463135,2|0,0:0|0:0,0:0:0:0:
466,100,142788,6,0,B|421:131|421:131|292:116,1,165.000006294251,2|0,1:0|0:0,0:0:0:0:
358,365,143112,6,0,B|360:303|417:282|417:282|430:242|430:242|464:202|377:117,1,264,2|0,1:0|0:0,0:0:0:0:
346,214,143437,6,0,L|269:218,1,60.5000018463135,0|0,1:0|0:0,0:0:0:0:
251,116,143599,2,0,L|328:120,1,60.5000018463135,0|0,3:0|0:0,0:0:0:0:
207,248,143761,6,0,L|164:251,3,30.2500009231568,0|0|0|0,1:0|1:0|1:0|1:0,1:0:0:0:
114,205,143923,2,0,L|41:209,1,60.5000018463135,0|0,3:0|0:0,0:0:0:0:
172,89,144085,6,0,L|168:157,1,60.5000018463135,0|0,1:0|0:0,0:0:0:0:
58,346,144247,2,0,L|55:286,1,60.5000018463135,0|0,3:0|0:0,0:0:0:0:
280,303,144409,1,0,3:0:0:0:
176,250,144572,6,0,L|172:318,1,60.5000018463135,2|0,0:0|0:0,0:0:0:0:
312,230,144734,1,0,1:0:0:0:
117,144,144896,6,0,L|113:212,1,60.5000018463135,2|0,0:0|0:0,0:0:0:0:
344,157,145058,1,0,3:0:0:0:
58,38,145220,6,0,L|54:106,1,60.5000018463135,0|0,1:0|3:0,0:0:0:0:
376,84,145382,6,0,B|316:59|316:59|276:77|276:77|181:68,1,165.000006294251,2|0,1:0|3:0,0:0:0:0:
201,174,145626,1,0,3:0:0:0:
240,185,145707,6,0,P|258:138|203:64,1,131.99999597168,4|0,3:0|0:0,0:0:0:0:
133,37,145950,5,0,0:0:0:0:
115,72,146031,1,0,1:0:0:0:
109,111,146112,1,0,0:0:0:0:
110,150,146193,1,0,0:0:0:0:
122,187,146274,1,0,3:0:0:0:
146,217,146355,2,0,P|159:247|162:288,1,65.9999979858399
41,372,146518,2,0,P|44:339|57:309,1,65.9999979858399,0|0,3:0|0:0,0:0:0:0:
322,293,146680,5,0,1:0:0:0:
330,318,146761,2,0,P|283:321|253:312,1,65.9999979858399
195,128,146923,5,0,3:0:0:0:
220,121,147004,2,0,B|244:112|268:116|268:116|309:131|309:131|372:128,1,131.99999597168,0|0,3:0|0:0,0:0:0:0:
426,119,147247,5,0,0:0:0:0:
439,156,147328,1,0,1:0:0:0:
443,195,147409,1,0,0:0:0:0:
436,234,147491,1,0,3:0:0:0:
417,268,147572,1,0,3:0:0:0:
414,307,147653,1,0,0:0:0:0:
435,340,147734,1,0,0:0:0:0:
472,352,147815,5,0,3:0:0:0:
468,305,147896,1,0,0:0:0:0:
439,268,147977,6,0,B|401:267|371:255|371:255|319:286|250:242,1,165.000006294251,2|0,1:0|3:0,0:0:0:0:
342,3,148301,6,0,B|422:28|422:28|412:81|412:81|453:129|453:129|393:232,1,264,2|0,1:0|0:0,0:0:0:0:
319,187,148626,6,0,L|251:171,1,65.9999979858399,0|0,1:0|0:0,0:0:0:0:
212,26,148788,2,0,L|276:41,1,65.9999979858399,0|0,3:0|3:0,0:0:0:0:
74,176,148950,5,0,0:0:0:0:
75,149,149031,1,0,0:0:0:0:
82,123,149112,1,0,3:0:0:0:
93,99,149193,1,0,0:0:0:0:
111,80,149274,5,0,1:0:0:0:
130,114,149355,1,0,0:0:0:0:
141,152,149437,1,0,0:0:0:0:
138,191,149518,1,0,3:0:0:0:
125,228,149599,2,0,L|55:222,1,65.9999979858399,0|0,3:0|0:0,0:0:0:0:
217,337,149761,2,0,L|151:342,1,65.9999979858399,0|0,3:0|0:0,0:0:0:0:
282,129,149923,6,0,L|116:111,1,153.999995300293,0|0,1:0|3:0,0:0:0:0:
257,49,150166,5,0,3:0:0:0:
293,64,150247,2,0,L|280:142,1,65.9999979858399,0|0,3:0|0:0,0:0:0:0:
119,177,150409,2,0,L|129:111,1,65.9999979858399,0|0,3:0|0:0,0:0:0:0:
350,202,150572,6,0,B|313:196|313:196|265:209|265:209|219:172|219:172|100:176,1,247.500009441376,2|0,1:0|0:0,0:0:0:0:
55,235,150896,6,0,P|134:265|99:173,1,214.49999018097,0|0,3:0|0:0,0:0:0:0:
58,71,151220,6,0,P|113:119|113:186,1,131.99999597168,0|0,1:0|0:0,0:0:0:0:
55,235,151464,5,0,3:0:0:0:
53,274,151545,1,0,3:0:0:0:
69,309,151626,1,0,0:0:0:0:
99,334,151707,1,0,3:0:0:0:
137,341,151788,1,0,0:0:0:0:
174,328,151869,1,0,1:0:0:0:
200,299,151950,1,0,0:0:0:0:
233,278,152031,1,0,3:0:0:0:
272,284,152112,1,0,0:0:0:0:
305,304,152193,6,0,B|355:319|387:297|387:297|431:314|487:309,1,131.99999597168,0|0,3:0|0:0,0:0:0:0:
337,212,152437,1,0,0:0:0:0:
339,231,152518,1,0,1:0:0:0:
455,90,152680,1,0,0:0:0:0:
453,109,152761,1,0,0:0:0:0:
451,128,152842,6,0,L|366:132,1,65.9999979858399,2|0,0:0|0:0,0:0:0:0:
328,14,153004,2,0,L|393:17,1,65.9999979858399,2|0,0:0|3:0,0:0:0:0:
189,190,153166,6,0,B|176:138|176:138|183:84|183:84|171:15,1,165.000006294251,2|0,1:0|3:0,0:0:0:0:
126,299,153491,6,0,B|87:152|87:152|94:102|94:102|82:34,1,264,2|0,1:0|0:0,0:0:0:0:
173,27,153815,6,0,P|211:27|236:38,1,65.9999979858399,0|0,1:0|0:0,0:0:0:0:
189,190,153977,2,0,P|151:190|126:179,1,65.9999979858399,2|0,0:0|0:0,0:0:0:0:
343,102,154139,6,0,L|337:138,4,32.99999899292,0|0|0|0|0,1:0|1:0|1:0|1:0|1:0,1:0:0:0:
271,175,154382,1,0,0:0:0:0:
274,195,154464,2,0,L|283:269,1,65.9999979858399,0|0,1:0|0:0,0:0:0:0:
422,257,154626,2,0,L|413:331,1,65.9999979858399,0|0,3:0|0:0,0:0:0:0:
181,276,154788,1,0,3:0:0:0:
296,74,154950,5,0,0:0:0:0:
254,93,155032,1,0,0:0:0:0:
243,139,155113,1,0,1:0:0:0:
271,175,155194,1,0,0:0:0:0:
317,176,155275,1,0,3:0:0:0:
347,141,155356,1,0,0:0:0:0:
338,95,155437,5,2,1:0:0:0:
50,180,155680,1,2,1:0:0:0:
470,314,155923,1,2,1:0:0:0:
101,321,156085,5,0,3:0:0:0:
256,192,156166,12,0,161274,0:0:0:0:
