osu file format v14

[General]
AudioFilename: audio.mp3
AudioLeadIn: 0
PreviewTime: 51015
Countdown: 0
SampleSet: Soft
StackLeniency: 0.7
Mode: 0
LetterboxInBreaks: 0
WidescreenStoryboard: 1

[Editor]
DistanceSpacing: 1
BeatDivisor: 4
GridSize: 8
TimelineZoom: 2.2

[Metadata]
Title:last cross (TV Size)
TitleUnicode:last cross (TV Size)
Artist:Mitsuoka Masami
ArtistUnicode:光岡昌美
Creator:Pepekcz
Version:Yahuri's Easy
Source:家庭教師ヒットマンREBORN!
Tags:katekyo hitman op opening 5 la vongola famiglia decimo 沢田綱吉 Sawada Tsunayoshi j-rock jrock rock japanese anime vocal female Yahuri
BeatmapID:3722374
BeatmapSetID:1811211

[Difficulty]
HPDrainRate:2
CircleSize:2.5
OverallDifficulty:3
ApproachRate:4
SliderMultiplier:1
SliderTickRate:1

[Events]
//Background and Video events
0,0,"BG.jpg",0,0
Video,75,"video.mp4"
//Break Periods
//Storyboard Layer 0 (Background)
//Storyboard Layer 1 (Fail)
//Storyboard Layer 2 (Pass)
//Storyboard Layer 3 (Foreground)
//Storyboard Layer 4 (Overlay)
//Storyboard Sound Samples

[TimingPoints]
570,410.958904109589,4,2,1,50,1,0
570,-111.111111111111,4,2,1,50,0,0
7145,-111.111111111111,4,2,1,40,0,0
8789,-111.111111111111,4,2,1,50,0,0
21939,-111.111111111111,4,2,1,60,0,0
35090,-111.111111111111,4,2,1,70,0,0
41665,-111.111111111111,4,2,1,70,0,0
44748,-111.111111111111,4,2,1,70,0,0
46597,-111.111111111111,4,2,1,60,0,0
50706,-111.111111111111,4,2,1,40,0,0
51528,-100,4,2,1,80,0,1
82556,-100,4,2,1,60,0,0
84816,-111.111111111111,4,2,1,40,0,0
86049,-111.111111111111,4,2,1,30,0,0
86871,-111.111111111111,4,2,1,20,0,0
87282,-111.111111111111,4,2,1,10,0,0
87693,-500,4,2,1,5,0,0

[Colours]
Combo1 : 158,78,94
Combo2 : 175,115,79
Combo3 : 252,253,175
Combo4 : 252,177,58
Combo5 : 206,87,53
Combo6 : 182,231,231

[HitObjects]
81,113,570,6,0,P|167:113|218:183,1,179.999994506836,6|0,1:2|1:0,0:0:0:0:
192,269,1802,1,0,1:0:0:0:
249,338,2213,2,0,B|294:303|294:303|417:294,1,179.999994506836,6|0,1:2|1:0,0:0:0:0:
486,236,3446,1,0,1:0:0:0:
447,154,3857,6,0,L|358:161,1,89.9999972534181,6|0,1:2|1:0,0:0:0:0:
272,132,4679,2,0,L|234:212,1,89.9999972534181,0|0,1:0|1:0,0:0:0:0:
194,294,5501,2,0,P|149:217|57:213,1,179.999994506836,6|0,1:2|1:0,0:0:0:0:
0,273,6734,1,0,1:0:0:0:
442,78,8789,6,0,L|352:85,1,89.9999972534181,6|8,1:2|0:0,0:0:0:0:
277,136,9611,1,2,0:0:0:0:
290,225,10022,1,8,0:0:0:0:
234,296,10433,2,0,L|144:303,1,89.9999972534181,2|8,1:2|0:0,0:0:0:0:
59,275,11254,2,0,P|44:232|54:184,1,89.9999972534181,2|8,0:0|0:0,0:0:0:0:
110,120,12076,6,0,P|173:141|239:131,2,134.999995880127,2|2|8,1:2|1:2|0:0,0:0:0:0:
26,155,13720,2,0,L|33:244,1,89.9999972534181,2|8,1:2|0:0,0:0:0:0:
12,332,14542,2,0,L|93:370,1,89.9999972534181,2|8,0:0|0:0,0:0:0:0:
178,340,15364,5,2,1:2:0:0:
266,356,15775,1,8,0:0:0:0:
349,321,16186,2,0,P|363:278|353:230,1,89.9999972534181,2|8,0:0|0:0,0:0:0:0:
294,168,17008,1,2,1:2:0:0:
310,80,17419,1,8,0:0:0:0:
252,10,17830,2,0,L|162:17,1,89.9999972534181,2|8,0:0|0:0,0:0:0:0:
108,89,18652,6,0,P|44:104|-2:160,2,134.999995880127,2|2|10,1:2|1:2|0:2,0:0:0:0:
185,134,20296,1,2,1:2:0:0:
169,222,20707,1,8,0:0:0:0:
211,300,21117,2,0,L|301:293,1,89.9999972534181,2|8,0:0|0:0,0:0:0:0:
387,319,21939,6,0,P|473:298|508:202,1,179.999994506836,6|2,1:2|0:0,0:0:0:0:
480,135,23172,1,8,0:0:0:0:
495,46,23583,2,0,B|404:74|410:4|322:30,1,179.999994506836,2|2,1:2|2:0,2:0:0:0:
246,81,24816,1,8,0:0:0:0:
212,164,25227,6,0,L|219:254,1,89.9999972534181,2|8,1:2|0:0,0:0:0:0:
129,263,26049,2,0,L|122:173,1,89.9999972534181,2|8,0:0|0:0,0:0:0:0:
158,90,26871,2,0,P|222:75|268:19,2,134.999995880127,2|2|8,1:2|1:2|0:0,0:0:0:0:
79,134,28515,6,0,P|15:195|32:295,1,179.999994506836,2|2,1:2|0:0,0:0:0:0:
92,336,29748,1,8,0:0:0:0:
175,301,30159,2,0,P|218:293|261:307,1,89.9999972534181,2|8,1:2|0:0,0:0:0:0:
334,359,30980,2,0,P|377:366|420:352,1,89.9999972534181,2|8,0:0|0:0,0:0:0:0:
479,284,31802,6,0,B|459:244|459:244|467:153,1,134.999995880127,6|6,1:2|1:2,0:0:0:0:
431,70,32830,1,0,1:0:0:0:
357,17,33241,2,0,P|273:48|186:32,1,179.999994506836,6|4,1:2|1:2,0:0:0:0:
53,8,34679,1,8,0:0:0:0:
89,90,35090,6,0,L|96:180,1,89.9999972534181,6|8,1:2|0:0,0:0:0:0:
66,264,35912,2,0,L|147:302,1,89.9999972534181,2|8,0:0|0:0,0:0:0:0:
205,370,36734,2,0,L|279:318,1,89.9999972534181,2|8,1:2|0:0,0:0:0:0:
327,244,37556,1,0,1:0:0:0:
327,244,37761,1,6,1:2:0:0:
382,120,38378,6,0,P|340:105|296:111,1,89.9999972534181,2|8,1:2|0:0,0:0:0:0:
211,79,39200,2,0,P|177:107|161:149,1,89.9999972534181,2|8,0:0|0:0,0:0:0:0:
89,206,40022,2,0,P|97:248|124:284,1,89.9999972534181,2|8,1:2|0:0,0:0:0:0:
211,326,40844,1,0,1:0:0:0:
211,326,41049,1,6,1:2:0:0:
279,209,41665,6,0,P|342:188|408:198,2,134.999995880127,6|2|8,1:2|1:2|0:0,0:0:0:0:
218,275,43309,1,0,1:0:0:0:
150,215,43720,2,0,L|143:125,2,89.9999972534181,8|0|8,0:0|0:0|0:0,0:0:0:0:
129,255,44748,6,0,B|306:223|243:355|421:324,1,314.999990386963,6|8,1:2|0:0,0:0:0:0:
505,284,46597,1,6,1:2:0:0:
505,284,46802,1,0,1:0:0:0:
357,12,48241,5,6,1:2:0:0:
357,12,48447,1,0,1:0:0:0:
225,134,49268,6,0,B|198:170|198:170|215:259,1,134.999995880127,14|0,1:2|0:0,0:0:0:0:
354,372,50706,5,0,1:0:0:0:
337,274,51117,1,2,0:0:0:0:
245,235,51528,6,0,B|194:226|194:226|147:241|147:241|98:232,2,150,6|2|8,1:2|1:2|0:0,0:0:0:0:
344,226,53172,2,0,P|362:179|359:130,1,100,0|8,1:0|0:0,0:0:0:0:
320,37,53994,1,0,0:0:0:0:
220,20,54405,1,10,0:0:0:0:
147,88,54816,6,0,P|73:94|5:63,2,150,6|2|8,1:2|1:2|0:0,0:0:0:0:
220,20,56460,1,0,1:0:0:0:
313,55,56871,2,0,L|417:36,2,100,8|0|10,0:2|0:0|0:0,0:0:0:0:
299,154,58104,6,0,B|398:136|398:136|439:165,2,150,6|2|10,1:2|1:2|0:2,0:0:0:0:
220,216,59748,1,2,1:2:0:0:
203,316,60159,1,8,0:0:0:0:
118,368,60569,2,0,P|68:370|22:352,1,100,2|8,0:0|0:0,0:0:0:0:
1,253,61391,6,0,L|20:149,1,100,6|8,1:2|0:0,0:0:0:0:
118,138,62213,2,0,L|100:236,1,100,2|8,0:0|0:0,0:0:0:0:
130,276,62830,2,0,P|204:282|272:251,1,150,6|8,1:2|0:0,0:0:0:0:
314,160,63857,1,0,0:0:0:0:
414,143,64268,1,8,0:0:0:0:
484,214,64679,6,0,B|493:265|493:265|478:312|478:312|487:361,2,150,6|2|8,1:2|1:2|0:0,0:0:0:0:
414,143,66323,2,0,P|367:125|318:127,1,100,0|8,1:0|0:0,0:0:0:0:
235,184,67145,1,0,0:0:0:0:
252,284,67556,1,10,0:2:0:0:
190,363,67967,6,0,B|149:334|149:334|50:352,2,150,6|2|8,1:2|1:2|0:0,0:0:0:0:
278,315,69611,1,0,1:0:0:0:
372,347,70022,2,0,P|421:349|467:331,2,100,10|0|10,0:0|0:0|0:0,0:0:0:0:
278,315,71255,6,0,P|177:315|132:224,1,200,6|0,1:2|0:0,0:0:0:0:
152,139,72487,1,10,0:0:0:0:
98,55,72898,2,0,P|169:40|232:78,2,150,2|2|8,1:2|1:2|0:0,0:0:0:0:
23,121,74542,5,6,1:2:0:0:
0,270,75159,1,6,1:2:0:0:
98,254,75570,1,2,1:2:0:0:
172,320,75980,2,0,B|292:372|292:270|413:317,1,250,6|4,1:2|0:2,0:0:0:0:
507,352,77419,1,10,0:2:0:0:
489,254,77830,6,0,L|471:156,1,100,6|8,1:2|0:0,0:0:0:0:
383,107,78652,2,0,L|365:205,1,100,2|8,0:0|0:0,0:0:0:0:
289,271,79474,2,0,B|190:253|190:253|149:282,2,150,2|2|8,1:2|1:2|0:0,0:0:0:0:
326,304,80912,6,0,P|400:310|468:279,1,150,6|8,1:2|0:0,0:0:0:0:
511,189,81939,1,0,0:0:0:0:
456,112,82350,1,8,0:0:0:0:
456,112,82556,2,0,B|355:161|262:125|262:125|219:150|219:150|134:63|37:113,1,450,6|6,1:2|1:2,0:0:0:0:
256,192,84816,12,0,87693,0:0:0:0:
