osu file format v14

[General]
AudioFilename: audio.mp3
AudioLeadIn: 0
PreviewTime: 51015
Countdown: 0
SampleSet: Soft
StackLeniency: 0.7
Mode: 0
LetterboxInBreaks: 0
WidescreenStoryboard: 0

[Editor]
DistanceSpacing: 0.4
BeatDivisor: 4
GridSize: 32
TimelineZoom: 2.2

[Metadata]
Title:last cross (TV Size)
TitleUnicode:last cross (TV Size)
Artist:Mitsuoka Masami
ArtistUnicode:光岡昌美
Creator:Pepekcz
Version:Vongola Family
Source:家庭教師ヒットマンREBORN!
Tags:katekyo hitman op opening 5 la vongola famiglia decimo 沢田綱吉 Sawada Tsunayoshi j-rock jrock rock japanese anime vocal female Yahuri
BeatmapID:3715021
BeatmapSetID:1811211

[Difficulty]
HPDrainRate:5
CircleSize:4.2
OverallDifficulty:7.8
ApproachRate:8.7
SliderMultiplier:1.98
SliderTickRate:1

[Events]
//Background and Video events
0,0,"BG.jpg",0,0
Video,75,"video.mp4"
//Break Periods
//Storyboard Layer 0 (Background)
//Storyboard Layer 1 (Fail)
//Storyboard Layer 2 (Pass)
//Storyboard Layer 3 (Foreground)
//Storyboard Layer 4 (Overlay)
//Storyboard Sound Samples

[TimingPoints]
570,410.958904109589,4,2,1,50,1,0
570,-111.111111111111,4,2,1,50,0,0
7145,-200,4,2,1,40,0,0
8789,-125,4,2,1,50,0,0
21939,-111.111111111111,4,2,1,60,0,0
35090,-100,4,2,1,70,0,0
41665,-125,4,2,1,70,0,0
44748,-111.111111111111,4,2,1,70,0,0
46597,-200,4,2,1,60,0,0
50706,-250,4,2,1,40,0,0
51528,-90.9090909090909,4,2,1,80,0,1
82556,-200,4,2,1,60,0,0
84405,-500,4,2,1,50,0,0
86049,-500,4,2,1,40,0,0
86460,-500,4,2,1,30,0,0
86871,-500,4,2,1,20,0,0
87282,-500,4,2,1,10,0,0
87693,-500,4,2,1,5,0,0

[Colours]
Combo1 : 158,78,94
Combo2 : 175,115,79
Combo3 : 252,253,175
Combo4 : 252,177,58
Combo5 : 206,87,53
Combo6 : 182,231,231

[HitObjects]
6,12,570,6,0,P|82:39|181:79,1,178.199994561768,6|2,1:2|1:2,0:0:0:0:
262,29,1186,1,2,0:0:0:0:
180,83,1391,2,0,P|193:127|209:185,1,89.0999972808839,2|2,1:2|0:0,0:0:0:0:
269,298,1802,1,2,1:2:0:0:
207,257,2008,1,2,0:0:0:0:
417,243,2213,5,6,1:2:0:0:
332,366,2419,1,2,0:0:0:0:
279,221,2624,1,2,1:2:0:0:
342,282,2830,1,2,0:0:0:0:
491,212,3035,6,0,P|467:178|411:169,1,89.0999972808839,2|2,1:2|0:0,0:0:0:0:
424,61,3446,2,0,P|382:64|346:108,1,89.0999972808839,2|2,1:2|0:0,0:0:0:0:
279,221,3857,6,0,B|229:245|189:215|205:197|164:164|109:188,1,178.199994561768,6|2,1:2|1:2,0:0:0:0:
68,240,4474,1,2,0:0:0:0:
45,103,4679,5,2,1:2:0:0:
115,70,4885,1,2,0:0:0:0:
190,104,5090,1,2,1:2:0:0:
116,185,5296,1,2,0:0:0:0:
278,277,5501,5,6,1:2:0:0:
200,188,5706,1,2,0:0:0:0:
198,267,5912,1,2,1:2:0:0:
296,180,6117,1,2,0:0:0:0:
358,299,6323,6,0,B|397:280|414:245|414:245|419:243|419:243|403:273|414:300,1,133.649995921326,2|0,1:2|0:0,0:0:0:0:
481,280,6734,2,0,P|441:239|471:167,1,133.649995921326,0|0,1:2|0:0,0:0:0:0:
510,121,7145,6,0,B|449:162|385:147|355:86|361:84|365:81|339:16|284:-17|201:20,1,346.5,2|2,0:0|0:0,0:0:0:0:
135,132,8789,6,0,P|76:122|59:58,1,118.8,6|0,1:2|0:0,0:0:0:0:
59,60,9200,2,0,P|40:140|19:240,1,158.4,8|2,1:2|0:2,0:0:0:0:
60,317,9816,1,2,1:2:0:0:
175,237,10022,2,0,B|144:211|144:211|102:215,1,79.2,10|2,1:2|0:0,0:0:0:0:
172,380,10433,5,2,1:2:0:0:
137,314,10639,1,2,0:0:0:0:
273,264,10843,5,10,1:2:0:0:
238,330,11049,1,2,1:2:0:0:
374,287,11254,5,2,0:2:0:0:
336,214,11460,1,2,1:2:0:0:
492,290,11665,5,8,1:2:0:0:
445,363,11871,1,2,0:0:0:0:
445,363,11974,1,0,1:0:0:0:
445,363,12076,2,0,B|411:347|395:316|395:316|392:315|392:315|406:340|396:364,1,118.8,2|0,1:2|0:0,0:0:0:0:
326,348,12487,5,10,1:2:0:0:
434,244,12693,2,0,P|456:170|485:82,1,158.4,2|2,1:2|1:2,0:0:0:0:
354,21,13309,5,8,1:2:0:0:
291,68,13515,1,2,1:2:0:0:
291,68,13617,1,0,1:2:0:0:
291,68,13720,2,0,P|302:104|316:153,1,79.2,0|2,1:2|1:2,0:0:0:0:
371,213,14131,2,0,P|322:224|314:287,1,118.8,10|0,1:2|0:0,0:0:0:0:
320,293,14542,2,0,P|282:307|234:329,1,79.2,2|0,0:2|0:0,0:0:0:0:
121,378,14953,5,8,1:2:0:0:
103,361,15056,1,8,1:2:0:0:
96,338,15159,1,10,0:2:0:0:
103,315,15261,1,8,1:2:0:0:
116,294,15364,6,0,P|139:248|131:216,1,79.2,2|2,1:2|0:0,0:0:0:0:
51,118,15775,2,0,B|93:97|131:122|115:139|151:167|202:150,1,158.4,10|2,1:2|0:0,0:0:0:0:
334,79,16391,5,2,1:2:0:0:
334,79,16494,1,2,0:0:0:0:
334,79,16597,2,0,P|305:47|262:40,1,79.2,10|2,1:2|0:0,0:0:0:0:
200,157,17008,2,0,P|237:146|262:117,1,79.2,0|2,1:2|0:0,0:0:0:0:
137,56,17419,5,10,1:2:0:0:
95,119,17624,1,2,1:2:0:0:
0,9,17830,5,2,0:0:0:0:
61,50,18035,1,2,1:2:0:0:
8,157,18241,1,10,1:2:0:0:
90,240,18446,5,2,1:2:0:0:
90,240,18549,1,0,1:2:0:0:
90,240,18652,2,0,B|124:224|140:193|140:193|143:192|143:192|129:217|139:241,1,118.8,2|0,1:2|0:0,0:0:0:0:
208,228,19063,5,10,1:2:0:0:
117,310,19268,2,0,P|193:335|282:366,1,158.4,2|2,1:2|1:2,0:0:0:0:
423,277,19885,1,10,1:2:0:0:
376,367,20090,5,6,3:0:0:0:
376,367,20193,1,6,3:0:0:0:
376,367,20296,1,2,1:2:0:0:
321,291,20501,1,2,0:0:0:0:
435,271,20706,5,10,1:2:0:0:
469,202,20912,1,2,1:2:0:0:
366,107,21117,5,2,0:0:0:0:
370,98,21220,2,0,P|399:72|438:66,1,79.2,8|0,1:2|1:2,0:0:0:0:
448,72,21528,1,10,1:2:0:0:
355,209,21734,5,10,1:2:0:0:
355,209,21837,1,10,1:2:0:0:
355,209,21939,2,0,P|272:183|178:157,1,178.199994561768,6|8,1:2|1:2,0:0:0:0:
29,207,22556,5,2,1:2:0:0:
76,144,22761,2,0,P|104:175|105:225,1,89.0999972808839,2|0,0:0|1:2,0:0:0:0:
21,316,23172,5,8,1:2:0:0:
93,359,23378,1,2,1:2:0:0:
93,359,23480,1,2,1:2:0:0:
93,359,23583,2,0,B|143:383|183:353|167:335|208:302|263:326,1,178.199994561768,2|8,1:2|1:2,0:0:0:0:
326,362,24200,1,2,1:2:0:0:
420,262,24405,6,0,P|442:224|430:182,1,89.0999972808839,2|0,0:0|1:2,0:0:0:0:
309,169,24816,2,0,P|287:207|299:249,1,89.0999972808839,10|2,1:2|0:0,0:0:0:0:
376,102,25227,5,2,1:2:0:0:
279,54,25433,1,2,0:0:0:0:
219,150,25638,1,10,1:2:0:0:
303,147,25843,1,2,1:2:0:0:
173,61,26049,6,0,B|131:49|131:49|81:74,1,89.0999972808839,2|2,0:0|1:2,0:0:0:0:
35,199,26460,2,0,B|75:219|75:219|117:207,1,89.0999972808839,10|2,1:2|0:0,0:0:0:0:
219,150,26871,5,2,1:2:0:0:
298,231,27076,1,2,0:0:0:0:
191,300,27282,1,8,1:2:0:0:
209,227,27487,6,0,P|307:260|390:291,1,178.199994561768,2|0,1:2|0:0,0:0:0:0:
507,211,28104,1,8,1:2:0:0:
453,342,28309,5,10,1:2:0:0:
453,342,28412,1,0,1:2:0:0:
453,342,28515,2,0,B|401:335|377:300|377:300|372:341|326:377,1,178.199994561768,2|8,1:2|1:2,0:0:0:0:
207,294,29131,1,2,1:2:0:0:
207,294,29234,2,0,P|178:258|82:259,1,133.649995921326,2|0,0:0|1:2,0:0:0:0:
49,362,29748,2,0,P|92:357|126:318,1,89.0999972808839,8|2,1:2|0:0,0:0:0:0:
71,180,30159,5,2,1:2:0:0:
121,116,30364,1,2,0:0:0:0:
95,251,30569,6,0,P|139:236|204:217,1,89.0999972808839,10|2,1:2|1:2,0:0:0:0:
320,121,30980,2,0,P|277:106|235:93,1,89.0999972808839,2|2,1:2|1:2,0:0:0:0:
330,241,31391,1,10,1:2:0:0:
457,126,31597,5,2,1:2:0:0:
457,126,31700,1,0,1:2:0:0:
457,126,31802,2,0,B|433:176|463:216|481:200|514:241|490:296,1,178.199994561768,6|8,1:2|1:2,0:0:0:0:
355,374,32419,2,0,P|312:352|304:302,1,89.0999972808839,6|0,1:2|0:0,0:0:0:0:
354,252,32830,1,2,1:2:0:0:
292,154,33035,1,8,1:2:0:0:
392,25,33241,6,0,B|342:5|302:31|318:49|275:79|222:58,1,178.199994561768,6|2,1:2|0:0,0:0:0:0:
98,11,33857,1,8,1:2:0:0:
201,138,34063,2,0,P|234:110|232:60,1,89.0999972808839,6|2,1:2|0:0,0:0:0:0:
78,88,34474,1,2,1:2:0:0:
141,217,34679,1,8,1:2:0:0:
163,231,34782,1,8,1:2:0:0:
189,231,34885,1,10,1:2:0:0:
212,218,34987,1,6,0:3:0:0:
234,204,35090,6,0,P|282:214|330:227,1,99,6|2,1:2|0:0,0:0:0:0:
428,111,35501,2,0,P|380:98|331:87,1,99,10|2,1:2|1:2,0:0:0:0:
322,85,35809,1,2,0:0:0:0:
312,83,35912,1,0,0:0:0:0:
425,235,36117,5,2,1:2:0:0:
425,235,36220,1,2,0:0:0:0:
425,235,36323,1,10,1:2:0:0:
509,168,36528,1,2,0:0:0:0:
326,205,36734,6,0,P|345:256|362:306,1,99,2|2,1:2|0:0,0:0:0:0:
363,307,37042,1,2,1:2:0:0:
366,316,37145,1,10,1:2:0:0:
193,371,37350,5,2,0:0:0:0:
193,371,37453,1,2,0:0:0:0:
193,371,37556,1,2,1:2:0:0:
65,278,37761,2,0,B|115:305|168:271|145:250|193:215|252:241,1,198,6|0,1:2|1:2,0:0:0:0:
366,316,38378,6,0,P|401:277|403:230,1,99,2|2,1:2|1:2,0:0:0:0:
399,223,38686,1,0,1:2:0:0:
392,215,38789,1,10,1:2:0:0:
504,165,38994,1,2,0:0:0:0:
504,165,39097,1,2,0:0:0:0:
504,165,39200,2,0,P|487:115|448:89,1,99,2|0,0:0|1:2,0:0:0:0:
338,131,39611,1,10,1:2:0:0:
214,62,39816,5,2,0:0:0:0:
214,62,39919,1,2,0:0:0:0:
214,62,40022,1,2,1:2:0:0:
286,17,40227,1,2,1:2:0:0:
193,158,40433,1,10,1:2:0:0:
133,92,40638,5,2,0:0:0:0:
270,154,40843,1,2,1:2:0:0:
182,287,41049,2,0,P|154:195|125:96,1,198,6|2,1:2|0:0,0:0:0:0:
24,15,41665,6,0,B|0:18|-3:44|-3:44|19:20|63:17,1,118.8,6|0,1:2|0:0,0:0:0:0:
140,20,42076,1,10,1:2:0:0:
248,103,42282,6,0,P|302:95|326:37,1,118.8,2|0,0:0|0:0,0:0:0:0:
329,29,42693,2,0,P|342:66|356:117,1,79.2,2|8,1:2|1:2,0:0:0:0:
340,196,43104,1,2,0:0:0:0:
464,248,43309,5,2,0:0:0:0:
416,327,43515,1,8,0:3:0:0:
468,240,43720,2,0,B|426:219|388:244|404:261|368:289|317:272,1,158.4,8|0,1:2|0:0,0:0:0:0:
212,206,44337,1,10,1:3:0:0:
212,206,44439,1,10,1:3:0:0:
212,206,44542,1,8,1:2:0:0:
96,310,44748,6,0,P|43:270|60:155,1,178.199994561768,6|0,1:2|0:0,0:0:0:0:
124,98,45364,1,2,0:0:0:0:
44,83,45569,1,2,0:0:0:0:
136,184,45775,5,2,0:0:0:0:
152,191,45878,1,2,0:0:0:0:
169,193,45980,1,8,0:3:0:0:
190,189,46083,1,8,0:3:0:0:
204,179,46186,5,8,1:2:0:0:
223,149,46289,1,8,1:2:0:0:
254,132,46391,1,8,1:2:0:0:
289,137,46494,1,8,1:2:0:0:
316,159,46597,5,6,1:2:0:0:
391,44,46802,1,10,0:3:0:0:
391,44,48035,5,10,0:3:0:0:
243,161,48241,1,6,1:2:0:0:
354,265,48446,1,10,0:3:0:0:
354,265,49063,5,2,0:0:0:0:
150,202,49268,2,0,P|174:272|194:343,1,148.5,14|0,1:2|0:0,0:0:0:0:
194,343,50706,6,0,P|208:309|284:299,1,118.8,2|0,0:0|0:0,0:0:0:0:
489,339,51528,6,0,B|442:317|421:275|421:275|416:273|416:273|435:308|422:341,1,163.350004985047,6|0,1:2|0:0,0:0:0:0:
355,315,51939,1,10,1:2:0:0:
484,200,52145,1,2,1:2:0:0:
484,200,52248,1,8,0:3:0:0:
484,200,52350,2,0,P|431:178|369:156,1,108.900003323364,8|2,0:3|1:2,0:0:0:0:
226,217,52761,5,8,1:2:0:0:
144,141,52967,1,2,0:0:0:0:
285,37,53172,5,0,1:2:0:0:
205,91,53378,1,0,0:0:0:0:
92,18,53583,1,8,1:2:0:0:
9,82,53789,1,0,1:2:0:0:
9,82,53891,1,0,1:2:0:0:
9,82,53994,1,0,1:2:0:0:
168,17,54200,1,0,1:2:0:0:
79,136,54405,6,0,P|67:163|71:198,1,54.4500016616822,10|0,1:2|0:0,0:0:0:0:
157,208,54611,2,0,P|169:181|165:146,1,54.4500016616822,2|0,0:0|0:0,0:0:0:0:
98,268,54816,6,0,B|145:277|179:254|169:242|210:209|254:230,1,163.350004985047,6|0,1:2|0:0,0:0:0:0:
303,282,55227,1,10,1:2:0:0:
453,208,55433,1,2,1:2:0:0:
453,208,55535,1,8,0:3:0:0:
453,208,55638,1,8,0:3:0:0:
360,159,55843,1,2,1:2:0:0:
478,297,56049,1,8,1:2:0:0:
512,119,56254,6,0,P|477:80|418:79,1,108.900003323364,2|0,0:0|1:2,0:0:0:0:
351,166,56665,1,2,0:0:0:0:
194,94,56871,1,10,1:2:0:0:
323,21,57076,1,0,1:2:0:0:
323,21,57179,1,0,1:2:0:0:
323,21,57282,1,0,1:2:0:0:
253,159,57487,1,0,0:0:0:0:
141,22,57693,6,0,L|106:13,3,27.2250008308411,10|0|0|0,1:2|0:0|0:0|0:0,0:0:0:0:
82,76,57898,6,0,L|55:69,3,27.2250008308411,2|0|0|0,0:0|0:0|0:0|0:0,0:0:0:0:
46,63,58104,6,0,P|69:139|114:285,1,217.800006646729,6|10,1:2|1:2,0:0:0:0:
75,380,58720,1,2,1:2:0:0:
75,380,58823,1,8,0:3:0:0:
75,380,58926,1,8,0:3:0:0:
183,298,59131,1,0,0:0:0:0:
36,194,59337,5,10,1:2:0:0:
109,271,59542,1,2,0:0:0:0:
109,271,59645,1,2,0:0:0:0:
109,271,59748,2,0,P|126:242|130:219,1,54.4500016616822,2|0,1:2|0:0,0:0:0:0:
208,197,59953,2,0,P|191:167|173:151,1,54.4500016616822,2|0,0:0|0:0,0:0:0:0:
29,71,60159,5,10,1:2:0:0:
93,150,60364,1,2,0:0:0:0:
209,3,60569,5,2,1:2:0:0:
104,77,60774,1,2,0:0:0:0:
246,138,60980,5,8,1:2:0:0:
125,0,61186,1,2,0:0:0:0:
252,147,61391,6,0,B|302:178|359:141|337:107|400:71|456:107,1,217.800006646729,6|8,1:2|1:2,0:0:0:0:
442,270,62008,1,2,1:2:0:0:
442,270,62111,1,8,0:3:0:0:
442,270,62213,2,0,P|387:243|378:191,1,108.900003323364,10|0,0:3|0:0,0:0:0:0:
502,341,62624,5,10,1:2:0:0:
432,381,62830,2,0,P|326:354|217:328,1,217.800006646729,6|0,1:2|1:2,0:0:0:0:
73,222,63446,1,8,1:2:0:0:
119,366,63652,1,0,1:2:0:0:
119,366,63754,1,0,1:2:0:0:
119,366,63857,2,0,P|150:312|131:260,1,108.900003323364,0|0,1:2|1:2,0:0:0:0:
60,141,64268,6,0,P|53:126|51:114,3,27.2250008308411,8|0|0|0,1:2|0:0|0:0|0:0,0:0:0:0:
5,62,64474,6,0,P|14:48|23:40,3,27.2250008308411
32,37,64679,6,0,P|108:57|191:82,1,163.350004985047,6|0,1:2|0:0,0:0:0:0:
255,48,65090,1,10,1:2:0:0:
353,131,65296,1,2,1:2:0:0:
353,131,65398,1,8,0:3:0:0:
353,131,65501,1,8,0:3:0:0:
405,24,65706,1,2,1:2:0:0:
269,155,65912,1,8,1:2:0:0:
399,259,66117,5,2,0:0:0:0:
335,302,66323,2,0,B|287:297|287:297|350:330,1,108.900003323364,0|0,1:2|0:0,0:0:0:0:
435,381,66734,1,8,1:2:0:0:
495,291,66939,1,0,1:2:0:0:
495,291,67042,1,0,1:2:0:0:
495,291,67145,1,0,1:2:0:0:
375,185,67350,1,0,1:2:0:0:
512,49,67556,6,0,P|492:36|455:31,1,54.4500016616822,10|0,1:2|0:0,0:0:0:0:
437,99,67761,2,0,P|457:112|494:117,1,54.4500016616822,2|0,0:0|0:0,0:0:0:0:
388,39,67967,6,0,B|341:61|320:103|320:103|315:105|315:105|334:70|321:37,1,163.350004985047,6|0,1:2|0:0,0:0:0:0:
252,69,68378,1,10,1:2:0:0:
127,142,68583,1,2,1:2:0:0:
127,142,68686,1,8,0:3:0:0:
127,142,68789,1,8,0:3:0:0:
83,64,68994,1,2,1:2:0:0:
227,199,69200,1,8,1:2:0:0:
100,331,69405,6,0,P|83:279|65:223,1,108.900003323364,2|0,0:0|1:2,0:0:0:0:
132,146,69816,1,2,0:0:0:0:
266,288,70022,1,10,1:2:0:0:
200,355,70227,1,0,1:2:0:0:
200,355,70330,1,0,1:2:0:0:
200,355,70433,1,0,1:2:0:0:
227,174,70638,1,0,0:0:0:0:
66,227,70843,6,0,L|72:200,3,27.2250008308411,10|0|0|0,1:2|0:0|0:0|0:0,0:0:0:0:
0,193,71049,6,0,L|6:166,3,27.2250008308411,2|0|0|0,0:0|0:0|0:0|0:0,0:0:0:0:
7,155,71254,6,0,P|96:147|87:37,1,217.800006646729,6|8,1:2|1:2,0:0:0:0:
12,7,71871,1,0,1:2:0:0:
191,90,72076,1,0,0:0:0:0:
302,12,72282,1,0,1:2:0:0:
188,100,72487,6,0,L|208:164,1,54.4500016616822,10|0,1:2|0:0,0:0:0:0:
280,127,72693,2,0,L|263:75,1,54.4500016616822,2|0,0:0|0:0,0:0:0:0:
241,216,72898,6,0,B|205:221|201:259|201:259|236:221|299:220,1,163.350004985047,6|0,1:2|0:0,0:0:0:0:
358,269,73309,1,10,1:2:0:0:
491,301,73515,6,0,B|526:306|530:344|530:344|495:306|432:305,1,163.350004985047,2|0,0:0|0:0,0:0:0:0:
374,354,73926,1,2,1:2:0:0:
433,202,74131,5,8,1:2:0:0:
267,296,74337,1,2,0:0:0:0:
267,296,74439,1,2,0:0:0:0:
267,296,74542,2,0,P|216:280|159:265,1,108.900003323364,6|0,1:2|0:0,0:0:0:0:
28,350,74953,5,10,0:3:0:0:
155,260,75159,6,0,B|108:238|87:196|87:196|82:194|82:194|101:229|88:262,1,163.350004985047,6|0,1:2|0:0,0:0:0:0:
21,238,75570,2,0,P|79:191|26:113,1,163.350004985047,6|0,1:2|0:0,0:0:0:0:
12,56,75980,6,0,B|62:25|119:62|97:96|160:132|216:96,1,217.800006646729,6|8,1:2|0:3,0:0:0:0:
364,124,76597,2,0,P|311:84|308:41,1,108.900003323364,8|0,1:2|0:0,0:0:0:0:
313,35,76905,1,8,0:3:0:0:
319,25,77008,2,0,P|293:121|272:199,1,163.350004985047,4|0,1:2|0:0,0:0:0:0:
289,285,77419,6,0,P|303:281|319:266,3,27.2250008308411,10|0|0|0,1:2|0:0|0:0|0:0,0:0:0:0:
386,293,77624,6,0,P|389:278|384:257,3,27.2250008308411,2|0|0|0,0:0|0:0|0:0|0:0,0:0:0:0:
386,255,77830,5,6,1:2:0:0:
301,372,78035,1,2,0:0:0:0:
182,201,78241,5,10,1:2:0:0:
289,285,78446,1,2,1:2:0:0:
138,379,78652,6,0,B|111:337|76:326|76:326|108:306|126:256,1,163.350004985047,2|0,0:0|0:0,0:0:0:0:
201,279,79063,1,8,1:2:0:0:
95,158,79268,1,2,0:0:0:0:
249,42,79474,6,0,B|285:47|289:85|289:85|254:47|191:46,1,163.350004985047,6|0,1:2|0:0,0:0:0:0:
133,77,79885,1,10,1:2:0:0:
240,184,80090,1,2,0:0:0:0:
119,267,80296,1,0,0:0:0:0:
166,182,80501,1,2,0:0:0:0:
303,296,80706,1,8,1:2:0:0:
473,128,80912,6,0,B|419:150|404:207|404:207|384:152|313:143,1,217.800006646729,4|0,1:2|0:0,0:0:0:0:
238,301,81528,2,0,B|285:279|306:237|306:237|311:235|311:235|292:270|305:303,1,163.350004985047,8|0,1:2|0:0,0:0:0:0:
373,275,81939,5,0,0:0:0:0:
278,362,82145,1,2,1:2:0:0:
150,287,82350,1,10,1:2:0:0:
5,378,82556,6,0,B|-32:323|-18:262|39:234|40:240|43:244|104:220|136:168|100:90,1,321.75,6|0,1:2|0:0,0:0:0:0:
59,57,83994,5,2,0:0:0:0:
47,54,84097,1,2,0:0:0:0:
35,57,84200,1,2,0:0:0:0:
24,62,84302,1,2,0:0:0:0:
17,71,84405,6,0,B|72:33|131:47|159:103|153:104|149:107|173:167|224:198|300:163,1,316.8,6|0,1:2|0:0,0:0:0:0:
