osu file format v14

[General]
AudioFilename: audio.mp3
AudioLeadIn: 0
PreviewTime: 51015
Countdown: 0
SampleSet: Soft
StackLeniency: 0.7
Mode: 0
LetterboxInBreaks: 0
WidescreenStoryboard: 1

[Editor]
DistanceSpacing: 1
BeatDivisor: 4
GridSize: 32
TimelineZoom: 2.2

[Metadata]
Title:last cross (TV Size)
TitleUnicode:last cross (TV Size)
Artist:Mitsuoka Masami
ArtistUnicode:光岡昌美
Creator:Pepekcz
Version:Normal
Source:家庭教師ヒットマンREBORN!
Tags:katekyo hitman op opening 5 la vongola famiglia decimo 沢田綱吉 Sawada Tsunayoshi j-rock jrock rock japanese anime vocal female Yahuri
BeatmapID:3715020
BeatmapSetID:1811211

[Difficulty]
HPDrainRate:3
CircleSize:3.4
OverallDifficulty:4
ApproachRate:5
SliderMultiplier:1
SliderTickRate:1

[Events]
//Background and Video events
0,0,"BG.jpg",0,0
Video,75,"video.mp4"
//Break Periods
//Storyboard Layer 0 (Background)
//Storyboard Layer 1 (Fail)
//Storyboard Layer 2 (Pass)
//Storyboard Layer 3 (Foreground)
//Storyboard Layer 4 (Overlay)
//Storyboard Sound Samples

[TimingPoints]
570,410.958904109589,4,2,1,50,1,0
570,-99.9999999999999,4,2,1,50,0,0
7145,-100,4,2,1,40,0,0
8789,-111.111111111111,4,2,1,50,0,0
21939,-99.9999999999999,4,2,1,60,0,0
35090,-100,4,2,1,70,0,0
41665,-111.111111111111,4,2,1,70,0,0
44748,-99.9999999999999,4,2,1,70,0,0
46597,-111.111111111111,4,2,1,60,0,0
50706,-125,4,2,1,40,0,0
51528,-90.9090909090909,4,2,1,80,0,1
82556,-100,4,2,1,60,0,0
84405,-111.111111111111,4,2,1,50,0,0
86049,-111.111111111111,4,2,1,40,0,0
86460,-111.111111111111,4,2,1,30,0,0
86871,-111.111111111111,4,2,1,20,0,0
87282,-111.111111111111,4,2,1,10,0,0
87693,-500,4,2,1,5,0,0

[Colours]
Combo1 : 158,78,94
Combo2 : 175,115,79
Combo3 : 252,253,175
Combo4 : 252,177,58
Combo5 : 206,87,53
Combo6 : 182,231,231

[HitObjects]
411,32,570,6,0,P|468:52|519:71,2,100,6|2|2,1:2|1:2|1:2,0:0:0:0:
327,87,1802,1,2,1:2:0:0:
231,56,2213,2,0,P|188:29|127:38,1,100,6|2,1:2|1:2,0:0:0:0:
105,67,2830,1,2,0:0:0:0:
105,67,3035,2,0,P|118:119|134:182,1,100,2|2,1:2|1:2,0:0:0:0:
135,263,3857,6,0,P|95:293|41:288,2,100,6|2|2,1:2|1:2|1:2,0:0:0:0:
219,209,5090,1,2,1:2:0:0:
295,273,5501,2,0,L|352:287,1,50,6|2,1:2|0:0,0:0:0:0:
396,297,5912,1,2,1:2:0:0:
396,297,6117,2,0,P|410:236|433:140,1,150,2|0,0:0|1:2,0:0:0:0:
484,66,7145,5,2,0:0:0:0:
484,66,8789,5,6,1:2:0:0:
401,30,9200,2,0,P|361:40|300:60,1,89.999997253418,8|2,1:2|0:2,0:0:0:0:
272,71,9816,1,2,1:2:0:0:
272,71,10022,1,10,1:2:0:0:
186,44,10433,2,0,P|163:82|171:137,1,89.999997253418,2|10,1:2|1:2,0:0:0:0:
238,188,11254,1,2,0:2:0:0:
238,188,11460,2,0,L|252:245,1,44.999998626709,2|8,1:2|1:2,0:0:0:0:
266,278,11871,5,2,0:0:0:0:
266,278,12076,1,2,1:2:0:0:
217,353,12487,1,10,1:2:0:0:
217,353,12693,2,0,P|156:337|73:318,1,134.999995880127,2|8,1:2|1:2,0:0:0:0:
51,237,13720,2,0,P|77:203|76:153,1,89.999997253418,0|10,1:2|1:2,0:0:0:0:
34,78,14542,1,2,0:2:0:0:
110,30,14953,2,0,L|168:50,1,44.999998626709,8|10,1:2|0:2,0:0:0:0:
191,66,15364,6,0,B|239:74|227:38|291:46,1,89.999997253418,2|10,1:2|1:2,0:0:0:0:
357,83,16186,2,0,L|373:144,1,44.999998626709,2|2,0:0|1:2,0:0:0:0:
379,170,16597,1,10,1:2:0:0:
443,232,17008,2,0,P|431:273|418:323,1,89.9999972534181,0|10,1:2|1:2,0:0:0:0:
395,358,17624,1,2,1:2:0:0:
395,358,17830,2,0,L|339:342,1,44.999998626709,2|2,0:0|1:2,0:0:0:0:
308,333,18241,1,10,1:2:0:0:
232,283,18652,6,0,P|185:281|135:313,1,89.9999972534181,2|10,1:2|1:2,0:0:0:0:
123,338,19268,2,0,P|76:340|26:308,1,89.9999972534181,2|2,1:2|1:2,0:0:0:0:
14,282,19885,1,10,1:2:0:0:
61,205,20296,2,0,L|116:189,1,44.999998626709,2|2,1:2|0:0,0:0:0:0:
148,182,20706,1,10,1:2:0:0:
225,227,21117,2,0,P|268:239|311:252,1,89.9999972534181,2|10,0:0|1:2,0:0:0:0:
353,268,21734,5,10,1:2:0:0:
353,268,21939,1,6,1:2:0:0:
438,320,22350,2,0,L|456:263,1,50,8|2,1:2|1:2,0:0:0:0:
490,238,22761,2,0,P|479:192|461:123,1,100,2|8,0:0|1:2,0:0:0:0:
454,96,23378,1,2,1:2:0:0:
454,96,23583,1,2,1:2:0:0:
362,56,23994,2,0,P|337:44|313:43,1,50,8|2,1:2|1:2,0:0:0:0:
278,77,24405,2,0,P|240:107|191:104,1,100,2|10,0:0|1:2,0:0:0:0:
101,60,25227,6,0,P|93:104|83:169,1,100,2|10,1:2|1:2,0:0:0:0:
59,203,25843,1,2,1:2:0:0:
59,203,26049,2,0,P|51:247|41:312,1,100,2|10,0:0|1:2,0:0:0:0:
121,363,26871,2,0,L|178:349,1,50,2|2,1:2|0:0,0:0:0:0:
216,329,27282,1,8,1:2:0:0:
216,329,27487,2,0,B|269:320|261:356|321:348,1,100,2|0,1:2|0:0,0:0:0:0:
357,327,28104,2,0,L|418:343,1,50,8|10,1:2|1:2,0:0:0:0:
452,355,28515,5,2,1:2:0:0:
493,264,28926,2,0,P|507:212|480:167,1,100,8|0,1:2|0:0,0:0:0:0:
391,142,29748,2,0,L|331:165,1,50,8|2,1:2|0:0,0:0:0:0:
305,192,30159,6,0,P|258:208|208:228,1,100,2|10,1:2|1:2,0:0:0:0:
164,245,30775,1,2,1:2:0:0:
164,245,30980,1,2,1:2:0:0:
88,179,31391,2,0,L|72:130,1,50,10|2,1:2|1:2,0:0:0:0:
58,83,31802,6,0,P|86:54|156:53,1,100,6|8,1:2|1:2,0:0:0:0:
185,74,32419,1,6,1:2:0:0:
273,27,32830,2,0,L|339:49,1,50,2|8,1:2|1:2,0:0:0:0:
356,77,33241,2,0,B|409:86|401:50|461:58,1,100,6|2,1:2|0:0,0:0:0:0:
492,86,33857,1,8,1:2:0:0:
492,86,34063,1,6,1:2:0:0:
496,235,34679,2,0,L|480:292,1,50,8|10,1:2|1:2,0:0:0:0:
474,332,35090,6,0,P|436:356|376:352,1,100,6|10,1:2|1:2,0:0:0:0:
346,327,35706,1,2,1:2:0:0:
346,327,35912,2,0,P|308:303|248:307,1,100,0|10,0:0|1:2,0:0:0:0:
169,356,36734,2,0,L|109:344,1,50,2|2,1:2|0:0,0:0:0:0:
72,330,37145,1,10,1:2:0:0:
32,237,37556,1,2,1:2:0:0:
32,237,37761,2,0,P|16:177|34:140,1,100,6|0,1:2|1:2,0:0:0:0:
75,121,38378,6,0,P|121:133|185:153,1,100,2|10,1:2|1:2,0:0:0:0:
218,165,38994,1,2,0:0:0:0:
286,237,39405,1,0,1:2:0:0:
286,237,39611,2,0,L|343:222,1,50,10|2,1:2|0:0,0:0:0:0:
383,215,40022,2,0,P|404:179|391:118,1,100,2|10,1:2|1:2,0:0:0:0:
365,83,40638,1,2,0:0:0:0:
274,41,41049,1,6,1:2:0:0:
180,56,41460,5,2,0:0:0:0:
180,56,41665,2,0,P|136:66|80:82,1,89.9999972534181,6|10,1:2|1:2,0:0:0:0:
48,85,42282,2,0,P|58:50|34:0,2,89.9999972534181,2|2|2,0:0|1:2|0:0,0:0:0:0:
14,168,43515,2,0,L|26:227,1,44.999998626709,8|8,0:3|1:2,0:0:0:0:
55,296,44131,1,0,0:0:0:0:
55,296,44337,2,0,L|108:282,1,44.999998626709,10|8,1:3|1:2,0:0:0:0:
142,260,44748,6,0,B|206:230|262:288|230:314|284:373|365:337,1,250,6|2,1:2|0:0,0:0:0:0:
432,279,46186,2,0,L|449:221,1,50,8|8,1:2|1:2,0:0:0:0:
460,191,46597,5,6,1:2:0:0:
460,191,46802,1,10,0:3:0:0:
236,38,48035,5,10,0:3:0:0:
236,38,48241,2,0,L|221:85,1,44.999998626709,6|10,1:2|0:3,0:0:0:0:
267,209,49063,1,2,0:0:0:0:
267,209,49268,2,0,P|216:202|167:265,1,134.999995880127,14|0,1:2|0:0,0:0:0:0:
55,375,50706,2,0,L|30:288,1,80,2|0,0:0|0:0,0:0:0:0:
92,205,51528,6,0,P|107:150|125:87,1,110.000003356934,6|10,1:2|1:2,0:0:0:0:
116,43,52145,2,0,P|156:22|221:39,1,110.000003356934,2|2,1:2|1:2,0:0:0:0:
253,76,52761,1,8,1:2:0:0:
253,76,52967,2,0,P|293:97|358:80,1,110.000003356934,2|0,0:0|0:0,0:0:0:0:
403,58,53583,1,8,1:2:0:0:
475,140,53994,1,0,1:2:0:0:
494,248,54405,2,0,L|475:309,1,55.0000016784668,10|2,1:2|0:0,0:0:0:0:
450,348,54816,6,0,P|399:332|335:315,1,110.000003356934,6|10,1:2|1:2,0:0:0:0:
289,326,55433,2,0,P|255:280|282:226,1,110.000003356934,2|2,1:2|1:2,0:0:0:0:
318,203,56049,1,8,1:2:0:0:
318,203,56254,2,0,L|329:133,1,55.0000016784668,2|0,0:0|1:2,0:0:0:0:
338,99,56665,5,2,0:0:0:0:
338,99,56871,2,0,B|280:107|292:67|232:75,1,110.000003356934,10|0,1:2|1:2,0:0:0:0:
141,134,57693,2,0,L|80:117,1,55.0000016784668,10|2,1:2|0:0,0:0:0:0:
33,125,58104,6,0,P|47:185|59:235,1,110.000003356934,6|10,1:2|1:2,0:0:0:0:
58,287,58720,2,0,B|116:279|104:319|164:311,1,110.000003356934,2|0,1:2|0:0,0:0:0:0:
210,284,59337,1,10,1:2:0:0:
308,333,59748,2,0,P|352:362|405:354,1,110.000003356934,2|10,1:2|1:2,0:0:0:0:
448,319,60364,1,2,0:0:0:0:
448,319,60569,2,0,L|464:255,1,55.0000016784668,2|2,1:2|0:0,0:0:0:0:
476,212,60980,1,8,1:2:0:0:
496,103,61391,6,0,P|458:67|398:69,1,110.000003356934,6|8,1:2|1:2,0:0:0:0:
365,107,62008,1,2,1:2:0:0:
365,107,62213,2,0,P|327:143|267:141,1,110.000003356934,10|10,0:3|1:2,0:0:0:0:
225,113,62830,2,0,B|167:105|179:145|119:137,1,110.000003356934,6|0,1:2|1:2,0:0:0:0:
71,112,63446,1,8,1:2:0:0:
24,211,63857,2,0,L|36:272,1,55.0000016784668,0|0,1:2|1:2,0:0:0:0:
69,308,64268,2,0,L|143:293,1,55.0000016784668,8|0,1:2|0:0,0:0:0:0:
176,307,64679,6,0,L|304:283,1,110.000003356934,6|10,1:2|1:2,0:0:0:0:
339,281,65296,2,0,P|347:237|315:177,1,110.000003356934,2|2,1:2|1:2,0:0:0:0:
271,152,65912,1,8,1:2:0:0:
271,152,66117,2,0,P|244:104|250:51,1,110.000003356934,2|0,0:0|0:0,0:0:0:0:
291,13,66734,1,8,1:2:0:0:
380,77,67145,1,0,1:2:0:0:
467,10,67556,2,0,L|483:73,1,55.0000016784668,10|2,1:2|0:0,0:0:0:0:
504,112,67967,6,0,P|492:162|477:232,1,110.000003356934,6|10,1:2|1:2,0:0:0:0:
460,271,68583,2,0,P|412:259|357:297,1,110.000003356934,2|2,1:2|1:2,0:0:0:0:
326,330,69200,1,8,1:2:0:0:
326,330,69405,2,0,P|287:347|260:346,1,55.0000016784668,2|0,0:0|1:2,0:0:0:0:
226,334,69816,5,2,0:0:0:0:
226,334,70022,2,0,B|168:326|180:366|120:358,1,110.000003356934,10|0,1:2|1:2,0:0:0:0:
52,270,70843,2,0,L|68:204,1,55.0000016784668,10|2,1:2|0:0,0:0:0:0:
43,165,71254,6,0,P|56:110|72:48,1,110.000003356934,6|8,1:2|1:2,0:0:0:0:
179,52,72076,2,0,P|165:105|152:158,1,110.000003356934,0|10,0:0|1:2,0:0:0:0:
155,218,72693,1,2,0:0:0:0:
155,218,72898,2,0,P|204:232|258:196,1,110.000003356934,6|10,1:2|1:2,0:0:0:0:
290,163,73515,2,0,P|336:135|387:149,1,110.000003356934,2|2,0:0|1:2,0:0:0:0:
433,180,74131,1,8,1:2:0:0:
505,262,74542,6,0,L|488:326,1,55.0000016784668,6|0,1:2|0:0,0:0:0:0:
477,368,74953,1,10,0:3:0:0:
477,368,75159,1,6,1:2:0:0:
377,321,75570,1,6,1:2:0:0:
269,342,75980,2,0,B|211:334|223:374|163:366,1,110.000003356934,6|8,1:2|0:3,0:0:0:0:
113,344,76597,2,0,P|92:306|124:246,1,110.000003356934,8|4,1:2|1:2,0:0:0:0:
215,197,77419,2,0,L|283:212,1,55.0000016784668,10|2,1:2|0:0,0:0:0:0:
314,239,77830,6,0,P|363:223|422:206,1,110.000003356934,6|10,1:2|1:2,0:0:0:0:
472,193,78446,1,2,1:2:0:0:
472,193,78652,1,2,0:0:0:0:
508,89,79063,2,0,L|489:32,1,55.0000016784668,8|2,1:2|0:0,0:0:0:0:
444,5,79474,6,0,P|391:20|338:37,1,110.000003356934,6|10,1:2|1:2,0:0:0:0:
288,59,80090,1,2,0:0:0:0:
180,36,80501,2,0,L|117:56,1,55.0000016784668,2|8,0:0|1:2,0:0:0:0:
77,76,80912,6,0,P|124:98|119:206,1,165.000005035401,4|8,1:2|1:2,0:0:0:0:
71,295,81939,2,0,L|139:315,1,55.0000016784668,0|2,0:0|1:2,0:0:0:0:
170,339,82350,1,10,1:2:0:0:
170,339,82556,6,0,B|234:369|290:311|258:285|312:226|393:262,1,250,6|0,1:2|0:0,0:0:0:0:
461,319,83994,1,2,0:0:0:0:
503,239,84405,1,6,1:2:0:0:
256,192,84611,12,0,87693,0:0:0:0:
