osu file format v14

[General]
AudioFilename: audio.mp3
AudioLeadIn: 0
PreviewTime: 51015
Countdown: 0
SampleSet: Soft
StackLeniency: 0.5
Mode: 0
LetterboxInBreaks: 0
WidescreenStoryboard: 1

[Editor]
DistanceSpacing: 1.4
BeatDivisor: 4
GridSize: 32
TimelineZoom: 2.2

[Metadata]
Title:last cross (TV Size)
TitleUnicode:last cross (TV Size)
Artist:Mitsuoka Masami
ArtistUnicode:光岡昌美
Creator:Pepekcz
Version:Hard
Source:家庭教師ヒットマンREBORN!
Tags:katekyo hitman op opening 5 la vongola famiglia decimo 沢田綱吉 Sawada Tsunayoshi j-rock jrock rock japanese anime vocal female Yahuri
BeatmapID:3715019
BeatmapSetID:1811211

[Difficulty]
HPDrainRate:4
CircleSize:4
OverallDifficulty:6
ApproachRate:7
SliderMultiplier:1.4
SliderTickRate:1

[Events]
//Background and Video events
0,0,"BG.jpg",0,0
Video,75,"video.mp4"
//Break Periods
//Storyboard Layer 0 (Background)
//Storyboard Layer 1 (Fail)
//Storyboard Layer 2 (Pass)
//Storyboard Layer 3 (Foreground)
//Storyboard Layer 4 (Overlay)
//Storyboard Sound Samples

[TimingPoints]
570,410.958904109589,4,2,1,50,1,0
570,-111.111111111111,4,2,1,50,0,0
7145,-200,4,2,1,40,0,0
8789,-125,4,2,1,50,0,0
21939,-111.111111111111,4,2,1,60,0,0
35090,-100,4,2,1,70,0,0
41665,-125,4,2,1,70,0,0
44748,-111.111111111111,4,2,1,70,0,0
46597,-125,4,2,1,60,0,0
50706,-125,4,2,1,40,0,0
51528,-100,4,2,1,80,0,1
82556,-125,4,2,1,60,0,0
84405,-333.333333333333,4,2,1,50,0,0
86049,-333.333333333333,4,2,1,40,0,0
86460,-333.333333333333,4,2,1,30,0,0
86871,-333.333333333333,4,2,1,20,0,0
87282,-333.333333333333,4,2,1,10,0,0
87693,-500,4,2,1,5,0,0

[Colours]
Combo1 : 158,78,94
Combo2 : 175,115,79
Combo3 : 252,253,175
Combo4 : 252,177,58
Combo5 : 206,87,53
Combo6 : 182,231,231

[HitObjects]
487,371,570,6,0,P|437:363|436:288,1,125.999996154785,6|2,1:2|1:2,0:0:0:0:
472,220,1186,1,2,0:0:0:0:
444,136,1391,2,0,P|411:127|374:119,1,62.9999980773926,2|2,1:2|0:0,0:0:0:0:
306,161,1802,1,2,1:2:0:0:
306,161,2008,1,2,0:0:0:0:
217,97,2213,6,0,P|143:121|76:149,1,125.999996154785,6|2,1:2|1:2,0:0:0:0:
9,129,2830,1,2,0:0:0:0:
6,216,3035,2,0,L|30:287,1,62.9999980773926,2|2,1:2|0:0,0:0:0:0:
16,366,3446,1,2,1:2:0:0:
16,366,3652,1,2,0:0:0:0:
107,316,3857,6,0,B|179:304|155:356|235:344,1,125.999996154785,6|2,1:2|1:2,0:0:0:0:
305,306,4474,1,2,0:0:0:0:
382,348,4679,2,0,P|418:362|447:352,1,62.9999980773926,2|2,1:2|0:0,0:0:0:0:
502,293,5090,2,0,P|516:257|506:228,1,62.9999980773926,2|2,1:2|0:0,0:0:0:0:
457,163,5501,1,6,1:2:0:0:
457,163,5706,1,2,0:0:0:0:
376,199,5912,1,2,1:2:0:0:
376,199,6117,1,2,0:0:0:0:
302,150,6323,6,0,P|245:145|208:202,1,125.999996154785,2|0,1:2|1:2,0:0:0:0:
256,192,7145,12,0,8378,0:0:0:0:
65,368,8789,6,0,P|53:316|38:243,1,112,6|8,1:2|1:2,0:0:0:0:
20,102,9611,1,2,0:2:0:0:
20,102,9816,1,2,1:2:0:0:
88,62,10022,2,0,L|153:80,1,56,10|2,1:2|0:0,0:0:0:0:
205,123,10433,6,0,P|259:109|330:94,1,112,2|10,1:2|1:2,0:0:0:0:
394,85,11049,1,2,1:2:0:0:
394,85,11254,2,0,P|409:112|412:141,1,56,2|2,0:2|1:2,0:0:0:0:
372,205,11665,1,8,1:2:0:0:
428,280,11871,5,2,0:0:0:0:
424,293,11974,1,0,1:0:0:0:
420,306,12076,2,0,P|366:321|302:344,1,112,2|10,1:2|1:2,0:0:0:0:
240,371,12693,2,0,P|208:341|215:274,1,112,2|2,1:2|1:2,0:0:0:0:
269,222,13309,1,8,1:2:0:0:
351,185,13515,5,2,1:2:0:0:
364,184,13617,1,0,1:2:0:0:
375,176,13720,2,0,P|407:146|400:79,1,112,0|10,1:2|1:2,0:0:0:0:
254,27,14542,2,0,L|189:44,1,56,2|0,0:2|0:0,0:0:0:0:
134,85,14953,2,0,L|95:72,3,28,8|8|10|8,1:2|1:2|0:2|1:2,0:0:0:0:
95,84,15364,6,0,P|127:118|109:181,1,112,2|10,1:2|1:2,0:0:0:0:
16,301,16186,1,2,0:0:0:0:
71,356,16391,1,2,1:2:0:0:
84,353,16494,1,2,0:0:0:0:
97,349,16597,2,0,L|161:331,1,56,10|2,1:2|0:0,0:0:0:0:
212,284,17008,6,0,B|272:276|260:320|328:312,1,112,0|10,1:2|1:2,0:0:0:0:
392,284,17624,1,2,1:2:0:0:
392,284,17830,2,0,L|408:348,1,56,2|2,0:0|1:2,0:0:0:0:
482,319,18241,2,0,L|468:264,1,56,10|2,1:2|1:2,0:0:0:0:
470,251,18549,5,0,1:2:0:0:
472,237,18652,2,0,P|458:182|440:111,1,112,2|10,1:2|1:2,0:0:0:0:
419,53,19268,1,2,1:2:0:0:
266,89,19679,1,2,1:2:0:0:
266,89,19885,2,0,P|230:86|201:68,1,56,10|6,1:2|3:0,0:0:0:0:
203,67,20193,5,6,3:0:0:0:
192,57,20296,2,0,P|140:26|87:38,1,112,2|10,1:2|1:2,0:0:0:0:
33,88,20912,1,2,1:2:0:0:
75,153,21117,1,2,0:0:0:0:
87,158,21220,2,0,L|192:184,1,84,8|10,1:2|1:2,0:0:0:0:
257,129,21734,5,10,1:2:0:0:
270,124,21837,1,10,1:2:0:0:
283,119,21940,2,0,P|340:96|412:72,1,125.999996154785,6|8,1:2|1:2,0:0:0:0:
463,138,22556,1,2,1:2:0:0:
504,215,22761,2,0,L|486:286,1,62.9999980773926,2|0,0:0|1:2,0:0:0:0:
435,346,23172,1,8,1:2:0:0:
356,305,23378,5,2,1:2:0:0:
340,303,23480,1,2,1:2:0:0:
325,308,23583,2,0,P|267:349|198:334,1,125.999996154785,2|8,1:2|1:2,0:0:0:0:
142,293,24200,1,2,1:2:0:0:
63,331,24405,2,0,P|46:270|29:208,1,125.999996154785,2|10,0:0|1:2,0:0:0:0:
71,37,25227,6,0,B|143:25|119:77|199:65,1,125.999996154785,2|10,1:2|1:2,0:0:0:0:
272,36,25843,1,2,1:2:0:0:
355,63,26049,2,0,L|433:83,1,62.9999980773926,2|2,0:0|1:2,0:0:0:0:
479,140,26460,2,0,L|461:216,1,62.9999980773926,10|2,1:2|0:0,0:0:0:0:
475,289,26871,6,0,P|443:327|365:323,1,125.999996154785,2|8,1:2|1:2,0:0:0:0:
299,274,27487,2,0,P|267:236|189:240,1,125.999996154785,2|0,1:2|0:0,0:0:0:0:
130,296,28104,1,8,1:2:0:0:
130,296,28309,1,10,1:2:0:0:
44,274,28515,6,0,P|30:214|9:142,1,125.999996154785,2|8,1:2|1:2,0:0:0:0:
80,96,29131,1,2,1:2:0:0:
94,101,29234,1,2,0:0:0:0:
108,106,29337,2,0,L|179:128,1,62.9999980773926,0|0,0:0|1:2,0:0:0:0:
219,196,29748,2,0,L|290:218,1,62.9999980773926,8|2,1:2|0:0,0:0:0:0:
346,271,30159,6,0,P|413:268|441:207,1,125.999996154785,2|10,1:2|1:2,0:0:0:0:
490,150,30775,1,2,1:2:0:0:
490,150,30980,2,0,L|416:129,1,62.9999980773926,2|2,1:2|1:2,0:0:0:0:
378,67,31391,1,10,1:2:0:0:
281,106,31597,5,2,1:2:0:0:
265,102,31700,1,0,1:2:0:0:
249,98,31802,2,0,P|202:84|149:71,1,94.499997116089,6|0,1:2|0:0,0:0:0:0:
142,68,32213,1,8,1:2:0:0:
44,87,32419,2,0,P|79:118|77:199,1,125.999996154785,6|2,1:2|1:2,0:0:0:0:
35,269,33035,1,8,1:2:0:0:
114,338,33241,6,0,B|186:350|162:298|242:310,1,125.999996154785,6|2,1:2|0:0,0:0:0:0:
325,359,33857,1,8,1:2:0:0:
325,359,34063,1,6,1:2:0:0:
455,240,34474,1,2,1:2:0:0:
394,176,34679,2,0,L|385:132,3,31.4999990386963,8|8|10|6,1:2|1:2|1:2|0:3,0:0:0:0:
381,128,35090,6,0,P|321:113|238:93,1,140,6|10,1:2|1:2,0:0:0:0:
160,44,35706,1,2,1:2:0:0:
143,38,35809,1,2,0:0:0:0:
126,32,35912,2,0,P|84:75|90:152,1,140,0|10,0:0|1:2,0:0:0:0:
152,225,36528,5,2,0:0:0:0:
149,242,36631,1,0,0:0:0:0:
146,259,36734,2,0,L|130:339,1,70,2|2,1:2|0:0,0:0:0:0:
229,342,37145,2,0,L|242:273,1,70,10|2,1:2|0:0,0:0:0:0:
302,195,37556,1,2,1:2:0:0:
229,107,37761,2,0,P|257:68|362:69,1,140,6|0,1:2|1:2,0:0:0:0:
421,117,38378,6,0,P|427:152|438:202,1,70,2|2,1:2|1:2,0:0:0:0:
437,203,38686,1,0,1:2:0:0:
440,220,38789,1,10,1:2:0:0:
472,312,38994,2,0,B|396:328|412:268|328:284,1,140,2|0,0:0|1:2,0:0:0:0:
258,337,39611,1,10,1:2:0:0:
175,284,39816,5,2,0:0:0:0:
164,270,39919,1,2,0:0:0:0:
148,262,40022,2,0,P|115:248|77:251,1,70,2|2,1:2|1:2,0:0:0:0:
18,325,40433,2,0,P|7:294|-6:256,1,70,10|2,1:2|0:0,0:0:0:0:
36,170,40843,1,2,1:2:0:0:
4,59,41049,2,0,P|71:78|137:100,1,140,6|2,1:2|0:0,0:0:0:0:
210,157,41665,6,0,P|247:143|307:126,1,84,6|0,1:2|0:0,0:0:0:0:
303,127,42076,1,10,1:2:0:0:
375,157,42282,2,0,P|384:101|395:46,2,112,2|2|2,0:0|1:2|0:0,0:0:0:0:
459,295,43515,5,8,0:3:0:0:
459,295,43720,2,0,P|425:328|350:327,1,112,8|0,1:2|0:0,0:0:0:0:
289,303,44337,1,10,1:3:0:0:
284,289,44439,1,10,1:3:0:0:
279,275,44542,1,8,1:2:0:0:
312,177,44748,6,0,B|260:198|218:165|230:151|186:111|123:139,1,188.999994232178,6|2,1:2|0:0,0:0:0:0:
53,154,45569,2,0,P|45:184|37:227,1,62.9999980773926,2|2,0:0|0:0,0:0:0:0:
91,286,45980,1,8,0:3:0:0:
94,301,46083,1,8,0:3:0:0:
100,315,46186,2,0,L|142:331,3,31.4999990386963,8|8|8|8,1:2|1:2|1:2|1:2,0:0:0:0:
142,331,46597,5,6,1:2:0:0:
222,264,46802,1,10,0:3:0:0:
222,264,48035,5,10,0:3:0:0:
280,348,48241,2,0,P|308:362|344:361,1,56,6|10,1:2|0:3,0:0:0:0:
332,363,49063,5,2,0:0:0:0:
413,299,49268,2,0,P|428:216|446:134,1,168,14|0,1:2|0:0,0:0:0:0:
445,134,50706,6,0,B|398:115|360:144|371:157|331:193|274:168,1,168,2|0,0:0|0:0,0:0:0:0:
201,101,51528,6,0,P|164:77|96:81,1,105,6|0,1:2|0:0,0:0:0:0:
90,87,51939,1,10,1:2:0:0:
23,156,52145,2,0,P|43:228|63:302,1,140,2|2,1:2|1:2,0:0:0:0:
150,330,52761,2,0,P|158:295|166:261,1,70,8|2,1:2|0:0,0:0:0:0:
233,190,53172,5,0,1:2:0:0:
175,110,53378,1,0,0:0:0:0:
252,50,53583,2,0,P|291:35|328:26,1,70,8|0,1:2|1:2,0:0:0:0:
334,22,53891,1,0,1:2:0:0:
350,17,53994,2,0,P|383:26|416:39,1,70,0|0,1:2|1:2,0:0:0:0:
490,111,54405,1,10,1:2:0:0:
413,172,54611,1,2,0:0:0:0:
504,246,54816,6,0,P|521:279|501:342,1,105,6|0,1:2|0:0,0:0:0:0:
490,352,55227,1,10,1:2:0:0:
392,367,55433,2,0,B|316:383|332:323|248:339,1,140,2|2,1:2|1:2,0:0:0:0:
163,354,56049,1,8,1:2:0:0:
74,313,56254,6,0,P|90:245|110:167,1,140,2|2,0:0|0:0,0:0:0:0:
51,95,56871,2,0,P|82:73|116:71,1,70,10|0,1:2|1:2,0:0:0:0:
126,81,57179,1,0,1:2:0:0:
137,93,57282,2,0,P|168:115|202:117,1,70,0|0,1:2|0:0,0:0:0:0:
279,61,57693,1,10,1:2:0:0:
367,101,57898,1,2,0:0:0:0:
481,76,58104,6,0,P|464:142|447:211,1,140,6|10,1:2|1:2,0:0:0:0:
492,299,58720,2,0,P|451:340|356:319,1,140,2|0,1:2|0:0,0:0:0:0:
293,276,59337,1,10,1:2:0:0:
200,308,59542,5,2,0:0:0:0:
183,314,59645,1,2,0:0:0:0:
166,320,59748,2,0,P|137:328|92:344,1,70,2|2,1:2|0:0,0:0:0:0:
30,271,60159,2,0,P|18:237|8:204,1,70,10|2,1:2|0:0,0:0:0:0:
39,111,60569,2,0,P|72:99|105:89,1,70,2|2,1:2|0:0,0:0:0:0:
192,44,60980,1,8,1:2:0:0:
249,123,61186,1,2,0:0:0:0:
196,224,61391,6,0,P|262:244|337:268,1,140,6|8,1:2|1:2,0:0:0:0:
407,325,62008,1,2,1:2:0:0:
474,254,62213,2,0,P|499:209|485:156,1,105,10|0,0:3|0:0,0:0:0:0:
474,146,62624,1,10,1:2:0:0:
504,36,62830,6,0,B|428:20|444:80|360:64,1,140,6|0,1:2|1:2,0:0:0:0:
276,40,63446,2,0,P|225:19|176:36,1,105,8|0,1:2|1:2,0:0:0:0:
167,46,63857,1,0,1:2:0:0:
73,16,64063,1,0,1:2:0:0:
20,98,64268,2,0,L|33:147,3,35,8|0|0|0,1:2|3:0|3:0|3:0,0:0:0:0:
30,149,64679,6,0,P|42:199|56:252,1,105,6|0,1:2|0:0,0:0:0:0:
60,267,65090,1,10,1:2:0:0:
30,360,65296,2,0,P|89:365|149:305,1,140,2|2,1:2|1:2,0:0:0:0:
220,249,65912,2,0,P|254:257|294:270,1,70,8|2,1:2|0:0,0:0:0:0:
351,342,66323,5,0,1:2:0:0:
423,276,66528,1,0,0:0:0:0:
365,196,66734,2,0,P|350:156|358:122,1,70,8|0,1:2|1:2,0:0:0:0:
365,116,67042,1,0,1:2:0:0:
379,106,67145,2,0,P|394:66|386:32,1,70,0|0,1:2|1:2,0:0:0:0:
297,6,67556,1,10,1:2:0:0:
206,42,67761,1,2,0:0:0:0:
95,18,67967,6,0,P|83:66|68:132,1,105,6|0,1:2|0:0,0:0:0:0:
68,137,68378,1,10,1:2:0:0:
127,214,68583,2,0,B|203:230|187:170|271:186,1,140,2|2,1:2|1:2,0:0:0:0:
347,228,69200,1,8,1:2:0:0:
427,171,69405,6,0,P|444:238|460:306,1,140,2|2,0:0|0:0,0:0:0:0:
389,375,70022,2,0,L|311:357,1,70,10|0,1:2|1:2,0:0:0:0:
307,347,70330,1,0,1:2:0:0:
293,335,70433,2,0,L|215:317,1,70,0|0,1:2|0:0,0:0:0:0:
140,368,70843,1,10,1:2:0:0:
61,309,71049,1,2,0:0:0:0:
149,241,71254,6,0,P|133:177|114:103,2,140,6|8|0,1:2|1:2|0:0,0:0:0:0:
335,179,72487,1,10,1:2:0:0:
423,222,72693,1,2,0:0:0:0:
381,310,72898,6,0,P|329:331|281:353,1,105,6|0,1:2|0:0,0:0:0:0:
269,360,73309,1,10,1:2:0:0:
189,301,73515,2,0,B|113:285|129:345|45:329,1,140,2|2,0:0|1:2,0:0:0:0:
1,249,74131,1,8,1:2:0:0:
73,182,74337,5,2,0:0:0:0:
78,165,74439,1,2,0:0:0:0:
83,148,74542,2,0,P|124:120|185:126,1,105,6|0,1:2|0:0,0:0:0:0:
190,133,74953,1,10,0:3:0:0:
256,228,75159,2,0,P|289:237|329:251,1,70,6|0,1:2|0:0,0:0:0:0:
428,205,75570,2,0,P|438:171|448:138,1,70,6|0,1:2|0:0,0:0:0:0:
388,49,75980,6,0,B|312:33|328:93|244:77,1,140,6|8,1:2|0:3,0:0:0:0:
162,47,76597,2,0,P|134:27|86:29,1,70,8|0,1:2|0:0,0:0:0:0:
83,32,76905,1,8,0:3:0:0:
68,41,77008,2,0,P|51:107|34:187,1,140,4|10,1:2|1:2,0:0:0:0:
72,268,77624,1,2,0:0:0:0:
18,365,77830,6,0,P|43:380|98:374,1,70,6|2,1:2|0:0,0:0:0:0:
160,320,78241,1,10,1:2:0:0:
245,367,78446,1,2,1:2:0:0:
326,311,78652,6,0,B|402:295|386:355|470:339,1,140,2|8,0:0|1:2,0:0:0:0:
507,255,79268,1,2,0:0:0:0:
492,140,79474,6,0,P|455:100|407:98,1,105,6|0,1:2|0:0,0:0:0:0:
393,109,79885,1,10,1:2:0:0:
320,174,80090,2,0,P|253:153|173:131,1,140,2|2,0:0|0:0,0:0:0:0:
91,161,80706,1,8,1:2:0:0:
32,59,80912,6,0,P|99:38|179:16,1,140,4|0,1:2|0:0,0:0:0:0:
257,56,81528,2,0,P|306:69|358:86,1,105,8|0,1:2|0:0,0:0:0:0:
373,93,81939,1,0,0:0:0:0:
467,65,82145,1,2,1:2:0:0:
508,153,82350,1,10,1:2:0:0:
406,203,82556,6,0,B|347:162|285:177|255:236|262:237|266:241|240:304|186:337|106:300,1,336,6|0,1:2|0:0,0:0:0:0:
84,241,83994,2,0,L|94:198,3,28,2|2|2|2,0:0|0:0|0:0|0:0,0:0:0:0:
96,201,84405,6,0,B|151:161|208:178|239:232|232:233|228:237|253:297|305:329|381:293,1,335.999989746094,6|0,1:2|0:0,0:0:0:0:
