osu file format v14

[General]
AudioFilename: audio.mp3
AudioLeadIn: 0
PreviewTime: 131112
Countdown: 0
SampleSet: Normal
StackLeniency: 0.7
Mode: 1
LetterboxInBreaks: 0
WidescreenStoryboard: 0

[Editor]
DistanceSpacing: 2.2
BeatDivisor: 4
GridSize: 4
TimelineZoom: 2.3

[Metadata]
Title:Fallen Angel (el poco maro Remix)
TitleUnicode:Fallen Angel (el poco maro Remix)
Artist:Mitsunori Ikeda feat. Aimee B
ArtistUnicode:Mitsunori Ikeda feat. Aimee B
Creator:3san
Version:Icarus
Source:Panty & Stocking with Garterbelt
Tags:anime instrumental english dnb drum and bass パンティ&ストッキングwithガーターベルト lisa
BeatmapID:2287337
BeatmapSetID:1094423

[Difficulty]
HPDrainRate:4.5
CircleSize:5
OverallDifficulty:6.5
ApproachRate:5
SliderMultiplier:1.4
SliderTickRate:1

[Events]
//Background and Video events
0,0,"fallenangel.jpg",0,100
//Break Periods
//Storyboard Layer 0 (Background)
//Storyboard Layer 1 (Fail)
//Storyboard Layer 2 (Pass)
//Storyboard Layer 3 (Foreground)
//Storyboard Layer 4 (Overlay)
//Storyboard Sound Samples

[TimingPoints]
203,340.909090909091,4,1,0,60,1,0
203,-100,4,1,0,60,0,0
373,-100.946372239748,4,1,0,60,0,0
543,-101.910828025478,4,1,0,60,0,0
714,-102.893890675241,4,1,0,60,0,0
799,-103.392515209039,4,1,0,60,0,0
884,-103.896103896104,4,1,0,60,0,0
970,-104.404622201434,4,1,0,60,0,0
1055,-104.918032786885,4,1,0,60,0,0
1225,-105.960264900662,4,1,0,60,0,0
1310,-106.489241391942,4,1,0,60,0,0
1396,-107.023411371237,4,1,0,60,0,0
1481,-107.562967361093,4,1,0,60,0,0
1566,-108.108108108108,4,1,0,60,0,0
1737,-109.215017064846,4,1,0,60,0,0
1907,-110.344827586207,4,1,0,60,0,0
2078,-111.498257839721,4,1,0,60,0,0
2163,-112.084125861507,4,1,0,60,0,0
2248,-112.676056338028,4,1,0,60,0,0
2333,-113.274400438598,4,1,0,60,0,0
2418,-113.879003558719,4,1,0,60,0,0
2589,-115.107913669065,4,1,0,60,0,0
2674,-115.732435866871,4,1,0,60,0,0
2759,-116.363636363636,4,1,0,60,0,0
2845,-117.001896600744,4,1,0,60,0,0
2930,-117.647058823529,4,1,0,60,0,0
8384,-117.647058823529,4,1,0,60,0,0
8555,-116.366886173403,4,1,0,60,0,0
8725,-115.114406452853,4,1,0,60,0,0
8896,-113.888471297827,4,1,0,60,0,0
8981,-113.285307915131,4,1,0,60,0,0
9066,-112.688372701016,4,1,0,60,0,0
9151,-112.097821042555,4,1,0,60,0,0
9237,-111.513426774151,4,1,0,60,0,0
9407,-110.362607382817,4,1,0,60,0,0
9492,-109.796119585542,4,1,0,60,0,0
9578,-109.235298294291,4,1,0,60,0,0
9663,-108.680295175682,4,1,0,60,0,0
9748,-108.1309032715,4,1,0,60,0,0
9918,-107.048501535076,4,1,0,60,0,0
10089,-105.987667275036,4,1,0,60,0,0
10259,-104.947541971146,4,1,0,60,0,0
10345,-104.435152036694,4,1,0,60,0,0
10430,-103.927633110512,4,1,0,60,0,0
10515,-103.425130031245,4,1,0,60,0,0
10600,-102.927462899796,4,1,0,60,0,0
10771,-101.946255972776,4,1,0,60,0,0
10856,-101.462686082566,4,1,0,60,0,0
10941,-100.983580069881,4,1,0,60,0,0
11026,-100.509078482514,4,1,0,60,0,0
11112,-100,4,1,0,60,0,0
11197,-100.471008085907,4,1,0,60,0,0
11282,-100.946372239748,4,1,0,60,0,0
11453,-101.910828025478,4,1,0,60,0,0
11623,-102.893890675241,4,1,0,60,0,0
11708,-103.392515209039,4,1,0,60,0,0
11793,-103.896103896104,4,1,0,60,0,0
11879,-104.404622201434,4,1,0,60,0,0
11964,-104.918032786885,4,1,0,60,0,0
12134,-105.960264900662,4,1,0,60,0,0
12220,-106.489241391942,4,1,0,60,0,0
12305,-107.023411371237,4,1,0,60,0,0
12390,-107.562967361093,4,1,0,60,0,0
12475,-108.108108108108,4,1,0,60,0,0
12646,-109.215017064846,4,1,0,60,0,0
12816,-110.344827586207,4,1,0,60,0,0
12987,-111.498257839721,4,1,0,60,0,0
13072,-112.084125861507,4,1,0,60,0,0
13157,-112.676056338028,4,1,0,60,0,0
13242,-113.274400438598,4,1,0,60,0,0
13328,-113.879003558719,4,1,0,60,0,0
13498,-115.107913669065,4,1,0,60,0,0
13583,-115.732435866871,4,1,0,60,0,0
13668,-116.363636363636,4,1,0,60,0,0
13754,-117.001896600744,4,1,0,60,0,0
13839,-117.647058823529,4,1,0,60,0,0
19293,-117.647058823529,4,1,0,60,0,0
19464,-116.186930829273,4,1,0,60,0,0
19549,-115.470241009487,4,1,0,60,0,0
19634,-114.762470376937,4,1,0,60,0,0
19805,-113.372643407891,4,1,0,60,0,0
19890,-112.690150542772,4,1,0,60,0,0
19975,-112.015951071433,4,1,0,60,0,0
20146,-110.691467458922,4,1,0,60,0,0
20231,-110.040781113481,4,1,0,60,0,0
20316,-109.397819701453,4,1,0,60,0,0
20487,-108.134177212452,4,1,0,60,0,0
20572,-107.513124664693,4,1,0,60,0,0
20657,-106.899279498856,4,1,0,60,0,0
20742,-106.292404025931,4,1,0,60,0,0
20828,-105.692380213541,4,1,0,60,0,0
20913,-105.098982221456,4,1,0,60,0,0
20998,-104.512319389648,4,1,0,60,0,0
21168,-103.358425313719,4,1,0,60,0,0
21254,-102.79087504844,4,1,0,60,0,0
21339,-102.229628190842,4,1,0,60,0,0
21509,-101.125322589779,4,1,0,80,0,0
21680,-100.044519811316,4,1,0,80,0,0
22021,-86.9565217391304,4,1,0,80,0,0
22191,-87.6712328767123,4,1,0,80,0,0
22362,-88.3977900552486,4,1,0,80,0,0
22532,-89.1364902506964,4,1,0,80,0,0
22617,-89.5104494498688,4,1,0,80,0,0
22703,-89.8876404494382,4,1,0,80,0,0
22788,-90.2680238163154,4,1,0,80,0,0
22873,-90.6515580736544,4,1,0,80,0,0
22958,-91.0383653879418,4,1,0,80,0,0
23043,-91.4285714285714,4,1,0,80,0,0
23214,-92.2190201729107,4,1,0,80,0,0
23384,-93.0232558139535,4,1,0,80,0,0
23555,-93.841642228739,4,1,0,80,0,0
23640,-94.2563036259457,4,1,0,80,0,0
23725,-94.6745562130178,4,1,0,80,0,0
23896,-95.5223880597015,4,1,0,80,0,0
24066,-96.3855421686747,4,1,0,80,0,0
24151,-96.823042334907,4,1,0,80,0,0
24237,-97.2644376899696,4,1,0,80,0,0
24322,-97.7098759279995,4,1,0,80,0,0
24407,-98.159509202454,4,1,0,80,0,0
24492,-98.6132025327815,4,1,0,80,0,0
24578,-99.0712074303406,4,1,0,80,0,0
24663,-99.5333874794961,4,1,0,80,0,0
24748,-100,4,1,0,80,0,0
31566,-100,4,1,0,80,0,0
31736,-98.1688563230069,4,1,0,80,0,0
31822,-97.2782517930814,4,1,0,80,0,0
31907,-96.4035684744906,4,1,0,80,0,0
32077,-94.7006465213138,4,1,0,80,0,0
32162,-93.8715930478698,4,1,0,80,0,0
32248,-93.0569294377221,4,1,0,80,0,0
32333,-92.2561991553022,4,1,0,80,0,0
32418,-91.4692151209589,4,1,0,80,0,0
32503,-90.6954618711743,4,1,0,80,0,0
32589,-89.9347703110934,4,1,0,80,0,0
32759,-88.4509583661339,4,1,0,80,0,0
32930,-86.9565217391304,4,1,0,80,0,0
33015,-87.3124528512755,4,1,0,80,0,0
33100,-87.6712328767123,4,1,0,80,0,0
33271,-88.3977900552486,4,1,0,80,0,0
33441,-89.1364902506964,4,1,0,80,0,0
33526,-89.5104494498688,4,1,0,80,0,0
33612,-89.8876404494382,4,1,0,80,0,0
33697,-90.2680238163154,4,1,0,80,0,0
33782,-90.6515580736544,4,1,0,80,0,0
33867,-91.0383653879418,4,1,0,80,0,0
33952,-91.4285714285714,4,1,0,80,0,0
34123,-92.2190201729107,4,1,0,80,0,0
34293,-93.0232558139535,4,1,0,80,0,0
34464,-93.841642228739,4,1,0,80,0,0
34549,-94.2563036259457,4,1,0,80,0,0
34634,-94.6745562130178,4,1,0,80,0,0
34805,-95.5223880597015,4,1,0,80,0,0
34975,-96.3855421686747,4,1,0,80,0,0
35060,-96.823042334907,4,1,0,80,0,0
35146,-97.2644376899696,4,1,0,80,0,0
35231,-97.7098759279995,4,1,0,80,0,0
35316,-98.159509202454,4,1,0,80,0,0
35401,-98.6132025327815,4,1,0,80,0,0
35487,-99.0712074303406,4,1,0,80,0,0
35572,-99.5333874794961,4,1,0,80,0,0
35657,-100,4,1,0,80,0,0
35828,-100,4,1,0,80,0,0
35913,-99.8335774264301,4,1,0,80,0,0
35998,-99.667807198607,4,1,0,80,0,0
36168,-99.3377154510876,4,1,0,80,0,0
36339,-99.009900990099,4,1,0,80,0,0
36424,-98.8467549104597,4,1,0,80,0,0
36509,-98.6842429882378,4,1,0,80,0,0
36595,-98.5221674876847,4,1,0,80,0,0
36680,-98.3606234883202,4,1,0,80,0,0
36850,-98.0392156862745,4,1,0,80,0,0
37021,-97.7199015374272,4,1,0,80,0,0
37191,-97.4025657783877,4,1,0,80,0,0
37276,-97.244764098789,4,1,0,80,0,0
37362,-97.0873786407767,4,1,0,80,0,0
37532,-96.774224765879,4,1,0,80,0,0
37703,-96.4629914909995,4,1,0,80,0,0
37788,-96.3082171133923,4,1,0,80,0,0
37873,-96.1538461538461,4,1,0,80,0,0
37958,-95.9999692800098,4,1,0,80,0,0
38043,-95.8466759893533,4,1,0,80,0,0
38129,-95.6937799043062,4,1,0,80,0,0
38214,-95.5413708466972,4,1,0,80,0,0
38299,-95.3895374847496,4,1,0,80,0,0
38384,-95.2380952380952,4,1,0,80,0,0
38555,-94.9367389040313,4,1,0,80,0,0
38640,-94.7867298578199,4,1,0,80,0,0
38725,-94.6371941207589,4,1,0,80,0,0
38896,-94.3396226415094,4,1,0,80,0,0
39066,-94.043916628187,4,1,0,80,0,0
39151,-93.8967136150235,4,1,0,80,0,0
39237,-93.7499707031342,4,1,0,80,0,0
39322,-93.6037733553115,4,1,0,80,0,0
39407,-93.4579439252336,4,1,0,80,0,0
39578,-93.1677307974319,4,1,0,80,0,0
39748,-92.8792282107653,4,1,0,80,0,0
39918,-92.5925925925926,4,1,0,80,0,0
40004,-92.4498944684455,4,1,0,80,0,0
40089,-92.3077207100679,4,1,0,80,0,0
40259,-92.0245116489228,4,1,0,80,0,0
40345,-91.8836422308246,4,1,0,80,0,0
40430,-91.743119266055,4,1,0,80,0,0
40515,-91.6030254647251,4,1,0,80,0,0
40600,-91.4634425193422,4,1,0,80,0,0
40685,-91.324200913242,4,1,0,80,0,0
40771,-91.1853826184247,4,1,0,80,0,0
40941,-90.9090909090909,4,1,0,80,0,0
41112,-90.6344684696279,4,1,0,80,0,0
41282,-90.3614185658378,4,1,0,80,0,0
41453,-90.0900900900901,4,1,0,80,0,0
41623,-89.8203861737683,4,1,0,80,0,0
41793,-89.5522120739665,4,1,0,80,0,0
41964,-89.2857142857143,4,1,0,80,0,0
42134,-89.0207979290202,4,1,0,80,0,0
42305,-88.7573701901272,4,1,0,80,0,0
42475,-88.495575221239,4,1,0,80,0,0
42560,-88.365216976372,4,1,0,80,0,0
42646,-88.2353200692118,4,1,0,80,0,0
42731,-88.1057268722467,4,1,0,80,0,0
42816,-87.9765137898787,4,1,0,80,0,0
42901,-87.8477563243796,4,1,0,80,0,0
42987,-87.719298245614,4,1,0,80,0,0
43072,-87.591215301835,4,1,0,80,0,0
43157,-87.4635823508986,4,1,0,80,0,0
43242,-87.3362445414847,4,1,0,80,0,0
43328,-87.2092769740474,4,1,0,80,0,0
43413,-87.0827538701753,4,1,0,80,0,0
43498,-86.9565217391304,4,1,0,80,0,0
43839,-100,4,1,0,50,0,0
44350,-104.918032786885,4,1,0,50,0,0
44862,-110.344827586207,4,1,0,50,0,0
45203,-116.363636363636,4,1,0,50,0,0
45884,-123.076923076923,4,1,0,50,0,0
46225,-128,4,1,0,50,0,0
46566,-133.333333333333,4,1,0,50,0,0
62930,-133.333333333333,4,1,0,50,0,0
63441,-125.490196078431,4,1,0,50,0,0
63952,-118.518518518519,4,1,0,50,0,0
64464,-112.280701754386,4,1,0,50,0,0
64975,-106.666666666667,4,1,0,50,0,0
65316,-103.225806451613,4,1,0,50,0,0
65657,-100,4,1,0,60,0,0
65998,-100,4,1,0,50,0,0
66168,-101.818167008267,4,1,0,50,0,0
66509,-105.660329512304,4,1,0,50,0,0
66680,-107.692357396473,4,1,0,50,0,0
67021,-112.000017920003,4,1,0,50,0,0
67191,-114.285714285714,4,1,0,50,0,0
67532,-119.148895608887,4,1,0,50,0,0
67702,-121.739066918748,4,1,0,50,0,0
68043,-127.272773553736,4,1,0,50,0,0
68384,-133.333333333333,4,1,0,50,0,0
76566,-117.647058823529,4,1,0,60,0,0
76737,-116.910795893625,4,1,0,60,0,0
76907,-116.183691062918,4,1,0,60,0,0
77078,-115.465574516286,4,1,0,60,0,0
77248,-114.75614892135,4,1,0,60,0,0
77418,-114.055517663778,4,1,0,60,0,0
77589,-113.363389746735,4,1,0,60,0,0
77674,-113.020402443049,4,1,0,60,0,0
77759,-112.679611300413,4,1,0,60,0,0
77930,-112.004032145157,4,1,0,60,0,0
78100,-111.336505681502,4,1,0,60,0,0
78271,-110.676766290513,4,1,0,60,0,0
78441,-110.024920644526,4,1,0,60,0,0
78526,-109.701928889016,4,1,0,60,0,0
78612,-109.380708305715,4,1,0,60,0,0
78697,-109.061482320043,4,1,0,60,0,0
78782,-108.743995972122,4,1,0,60,0,0
78953,-108.114653427667,4,1,0,60,0,0
79038,-107.802647848636,4,1,0,60,0,0
79123,-107.49255345336,4,1,0,60,0,0
79208,-107.184123030224,4,1,0,60,0,0
79293,-106.877457513539,4,1,0,60,0,0
79464,-106.269473881089,4,1,0,60,0,0
79634,-105.668368279624,4,1,0,60,0,0
79805,-105.074024650366,4,1,0,60,0,0
79975,-104.486329531076,4,1,0,60,0,0
80145,-103.905171983841,4,1,0,60,0,0
80316,-103.330336753567,4,1,0,60,0,0
80401,-103.045403865851,4,1,0,60,0,0
80486,-102.761932458692,4,1,0,60,0,0
80657,-102.199747362225,4,1,0,60,0,0
80827,-101.643679948446,4,1,0,60,0,0
80998,-101.093630899066,4,1,0,60,0,0
81168,-100.549503034081,4,1,0,60,0,0
81253,-100.279579467556,4,1,0,60,0,0
81339,-100.011201254541,4,1,0,60,0,0
81424,-99.7441562392463,4,1,0,60,0,0
81509,-99.4785335272502,4,1,0,60,0,0
81680,-98.9516077162464,4,1,0,60,0,0
81765,-98.6902812771707,4,1,0,60,0,0
81850,-98.4302346183072,4,1,0,60,0,0
81935,-98.171554791999,4,1,0,60,0,0
82021,-97.9143269222296,4,1,0,80,0,0
82192,-97.4037991377816,4,1,0,80,0,0
82362,-96.8985675484759,4,1,0,80,0,0
82532,-96.3984572390903,4,1,0,80,0,0
82703,-95.9035747098437,4,1,0,80,0,0
82873,-95.4137474035534,4,1,0,80,0,0
83044,-94.9288982552068,4,1,0,80,0,0
83129,-94.6882720053177,4,1,0,80,0,0
83214,-94.4489517583089,4,1,0,80,0,0
83385,-93.9738339256817,4,1,0,80,0,0
83555,-93.5033848225306,4,1,0,80,0,0
83726,-93.037709113881,4,1,0,80,0,0
83896,-92.5766488364041,4,1,0,80,0,0
83981,-92.3478707351445,4,1,0,80,0,0
84067,-92.1201357113839,4,1,0,80,0,0
84152,-91.8935211391856,4,1,0,80,0,0
84237,-91.6681028002772,4,1,0,80,0,0
84407,-91.220484471993,4,1,0,80,0,0
84493,-90.9982692129196,4,1,0,80,0,0
84578,-90.777133966171,4,1,0,80,0,0
84663,-90.5571528831134,4,1,0,80,0,0
84748,-90.3381537772189,4,1,0,80,0,0
84918,-89.9033987979916,4,1,0,80,0,0
85089,-89.4728083188238,4,1,0,80,0,0
85259,-89.0463227875773,4,1,0,80,0,0
85430,-88.6238837821838,4,1,0,80,0,0
85600,-88.205433983966,4,1,0,80,0,0
85771,-87.7908400793278,4,1,0,80,0,0
85941,-87.3802017434098,4,1,0,80,0,0
86112,-86.9565217391304,4,1,0,80,0,0
86282,-88.8888888888889,4,1,0,80,0,0
86453,-90.9090909090909,4,1,0,80,0,0
86538,-91.9540229885058,4,1,0,80,0,0
86623,-93.0232558139535,4,1,0,80,0,0
86793,-95.2380952380952,4,1,0,80,0,0
86879,-96.3855421686747,4,1,0,80,0,0
86964,-97.5609756097561,4,1,0,80,0,0
87049,-98.7654320987654,4,1,0,80,0,0
87134,-100,4,1,0,80,0,0
87475,-100,4,1,0,80,0,0
106566,-100,4,1,0,80,0,0
106737,-99.0712074303406,4,1,0,80,0,0
106822,-98.6132025327815,4,1,0,80,0,0
106907,-98.159509202454,4,1,0,80,0,0
107077,-97.2644376899696,4,1,0,80,0,0
107248,-96.3855421686747,4,1,0,80,0,0
107333,-95.9519779540736,4,1,0,80,0,0
107418,-95.5223880597015,4,1,0,80,0,0
107504,-95.0966276833891,4,1,0,80,0,0
107589,-94.6745562130178,4,1,0,80,0,0
107759,-93.841642228739,4,1,0,80,0,0
107930,-93.0232558139535,4,1,0,80,0,0
108100,-92.2190201729107,4,1,0,80,0,0
108185,-91.8221368480399,4,1,0,80,0,0
108271,-91.4285714285714,4,1,0,80,0,0
108441,-90.6515580736544,4,1,0,80,0,0
108612,-89.8876404494382,4,1,0,80,0,0
108697,-89.5104494498688,4,1,0,80,0,0
108782,-89.1364902506964,4,1,0,80,0,0
108867,-88.7656427253893,4,1,0,80,0,0
108952,-88.3977900552486,4,1,0,80,0,0
109038,-88.0330511287158,4,1,0,80,0,0
109123,-87.6712328767123,4,1,0,80,0,0
109208,-87.3124528512755,4,1,0,80,0,0
109293,-86.9565217391304,4,1,0,80,0,0
109464,-87.6693882167082,4,1,0,80,0,0
109634,-88.3939612781413,4,1,0,80,0,0
109805,-89.1306905489381,4,1,0,80,0,0
109890,-89.503639665507,4,1,0,80,0,0
109975,-89.8798037384606,4,1,0,80,0,0
110060,-90.2590615584852,4,1,0,80,0,0
110146,-90.641533582235,4,1,0,80,0,0
110231,-91.0273437037752,4,1,0,80,0,0
110316,-91.4163686493049,4,1,0,80,0,0
110487,-92.2045650480155,4,1,0,80,0,0
110657,-93.0063848883226,4,1,0,80,0,0
110828,-93.8223604955322,4,1,0,80,0,0
110913,-94.2356966703701,4,1,0,80,0,0
110998,-94.6526908813491,4,1,0,80,0,0
111168,-95.4979405869113,4,1,0,80,0,0
111339,-96.3584224969936,4,1,0,80,0,0
111424,-96.7944579365164,4,1,0,80,0,0
111509,-97.2344575581316,4,1,0,80,0,0
111595,-97.6785710797194,4,1,0,80,0,0
111680,-98.1266638602441,4,1,0,80,0,0
111765,-98.5788867683475,4,1,0,80,0,0
111850,-99.0353952502624,4,1,0,80,0,0
111935,-99.4960524941173,4,1,0,80,0,0
112021,-99.9610152040704,4,1,0,80,0,0
117475,-100,4,1,0,80,0,0
117646,-99.0712074303406,4,1,0,80,0,0
117731,-98.6132025327815,4,1,0,80,0,0
117816,-98.159509202454,4,1,0,80,0,0
117986,-97.2644376899696,4,1,0,80,0,0
118157,-96.3855421686747,4,1,0,80,0,0
118242,-95.9519779540736,4,1,0,80,0,0
118327,-95.5223880597015,4,1,0,80,0,0
118413,-95.0966276833891,4,1,0,80,0,0
118498,-94.6745562130178,4,1,0,80,0,0
118668,-93.841642228739,4,1,0,80,0,0
118839,-93.0232558139535,4,1,0,80,0,0
119009,-92.2190201729107,4,1,0,80,0,0
119094,-91.8221368480399,4,1,0,80,0,0
119180,-91.4285714285714,4,1,0,80,0,0
119350,-90.6515580736544,4,1,0,80,0,0
119521,-89.8876404494382,4,1,0,80,0,0
119606,-89.5104494498688,4,1,0,80,0,0
119691,-89.1364902506964,4,1,0,80,0,0
119776,-88.7656427253893,4,1,0,80,0,0
119861,-88.3977900552486,4,1,0,80,0,0
119947,-88.0330511287158,4,1,0,80,0,0
120032,-87.6712328767123,4,1,0,80,0,0
120117,-87.3124528512755,4,1,0,80,0,0
120202,-86.9565217391304,4,1,0,80,0,0
120288,-87.3114618121494,4,1,0,80,0,0
120373,-87.6693882167082,4,1,0,80,0,0
120543,-88.3939612781413,4,1,0,80,0,0
120714,-89.1306905489381,4,1,0,80,0,0
120799,-89.503639665507,4,1,0,80,0,0
120884,-89.8798037384606,4,1,0,80,0,0
120969,-90.2590615584852,4,1,0,80,0,0
121055,-90.641533582235,4,1,0,80,0,0
121140,-91.0273437037752,4,1,0,80,0,0
121225,-91.4163686493049,4,1,0,80,0,0
121396,-92.2045650480155,4,1,0,80,0,0
121566,-93.0063848883226,4,1,0,80,0,0
121737,-93.8223604955322,4,1,0,80,0,0
121822,-94.2356966703701,4,1,0,80,0,0
121907,-94.6526908813491,4,1,0,80,0,0
122077,-95.4979405869113,4,1,0,80,0,0
122248,-96.3584224969936,4,1,0,80,0,0
122333,-96.7944579365164,4,1,0,80,0,0
122418,-97.2344575581316,4,1,0,80,0,0
122504,-97.6785710797194,4,1,0,80,0,0
122589,-98.1266638602441,4,1,0,80,0,0
122674,-98.5788867683475,4,1,0,80,0,0
122759,-99.0353952502624,4,1,0,80,0,0
122844,-99.4960524941173,4,1,0,80,0,0
122930,-100,4,1,0,80,0,0
123100,-99.6887716548934,4,1,0,80,0,0
123185,-99.5338828267225,4,1,0,80,0,0
123271,-99.3793757981406,4,1,0,80,0,0
123441,-99.0719926448953,4,1,0,80,0,0
123612,-98.7665051175865,4,1,0,80,0,0
123697,-98.6144667422711,4,1,0,80,0,0
123782,-98.4628957346858,4,1,0,80,0,0
123867,-98.3116932911117,4,1,0,80,0,0
123953,-98.1610508729462,4,1,0,80,0,0
124123,-97.8611467760624,4,1,0,80,0,0
124293,-97.5630696463729,4,1,0,80,0,0
124464,-97.2667082319733,4,1,0,80,0,0
124549,-97.1192488408818,4,1,0,80,0,0
124634,-96.9722358791454,4,1,0,80,0,0
124805,-96.6795411588976,4,1,0,80,0,0
124975,-96.388608023195,4,1,0,80,0,0
125060,-96.2437044586821,4,1,0,80,0,0
125146,-96.0993282656954,4,1,0,80,0,0
125231,-95.9553845843836,4,1,0,80,0,0
125316,-95.8118714741231,4,1,0,80,0,0
125401,-95.6687870058827,4,1,0,80,0,0
125487,-95.5261292621371,4,1,0,80,0,0
125572,-95.3838963367815,4,1,0,80,0,0
125657,-95.2419956245827,4,1,0,80,0,0
125828,-94.9596374061205,4,1,0,80,0,0
125913,-94.8190851854661,4,1,0,80,0,0
125998,-94.6789484198557,4,1,0,80,0,0
126168,-94.3998247939252,4,1,0,80,0,0
126339,-94.1224306929482,4,1,0,80,0,0
126424,-93.9843440879618,4,1,0,80,0,0
126509,-93.8466620619238,4,1,0,80,0,0
126595,-93.7093828393756,4,1,0,80,0,0
126680,-93.5725046552321,4,1,0,80,0,0
126850,-93.2998573445181,4,1,0,80,0,0
127021,-93.0288808160494,4,1,0,80,0,0
127191,-92.7594737569535,4,1,0,80,0,0
127276,-92.6253545235444,4,1,0,80,0,0
127362,-92.4915370243623,4,1,0,80,0,0
127532,-92.2252287646799,4,1,0,80,0,0
127703,-91.9604496498146,4,1,0,80,0,0
127788,-91.8286294117917,4,1,0,80,0,0
127873,-91.6971865469224,4,1,0,80,0,0
127958,-91.5660355935493,4,1,0,80,0,0
128043,-91.4353428688205,4,1,0,80,0,0
128129,-91.3050226892981,4,1,0,80,0,0
128214,-91.1750734643154,4,1,0,80,0,0
128299,-91.0454936122482,4,1,0,80,0,0
128384,-90.9162815604507,4,1,0,80,0,0
128555,-90.6588724212084,4,1,0,80,0,0
128640,-90.5307546553177,4,1,0,80,0,0
128725,-90.4029984866538,4,1,0,80,0,0
128896,-90.1485648348478,4,1,0,80,0,0
129066,-89.8955593391598,4,1,0,80,0,0
129151,-89.7695078117426,4,1,0,80,0,0
129237,-89.6438896483718,4,1,0,80,0,0
129322,-89.518622559051,4,1,0,80,0,0
129407,-89.3937050740761,4,1,0,80,0,0
129578,-89.1449130792525,4,1,0,80,0,0
129748,-88.8974230415009,4,1,0,80,0,0
129833,-88.7742320363122,4,1,0,80,0,0
129918,-88.6513819863938,4,1,0,80,0,0
130004,-88.5288714782108,4,1,0,80,0,0
130089,-88.4066991060315,4,1,0,80,0,0
130259,-88.1633631854481,4,1,0,80,0,0
130430,-87.921285831221,4,1,0,80,0,0
130515,-87.8007835341923,4,1,0,80,0,0
130600,-87.6806110987871,4,1,0,80,0,0
130685,-87.5607671724177,4,1,0,80,0,0
130771,-87.4412504098809,4,1,0,80,0,0
130856,-87.3220594733083,4,1,0,80,0,0
130941,-87.2031169882136,4,1,0,80,0,0
131026,-87.0845739256594,4,1,0,80,0,0
131112,-86.9663527181334,4,1,0,80,0,1
150203,-86.9565217391304,4,1,0,80,0,1
150373,-87.6712328767123,4,1,0,80,0,1
150458,-88.0330511287158,4,1,0,80,0,1
150543,-88.3977900552486,4,1,0,80,0,1
150714,-89.1364902506964,4,1,0,80,0,1
150884,-89.8876404494382,4,1,0,80,0,1
150970,-90.2680238163154,4,1,0,80,0,1
151055,-90.6515580736544,4,1,0,80,0,1
151140,-91.0383653879418,4,1,0,80,0,1
151225,-91.4285714285714,4,1,0,80,0,1
151396,-92.2190201729107,4,1,0,80,0,1
151566,-93.0232558139535,4,1,0,80,0,1
151737,-93.841642228739,4,1,0,80,0,1
151822,-94.2563036259457,4,1,0,80,0,1
151907,-94.6745562130178,4,1,0,80,0,1
152078,-95.5223880597015,4,1,0,80,0,1
152248,-96.3855421686747,4,1,0,80,0,1
152333,-96.823042334907,4,1,0,80,0,1
152418,-97.2644376899696,4,1,0,80,0,1
152504,-97.7098759279995,4,1,0,80,0,1
152589,-98.159509202454,4,1,0,80,0,1
152674,-98.6132025327815,4,1,0,80,0,1
152759,-99.0712074303406,4,1,0,80,0,1
152845,-99.5333874794961,4,1,0,80,0,1
152930,-100,4,1,0,80,0,1
172021,-100,4,1,0,80,0,1
172106,-99.5333874794961,4,1,0,80,0,1
172191,-99.0712074303406,4,1,0,80,0,1
172276,-98.6132025327815,4,1,0,80,0,1
172362,-98.159509202454,4,1,0,80,0,1
172447,-97.7098759279995,4,1,0,80,0,1
172532,-97.2644376899696,4,1,0,80,0,1
172617,-96.823042334907,4,1,0,80,0,1
172703,-96.3855421686747,4,1,0,80,0,1
172788,-95.9519779540736,4,1,0,80,0,1
172873,-95.5223880597015,4,1,0,80,0,1
172958,-95.0966276833891,4,1,0,80,0,1
173043,-94.6745562130178,4,1,0,80,0,1
173129,-94.2563036259457,4,1,0,80,0,1
173214,-93.841642228739,4,1,0,80,0,1
173299,-93.4307005807652,4,1,0,80,0,1
173384,-93.0232558139535,4,1,0,80,0,1
173470,-92.6193492934996,4,1,0,80,0,1
173555,-92.2190201729107,4,1,0,80,0,1
173640,-91.8221368480399,4,1,0,80,0,1
173725,-91.4285714285714,4,1,0,80,0,1
173810,-91.0383653879418,4,1,0,80,0,1
173896,-90.6515580736544,4,1,0,80,0,1
173981,-90.2680238163154,4,1,0,80,0,1
174066,-89.8876404494382,4,1,0,80,0,1
174151,-89.5104494498688,4,1,0,80,0,1
174237,-89.1364902506964,4,1,0,80,0,1
174322,-88.7656427253893,4,1,0,80,0,1
174407,-88.3977900552486,4,1,0,80,0,1
174578,-87.6712328767123,4,1,0,80,0,1
174748,-86.9565217391304,4,1,0,80,0,0
175259,-93.0232558139535,4,1,0,50,0,0
175771,-100,4,1,0,50,0,0
176112,-108.108108108108,4,1,0,50,0,0
176793,-117.647058823529,4,1,0,50,0,0
177134,-125,4,1,0,50,0,0
177475,-133.333333333333,4,1,0,50,0,0
185657,-133.333333333333,4,1,0,50,0,0
186168,-130.081300813008,4,1,0,50,0,0
186680,-126.984126984127,4,1,0,50,0,0
187191,-124.031007751938,4,1,0,50,0,0
187702,-121.212121212121,4,1,0,50,0,0
188043,-119.402985074627,4,1,0,50,0,0
188384,-117.647058823529,4,1,0,50,0,0
188896,-115.107913669065,4,1,0,50,0,0
189407,-112.676056338028,4,1,0,50,0,0
189918,-110.344827586207,4,1,0,50,0,0
190430,-108.108108108108,4,1,0,50,0,0
190771,-106.666666666667,4,1,0,50,0,0
191112,-105.263157894737,4,1,0,50,0,0
191623,-103.225806451613,4,1,0,50,0,0
192134,-101.26582278481,4,1,0,50,0,0
192646,-99.3788819875776,4,1,0,50,0,0
193157,-97.5609756097561,4,1,0,50,0,0
193498,-96.3855421686747,4,1,0,50,0,0
193839,-95.2380952380952,4,1,0,50,0,0
194350,-93.5672514619883,4,1,0,50,0,0
194862,-91.9540229885058,4,1,0,50,0,0
195373,-90.3954802259887,4,1,0,50,0,0
195884,-88.8888888888889,4,1,0,50,0,0
196225,-87.9120879120879,4,1,0,50,0,0
196566,-86.9565217391304,4,1,0,60,0,0
196906,-90.9090909090909,4,1,0,50,0,0
197247,-95.2380952380952,4,1,0,50,0,0
197418,-97.5609756097561,4,1,0,50,0,0
197588,-100,4,1,0,50,0,0
197759,-102.564102564103,4,1,0,50,0,0
197929,-105.263157894737,4,1,0,50,0,0
198270,-111.111111111111,4,1,0,50,0,0
198611,-117.647058823529,4,1,0,50,0,0
198781,-121.212121212121,4,1,0,50,0,0
198952,-125,4,1,0,50,0,0
199293,-133.333333333333,4,1,0,50,0,0
207475,-133.333333333333,4,1,0,50,0,0
207816,-130.314213631909,4,1,0,51,0,0
208157,-127.428955171768,4,1,0,52,0,0
208328,-126.033633335392,4,1,0,53,0,0
208498,-124.668537525853,4,1,0,54,0,0
208839,-122.025327576992,4,1,0,55,0,0
209180,-119.491729977368,4,1,0,56,0,0
209521,-117.061338971007,4,1,0,57,0,0
209691,-115.882777617473,4,1,0,58,0,0
209862,-114.727710987129,4,1,0,59,0,0
210202,-112.485306606824,4,1,0,60,0,0
210543,-110.329001081224,4,1,0,61,0,0
210884,-108.2536946986,4,1,0,62,0,0
211055,-107.245161366432,4,1,0,63,0,0
211225,-106.255133451135,4,1,0,64,0,0
211566,-104.32891987226,4,1,0,66,0,0
211907,-102.471405354336,4,1,0,67,0,0
212248,-100.678776309881,4,1,0,68,0,0
212418,-99.8057779560974,4,1,0,69,0,0
212589,-98.9478871162925,4,1,0,70,0,0
212930,-97.2754129584469,4,1,0,71,0,0
213271,-95.6585372853064,4,1,0,72,0,0
213612,-94.0946215514321,4,1,0,73,0,0
213782,-93.331640919578,4,1,0,74,0,0
213953,-92.5809342527237,4,1,0,75,0,0
214293,-91.1152598926116,4,1,0,76,0,0
214634,-89.6951888397658,4,1,0,77,0,0
214975,-88.3187813421275,4,1,0,78,0,0
215146,-87.6462596958675,4,1,0,79,0,0
215316,-86.9839027589554,4,1,0,80,0,0
218043,-66.6666666666667,4,1,0,80,0,0
218384,-86.9565217391304,4,1,0,80,0,1
237475,-86.9565217391304,4,1,0,80,0,1
237645,-87.6712328767123,4,1,0,80,0,1
237730,-88.0330511287158,4,1,0,80,0,1
237816,-88.3977900552486,4,1,0,80,0,1
237986,-89.1364902506964,4,1,0,80,0,1
238157,-89.8876404494382,4,1,0,80,0,1
238242,-90.2680238163154,4,1,0,80,0,1
238327,-90.6515580736544,4,1,0,80,0,1
238412,-91.0383653879418,4,1,0,80,0,1
238497,-91.4285714285714,4,1,0,80,0,1
238668,-92.2190201729107,4,1,0,80,0,1
238753,-92.6193492934996,4,1,0,80,0,1
238838,-93.0232558139535,4,1,0,80,0,1
239009,-93.841642228739,4,1,0,80,0,1
239094,-94.2563036259457,4,1,0,80,0,1
239179,-94.6745562130178,4,1,0,80,0,1
239350,-95.5223880597015,4,1,0,80,0,1
239520,-96.3855421686747,4,1,0,80,0,1
239605,-96.823042334907,4,1,0,80,0,1
239691,-97.2644376899696,4,1,0,80,0,1
239776,-97.7098759279995,4,1,0,80,0,1
239861,-98.159509202454,4,1,0,80,0,1
239946,-98.6132025327815,4,1,0,80,0,1
240032,-99.0712074303406,4,1,0,80,0,1
240202,-100,4,1,0,80,0,1
259293,-100,4,1,0,80,0,1
259464,-99.0735631113458,4,1,0,80,0,1
259549,-98.6168007526434,4,1,0,80,0,1
259634,-98.1642307212813,4,1,0,80,0,1
259805,-97.271344251069,4,1,0,80,0,1
259975,-96.3945544788284,4,1,0,80,0,1
260060,-95.9621064833918,4,1,0,80,0,1
260146,-95.5335212796142,4,1,0,80,0,1
260231,-95.1086568850583,4,1,0,80,0,1
260316,-94.6876443986577,4,1,0,80,0,1
260487,-93.8566152488843,4,1,0,80,0,1
260657,-93.0401328613097,4,1,0,80,0,1
260828,-92.2376484564952,4,1,0,80,0,1
260913,-91.8416172941439,4,1,0,80,0,1
260998,-91.4489723878973,4,1,0,80,0,1
261168,-90.6735868748169,4,1,0,80,0,1
261339,-89.9112396242429,4,1,0,80,0,1
261424,-89.5348930908609,4,1,0,80,0,1
261509,-89.1616840145583,4,1,0,80,0,1
261595,-88.7914944851603,4,1,0,80,0,1
261680,-88.4244444071097,4,1,0,80,0,1
261765,-88.0604164905458,4,1,0,80,0,1
261850,-87.6992966516409,4,1,0,80,0,1
261935,-87.3412027757034,4,1,0,80,0,1
262021,-86.9565217391304,4,1,0,80,0,1
262191,-87.6712328767123,4,1,0,80,0,1
262362,-88.3977900552486,4,1,0,80,0,1
262532,-89.1364902506964,4,1,0,80,0,1
262617,-89.5104494498688,4,1,0,80,0,1
262703,-89.8876404494382,4,1,0,80,0,1
262788,-90.2680238163154,4,1,0,80,0,1
262873,-90.6515580736544,4,1,0,80,0,1
262958,-91.0383653879418,4,1,0,80,0,1
263043,-91.4285714285714,4,1,0,80,0,1
263214,-92.2190201729107,4,1,0,80,0,1
263384,-93.0232558139535,4,1,0,80,0,1
263555,-93.841642228739,4,1,0,80,0,1
263640,-94.2563036259457,4,1,0,80,0,1
263725,-94.6745562130178,4,1,0,80,0,1
263896,-95.5223880597015,4,1,0,80,0,1
264066,-96.3855421686747,4,1,0,80,0,1
264151,-96.823042334907,4,1,0,80,0,1
264237,-97.2644376899696,4,1,0,80,0,1
264322,-97.7098759279995,4,1,0,80,0,1
264407,-98.159509202454,4,1,0,80,0,1
264492,-98.6132025327815,4,1,0,80,0,1
264578,-99.0712074303406,4,1,0,80,0,1
264663,-99.5333874794961,4,1,0,80,0,1
264748,-100,4,1,0,80,0,1
270203,-100,4,1,0,80,0,1
270373,-99.0712074303406,4,1,0,80,0,1
270458,-98.6132025327815,4,1,0,80,0,1
270543,-98.159509202454,4,1,0,80,0,1
270714,-97.2644376899696,4,1,0,80,0,1
270884,-96.3855421686747,4,1,0,80,0,1
270970,-95.9519779540736,4,1,0,80,0,1
271055,-95.5223880597015,4,1,0,80,0,1
271140,-95.0966276833891,4,1,0,80,0,1
271225,-94.6745562130178,4,1,0,80,0,1
271396,-93.841642228739,4,1,0,80,0,1
271566,-93.0232558139535,4,1,0,80,0,1
271737,-92.2190201729107,4,1,0,80,0,1
271822,-91.8221368480399,4,1,0,80,0,1
271907,-91.4285714285714,4,1,0,80,0,1
272078,-90.6515580736544,4,1,0,80,0,1
272248,-89.8876404494382,4,1,0,80,0,1
272333,-89.5104494498688,4,1,0,80,0,1
272418,-89.1364902506964,4,1,0,80,0,1
272504,-88.7656427253893,4,1,0,80,0,1
272589,-88.3977900552486,4,1,0,80,0,1
272674,-88.0330511287158,4,1,0,80,0,1
272759,-87.6712328767123,4,1,0,80,0,1
272845,-87.3124528512755,4,1,0,80,0,1
272930,-86.9565217391304,4,1,0,80,0,1
273015,-87.3124528512755,4,1,0,80,0,1
273100,-87.6712328767123,4,1,0,80,0,1
273271,-88.3977900552486,4,1,0,80,0,1
273441,-89.1364902506964,4,1,0,80,0,1
273526,-89.5104494498688,4,1,0,80,0,1
273612,-89.8876404494382,4,1,0,80,0,1
273697,-90.2680238163154,4,1,0,80,0,1
273782,-90.6515580736544,4,1,0,80,0,1
273867,-91.0383653879418,4,1,0,80,0,1
273953,-91.4285714285714,4,1,0,80,0,1
274123,-92.2190201729107,4,1,0,80,0,1
274293,-93.0232558139535,4,1,0,80,0,1
274464,-93.841642228739,4,1,0,80,0,1
274549,-94.2563036259457,4,1,0,80,0,1
274634,-94.6745562130178,4,1,0,80,0,1
274805,-95.5223880597015,4,1,0,80,0,1
274975,-96.3855421686747,4,1,0,80,0,1
275060,-96.823042334907,4,1,0,80,0,1
275146,-97.2644376899696,4,1,0,80,0,1
275231,-97.7098759279995,4,1,0,80,0,1
275316,-98.159509202454,4,1,0,80,0,1
275401,-98.6132025327815,4,1,0,80,0,1
275487,-99.0712074303406,4,1,0,80,0,1
275572,-99.5333874794961,4,1,0,80,0,1
275657,-100,4,1,0,80,0,1
281112,-100,4,1,0,80,0,1
281282,-99.0712074303406,4,1,0,80,0,1
281367,-98.6132025327815,4,1,0,80,0,1
281453,-98.159509202454,4,1,0,80,0,1
281623,-97.2644376899696,4,1,0,80,0,1
281793,-96.3855421686747,4,1,0,80,0,1
281879,-95.9519779540736,4,1,0,80,0,1
281964,-95.5223880597015,4,1,0,80,0,1
282049,-95.0966276833891,4,1,0,80,0,1
282134,-94.6745562130178,4,1,0,80,0,1
282305,-93.841642228739,4,1,0,80,0,1
282475,-93.0232558139535,4,1,0,80,0,1
282560,-92.6193492934996,4,1,0,80,0,1
282646,-92.2190201729107,4,1,0,80,0,1
282731,-91.8221368480399,4,1,0,80,0,1
282816,-91.4285714285714,4,1,0,80,0,1
282987,-90.6515580736544,4,1,0,80,0,1
283157,-89.8876404494382,4,1,0,80,0,1
283242,-89.5104494498688,4,1,0,80,0,1
283328,-89.1364902506964,4,1,0,80,0,1
283413,-88.7656427253893,4,1,0,80,0,1
283498,-88.3977900552486,4,1,0,80,0,1
283583,-88.0330511287158,4,1,0,80,0,1
283668,-87.6712328767123,4,1,0,80,0,1
283754,-87.3124528512755,4,1,0,80,0,1
283839,-86.9565217391304,4,1,0,80,0,0
284009,-87.6712328767123,4,1,0,80,0,0
284180,-88.3977900552486,4,1,0,80,0,0
284350,-89.1364902506964,4,1,0,80,0,0
284435,-89.5104494498688,4,1,0,80,0,0
284521,-89.8876404494382,4,1,0,80,0,0
284606,-90.2680238163154,4,1,0,80,0,0
284691,-90.6515580736544,4,1,0,80,0,0
284776,-91.0383653879418,4,1,0,80,0,0
284862,-91.4285714285714,4,1,0,80,0,0
285032,-92.2190201729107,4,1,0,80,0,0
285203,-93.0232558139535,4,1,0,80,0,0
285373,-93.841642228739,4,1,0,80,0,0
285458,-94.2563036259457,4,1,0,80,0,0
285543,-94.6745562130178,4,1,0,80,0,0
285714,-95.5223880597015,4,1,0,80,0,0
285884,-96.3855421686747,4,1,0,80,0,0
285970,-96.823042334907,4,1,0,80,0,0
286055,-97.2644376899696,4,1,0,80,0,0
286140,-97.7098759279995,4,1,0,80,0,0
286225,-98.159509202454,4,1,0,80,0,0
286310,-98.6132025327815,4,1,0,80,0,0
286396,-99.0712074303406,4,1,0,80,0,0
286481,-99.5333874794961,4,1,0,80,0,0
286566,-100,4,1,0,80,0,0
292021,-100,4,1,0,80,0,0
292191,-99.0712074303406,4,1,0,80,0,0
292276,-98.6132025327815,4,1,0,80,0,0
292362,-98.159509202454,4,1,0,80,0,0
292532,-97.2644376899696,4,1,0,80,0,0
292703,-96.3855421686747,4,1,0,80,0,0
292788,-95.9519779540736,4,1,0,80,0,0
292873,-95.5223880597015,4,1,0,80,0,0
292958,-95.0966276833891,4,1,0,80,0,0
293043,-94.6745562130178,4,1,0,80,0,0
293214,-93.841642228739,4,1,0,80,0,0
293384,-93.0232558139535,4,1,0,80,0,0
293555,-92.2190201729107,4,1,0,80,0,0
293640,-91.8221368480399,4,1,0,80,0,0
293725,-91.4285714285714,4,1,0,80,0,0
293896,-90.6515580736544,4,1,0,80,0,0
293981,-90.2680238163154,4,1,0,80,0,0
294066,-89.8876404494382,4,1,0,80,0,0
294151,-89.5104494498688,4,1,0,80,0,0
294237,-89.1364902506964,4,1,0,80,0,0
294322,-88.7656427253893,4,1,0,80,0,0
294407,-88.3977900552486,4,1,0,80,0,0
294578,-87.6712328767123,4,1,0,80,0,0
294748,-86.9565217391304,4,1,0,80,0,0
294833,-87.3124528512755,4,1,0,80,0,0
294918,-87.6712328767123,4,1,0,80,0,0
295089,-88.3977900552486,4,1,0,80,0,0
295259,-89.1364902506964,4,1,0,80,0,0
295345,-89.5104494498688,4,1,0,80,0,0
295430,-89.8876404494382,4,1,0,80,0,0
295515,-90.2680238163154,4,1,0,80,0,0
295600,-90.6515580736544,4,1,0,80,0,0
295685,-91.0383653879418,4,1,0,80,0,0
295771,-91.4285714285714,4,1,0,80,0,0
295941,-92.2190201729107,4,1,0,80,0,0
296112,-93.0232558139535,4,1,0,80,0,0
296282,-93.841642228739,4,1,0,80,0,0
296367,-94.2563036259457,4,1,0,80,0,0
296453,-94.6745562130178,4,1,0,80,0,0
296623,-95.5223880597015,4,1,0,80,0,0
296793,-96.3855421686747,4,1,0,80,0,0
296879,-96.823042334907,4,1,0,80,0,0
296964,-97.2644376899696,4,1,0,80,0,0
297049,-97.7098759279995,4,1,0,80,0,0
297134,-98.159509202454,4,1,0,80,0,0
297220,-98.6132025327815,4,1,0,80,0,0
297305,-99.0712074303406,4,1,0,80,0,0
297390,-99.5333874794961,4,1,0,80,0,0
297475,-100,4,1,0,80,0,0
302930,-100,4,1,0,80,0,0
303100,-99.0712074303406,4,1,0,80,0,0
303185,-98.6132025327815,4,1,0,80,0,0
303271,-98.159509202454,4,1,0,80,0,0
303441,-97.2644376899696,4,1,0,80,0,0
303612,-96.3855421686747,4,1,0,80,0,0
303697,-95.9519779540736,4,1,0,80,0,0
303782,-95.5223880597015,4,1,0,80,0,0
303867,-95.0966276833891,4,1,0,80,0,0
303953,-94.6745562130178,4,1,0,80,0,0
304123,-93.841642228739,4,1,0,80,0,0
304293,-93.0232558139535,4,1,0,80,0,0
304464,-92.2190201729107,4,1,0,80,0,0
304549,-91.8221368480399,4,1,0,80,0,0
304634,-91.4285714285714,4,1,0,80,0,0
304805,-90.6515580736544,4,1,0,80,0,0
304890,-90.2680238163154,4,1,0,80,0,0
304975,-89.8876404494382,4,1,0,80,0,0
305060,-89.5104494498688,4,1,0,80,0,0
305146,-89.1364902506964,4,1,0,80,0,0
305231,-88.7656427253893,4,1,0,80,0,0
305316,-88.3977900552486,4,1,0,80,0,0
305487,-87.6712328767123,4,1,0,80,0,0
305657,-86.9565217391304,4,1,0,80,0,0
305828,-87.6712328767123,4,1,0,80,0,0
305998,-88.3977900552486,4,1,0,80,0,0
306168,-89.1364902506964,4,1,0,80,0,0
306254,-89.5104494498688,4,1,0,80,0,0
306339,-89.8876404494382,4,1,0,80,0,0
306424,-90.2680238163154,4,1,0,80,0,0
306509,-90.6515580736544,4,1,0,80,0,0
306680,-91.4285714285714,4,1,0,80,0,0
307021,-93.0232558139535,4,1,0,80,0,0
307191,-93.841642228739,4,1,0,80,0,0
307362,-94.6745562130178,4,1,0,80,0,0
307532,-95.5223880597015,4,1,0,80,0,0
307617,-95.9519779540736,4,1,0,80,0,0
307703,-96.3855421686747,4,1,0,80,0,0
307873,-97.2644376899696,4,1,0,80,0,0
308043,-98.159509202454,4,1,0,80,0,0
308129,-98.6132025327815,4,1,0,80,0,0
308214,-99.0712074303406,4,1,0,80,0,0
308299,-99.5333874794961,4,1,0,80,0,0
308384,-100,4,1,0,80,0,0
313839,-100,4,1,0,80,0,0
314009,-99.0712074303406,4,1,0,80,0,0
314180,-98.159509202454,4,1,0,80,0,0
314350,-97.2644376899696,4,1,0,80,0,0
314435,-96.823042334907,4,1,0,80,0,0
314521,-96.3855421686747,4,1,0,80,0,0
314606,-95.9519779540736,4,1,0,80,0,0
314691,-95.5223880597015,4,1,0,80,0,0
314862,-94.6745562130178,4,1,0,80,0,0
315202,-93.0232558139535,4,1,0,80,0,0
315373,-92.2190201729107,4,1,0,80,0,0
315543,-91.4285714285714,4,1,0,80,0,0
315714,-90.6515580736544,4,1,0,80,0,0
315799,-90.2680238163154,4,1,0,80,0,0
315884,-89.8876404494382,4,1,0,80,0,0
316055,-89.1364902506964,4,1,0,80,0,0
316140,-88.7656427253893,4,1,0,80,0,0
316225,-88.3977900552486,4,1,0,80,0,0
316310,-88.0330511287158,4,1,0,80,0,0
316396,-87.6712328767123,4,1,0,80,0,0
316481,-87.3124528512755,4,1,0,80,0,0
316566,-86.9565217391304,4,1,0,80,0,0
316651,-87.3124528512755,4,1,0,80,0,0
316737,-87.6712328767123,4,1,0,80,0,0
316907,-88.3977900552486,4,1,0,80,0,0
317077,-89.1364902506964,4,1,0,80,0,0
317163,-89.5104494498688,4,1,0,80,0,0
317248,-89.8876404494382,4,1,0,80,0,0
317333,-90.2680238163154,4,1,0,80,0,0
317418,-90.6515580736544,4,1,0,80,0,0
317589,-91.4285714285714,4,1,0,80,0,0
317930,-93.0232558139535,4,1,0,80,0,0
318100,-93.841642228739,4,1,0,80,0,0
318271,-94.6745562130178,4,1,0,80,0,0
318441,-95.5223880597015,4,1,0,80,0,0
318526,-95.9519779540736,4,1,0,80,0,0
318612,-96.3855421686747,4,1,0,80,0,0
318782,-97.2644376899696,4,1,0,80,0,0
318952,-98.159509202454,4,1,0,80,0,0
319038,-98.6132025327815,4,1,0,80,0,0
319123,-99.0712074303406,4,1,0,80,0,0
319208,-99.5333874794961,4,1,0,80,0,0
319293,-100,4,1,0,80,0,0
324748,-100,4,1,0,80,0,0
324918,-99.0712074303406,4,1,0,80,0,0
325089,-98.159509202454,4,1,0,80,0,0
325259,-97.2644376899696,4,1,0,80,0,0
325344,-96.823042334907,4,1,0,80,0,0
325430,-96.3855421686747,4,1,0,80,0,0
325515,-95.9519779540736,4,1,0,80,0,0
325600,-95.5223880597015,4,1,0,80,0,0
325771,-94.6745562130178,4,1,0,80,0,0
326112,-93.0232558139535,4,1,0,80,0,0
326282,-92.2190201729107,4,1,0,80,0,0
326452,-91.4285714285714,4,1,0,80,0,0
326623,-90.6515580736544,4,1,0,80,0,0
326708,-90.2680238163154,4,1,0,80,0,0
326793,-89.8876404494382,4,1,0,80,0,0
326964,-89.1364902506964,4,1,0,80,0,0
327049,-88.7656427253893,4,1,0,80,0,0
327134,-88.3977900552486,4,1,0,80,0,0
327219,-88.0330511287158,4,1,0,80,0,0
327305,-87.6712328767123,4,1,0,80,0,0
327390,-87.3124528512755,4,1,0,80,0,0
327475,-86.9565217391304,4,1,0,80,0,0
327646,-87.6712328767123,4,1,0,80,0,0
327816,-88.3977900552486,4,1,0,80,0,0
327986,-89.1364902506964,4,1,0,80,0,0
328072,-89.5104494498688,4,1,0,80,0,0
328157,-89.8876404494382,4,1,0,80,0,0
328242,-90.2680238163154,4,1,0,80,0,0
328327,-90.6515580736544,4,1,0,80,0,0
328498,-91.4285714285714,4,1,0,80,0,0
328839,-93.0232558139535,4,1,0,80,0,0
329009,-93.841642228739,4,1,0,80,0,0
329180,-94.6745562130178,4,1,0,80,0,0
329350,-95.5223880597015,4,1,0,80,0,0
329435,-95.9519779540736,4,1,0,80,0,0
329521,-96.3855421686747,4,1,0,80,0,0
329691,-97.2644376899696,4,1,0,80,0,0
329861,-98.159509202454,4,1,0,80,0,0
329947,-98.6132025327815,4,1,0,80,0,0
330032,-99.0712074303406,4,1,0,80,0,0
330117,-99.5333874794961,4,1,0,80,0,0
330202,-100,4,1,0,80,0,0
335657,-100,4,1,0,80,0,0
335827,-99.0712074303406,4,1,0,80,0,0
335998,-98.159509202454,4,1,0,80,0,0
336168,-97.2644376899696,4,1,0,80,0,0
336253,-96.823042334907,4,1,0,80,0,0
336339,-96.3855421686747,4,1,0,80,0,0
336424,-95.9519779540736,4,1,0,80,0,0
336509,-95.5223880597015,4,1,0,80,0,0
336680,-94.6745562130178,4,1,0,80,0,0
337021,-93.0232558139535,4,1,0,80,0,0
337191,-92.2190201729107,4,1,0,80,0,0
337361,-91.4285714285714,4,1,0,80,0,0
337532,-90.6515580736544,4,1,0,80,0,0
337617,-90.2680238163154,4,1,0,80,0,0
337702,-89.8876404494382,4,1,0,80,0,0
337873,-89.1364902506964,4,1,0,80,0,0
337958,-88.7656427253893,4,1,0,80,0,0
338043,-88.3977900552486,4,1,0,80,0,0
338128,-88.0330511287158,4,1,0,80,0,0
338214,-87.6712328767123,4,1,0,80,0,0
338299,-87.3124528512755,4,1,0,80,0,0
338384,-86.9565217391304,4,1,0,80,0,0
338469,-87.3124528512755,4,1,0,80,0,0
338555,-87.6712328767123,4,1,0,80,0,0
338725,-88.3977900552486,4,1,0,80,0,0
338895,-89.1364902506964,4,1,0,80,0,0
338981,-89.5104494498688,4,1,0,80,0,0
339066,-89.8876404494382,4,1,0,80,0,0
339151,-90.2680238163154,4,1,0,80,0,0
339236,-90.6515580736544,4,1,0,80,0,0
339407,-91.4285714285714,4,1,0,80,0,0
339748,-93.0232558139535,4,1,0,80,0,0
339918,-93.841642228739,4,1,0,80,0,0
340089,-94.6745562130178,4,1,0,80,0,0
340259,-95.5223880597015,4,1,0,80,0,0
340344,-95.9519779540736,4,1,0,80,0,0
340430,-96.3855421686747,4,1,0,80,0,0
340600,-97.2644376899696,4,1,0,80,0,0
340770,-98.159509202454,4,1,0,80,0,0
340856,-98.6132025327815,4,1,0,80,0,0
340941,-99.0712074303406,4,1,0,80,0,0
341026,-99.5333874794961,4,1,0,80,0,0
341111,-100,4,1,0,80,0,0
346566,-100,4,1,0,80,0,0
346737,-98.4615384615385,4,1,0,80,0,0
346907,-96.969696969697,4,1,0,80,0,0
347078,-95.5223880597015,4,1,0,80,0,0
347248,-94.1176470588235,4,1,0,80,0,0
347418,-92.7536231884058,4,1,0,80,0,0
347589,-91.4285714285714,4,1,0,80,0,0
347759,-90.1408450704225,4,1,0,80,0,0
347930,-88.8888888888889,4,1,0,80,0,0
348015,-88.2759010321218,4,1,0,80,0,0
348100,-87.6712328767123,4,1,0,80,0,0
348185,-87.0747920218593,4,1,0,80,0,0
348271,-86.4864864864865,4,1,0,80,0,0
348356,-85.906077167711,4,1,0,80,0,0
348441,-85.3333333333333,4,1,0,80,0,0
348526,-84.7681759922963,4,1,0,80,0,0
348612,-84.2105263157895,4,1,0,80,0,0
348697,-83.6601657140562,4,1,0,80,0,0
348782,-83.1168831168831,4,1,0,80,0,0
348867,-82.5806110634896,4,1,0,80,0,0
348953,-82.0512820512821,4,1,0,80,0,0
349123,-81.0126582278481,4,1,0,80,0,0
349293,-80,4,1,0,80,0,0

[HitObjects]
469,326,203,5,12,0:0:0:0:
469,326,373,1,0,0:0:0:0:
465,337,543,1,8,0:0:0:0:
469,326,714,1,8,0:0:0:0:
469,326,799,1,8,0:0:0:0:
469,326,884,1,0,0:0:0:0:
496,342,970,1,0,0:0:0:0:
465,338,1055,1,8,0:0:0:0:
463,364,1225,1,8,0:0:0:0:
456,326,1310,1,0,0:0:0:0:
456,326,1396,1,8,0:0:0:0:
456,326,1481,1,8,0:0:0:0:
456,326,1566,1,0,0:0:0:0:
476,352,1737,1,0,0:0:0:0:
476,352,1907,1,8,0:0:0:0:
456,326,2078,1,8,0:0:0:0:
456,326,2163,1,8,0:0:0:0:
460,328,2248,1,0,0:0:0:0:
462,330,2333,1,0,0:0:0:0:
465,331,2418,1,8,0:0:0:0:
418,315,2589,1,8,0:0:0:0:
418,315,2674,1,0,0:0:0:0:
418,315,2759,1,8,0:0:0:0:
418,315,2845,1,8,0:0:0:0:
418,315,2930,1,0,0:0:0:0:
456,355,3100,1,0,0:0:0:0:
456,355,3271,1,8,0:0:0:0:
447,301,3441,1,0,0:0:0:0:
445,310,3526,1,8,0:0:0:0:
445,310,3612,1,0,0:0:0:0:
479,346,3697,1,0,0:0:0:0:
452,319,3782,1,8,0:0:0:0:
445,303,3953,1,8,0:0:0:0:
445,303,4038,1,0,0:0:0:0:
445,303,4123,1,8,0:0:0:0:
445,303,4208,1,8,0:0:0:0:
445,303,4293,1,0,0:0:0:0:
478,324,4464,1,0,0:0:0:0:
478,324,4634,1,8,0:0:0:0:
475,329,4805,1,0,0:0:0:0:
475,329,4890,1,8,0:0:0:0:
475,329,4975,1,0,0:0:0:0:
475,329,5060,1,0,0:0:0:0:
475,329,5146,1,8,0:0:0:0:
442,305,5316,1,8,0:0:0:0:
413,346,5401,1,0,0:0:0:0:
442,305,5487,1,8,0:0:0:0:
424,244,5572,1,8,0:0:0:0:
457,343,5657,1,0,0:0:0:0:
406,310,5828,1,0,0:0:0:0:
491,318,5998,1,8,0:0:0:0:
455,346,6168,1,8,0:0:0:0:
466,348,6254,1,8,0:0:0:0:
466,348,6339,1,0,0:0:0:0:
461,338,6424,1,0,0:0:0:0:
479,349,6509,1,8,0:0:0:0:
463,364,6680,1,8,0:0:0:0:
456,326,6765,1,0,0:0:0:0:
456,326,6850,1,8,0:0:0:0:
456,326,6935,1,8,0:0:0:0:
456,326,7021,1,0,0:0:0:0:
476,352,7191,1,0,0:0:0:0:
476,352,7362,1,8,0:0:0:0:
456,326,7532,1,8,0:0:0:0:
456,326,7617,1,8,0:0:0:0:
460,328,7703,1,0,0:0:0:0:
462,330,7788,1,0,0:0:0:0:
465,331,7873,1,8,0:0:0:0:
418,315,8043,1,8,0:0:0:0:
418,315,8129,1,0,0:0:0:0:
418,315,8214,1,8,0:0:0:0:
418,315,8299,1,8,0:0:0:0:
418,315,8384,1,0,0:0:0:0:
456,355,8555,1,0,0:0:0:0:
456,355,8725,1,8,0:0:0:0:
447,301,8896,1,0,0:0:0:0:
445,310,8981,1,8,0:0:0:0:
445,310,9066,1,0,0:0:0:0:
461,338,9151,1,0,0:0:0:0:
452,319,9237,1,8,0:0:0:0:
445,303,9407,1,8,0:0:0:0:
445,303,9492,1,0,0:0:0:0:
445,303,9578,1,8,0:0:0:0:
445,303,9663,1,8,0:0:0:0:
445,303,9748,1,0,0:0:0:0:
478,324,9918,1,0,0:0:0:0:
478,324,10089,1,8,0:0:0:0:
475,329,10259,1,0,0:0:0:0:
475,329,10345,1,8,0:0:0:0:
475,329,10430,1,0,0:0:0:0:
475,329,10515,1,0,0:0:0:0:
475,329,10600,1,8,0:0:0:0:
442,305,10771,1,8,0:0:0:0:
488,325,10856,1,0,0:0:0:0:
464,356,10941,1,8,0:0:0:0:
457,343,11026,1,0,0:0:0:0:
469,326,11112,1,8,0:0:0:0:
469,326,11197,1,8,0:0:0:0:
469,326,11282,1,0,0:0:0:0:
465,337,11453,1,8,0:0:0:0:
469,326,11623,1,8,0:0:0:0:
469,326,11708,1,8,0:0:0:0:
469,326,11793,1,0,0:0:0:0:
466,316,11879,1,0,0:0:0:0:
465,338,11964,1,8,0:0:0:0:
463,364,12134,1,8,0:0:0:0:
456,326,12220,1,0,0:0:0:0:
456,326,12305,1,8,0:0:0:0:
456,326,12390,1,8,0:0:0:0:
456,326,12475,1,0,0:0:0:0:
476,352,12646,1,0,0:0:0:0:
476,352,12816,1,8,0:0:0:0:
456,326,12987,1,8,0:0:0:0:
456,326,13072,1,8,0:0:0:0:
460,328,13157,1,0,0:0:0:0:
462,330,13242,1,0,0:0:0:0:
465,331,13328,1,8,0:0:0:0:
418,315,13498,1,8,0:0:0:0:
418,315,13583,1,0,0:0:0:0:
418,315,13668,1,8,0:0:0:0:
418,315,13754,1,8,0:0:0:0:
418,315,13839,1,0,0:0:0:0:
456,355,14009,1,0,0:0:0:0:
456,355,14180,1,8,0:0:0:0:
447,301,14350,1,0,0:0:0:0:
445,310,14435,1,8,0:0:0:0:
445,310,14521,1,0,0:0:0:0:
501,333,14606,1,0,0:0:0:0:
452,319,14691,1,8,0:0:0:0:
445,303,14862,1,8,0:0:0:0:
445,303,14947,1,0,0:0:0:0:
445,303,15032,1,8,0:0:0:0:
445,303,15117,1,8,0:0:0:0:
445,303,15203,1,0,0:0:0:0:
478,324,15373,1,0,0:0:0:0:
478,324,15543,1,8,0:0:0:0:
475,329,15714,1,0,0:0:0:0:
475,329,15799,1,8,0:0:0:0:
475,329,15884,1,0,0:0:0:0:
475,329,15970,1,0,0:0:0:0:
475,329,16055,1,8,0:0:0:0:
442,305,16225,1,8,0:0:0:0:
402,359,16310,1,0,0:0:0:0:
442,305,16396,1,8,0:0:0:0:
413,257,16481,1,8,0:0:0:0:
457,343,16566,1,0,0:0:0:0:
406,310,16737,1,0,0:0:0:0:
480,331,16907,1,8,0:0:0:0:
455,346,17078,1,8,0:0:0:0:
466,348,17163,1,8,0:0:0:0:
466,348,17248,1,0,0:0:0:0:
501,332,17333,1,0,0:0:0:0:
479,349,17418,1,8,0:0:0:0:
463,364,17589,1,8,0:0:0:0:
456,326,17674,1,0,0:0:0:0:
456,326,17759,1,8,0:0:0:0:
456,326,17845,1,8,0:0:0:0:
456,326,17930,1,0,0:0:0:0:
476,352,18100,1,0,0:0:0:0:
476,352,18271,1,8,0:0:0:0:
456,326,18441,1,8,0:0:0:0:
456,326,18526,1,8,0:0:0:0:
460,328,18612,1,0,0:0:0:0:
462,330,18697,1,0,0:0:0:0:
465,331,18782,1,8,0:0:0:0:
418,315,18953,1,8,0:0:0:0:
418,315,19038,1,0,0:0:0:0:
418,315,19123,1,8,0:0:0:0:
418,315,19208,1,8,0:0:0:0:
418,315,19293,1,0,0:0:0:0:
465,331,19464,1,8,0:0:0:0:
473,333,19549,1,8,0:0:0:0:
478,350,19634,1,0,0:0:0:0:
478,350,19805,1,8,0:0:0:0:
463,353,19890,1,8,0:0:0:0:
478,350,19975,1,0,0:0:0:0:
478,350,20146,1,8,0:0:0:0:
451,339,20231,1,8,0:0:0:0:
478,350,20316,1,0,0:0:0:0:
478,350,20487,1,8,0:0:0:0:
462,352,20572,1,8,0:0:0:0:
478,350,20657,1,0,0:0:0:0:
485,356,20742,1,8,0:0:0:0:
470,353,20828,1,0,0:0:0:0:
470,353,20913,1,0,0:0:0:0:
470,353,20998,1,8,0:0:0:0:
459,334,21168,1,0,0:0:0:0:
457,323,21254,1,0,0:0:0:0:
459,343,21339,1,8,0:0:0:0:
403,307,21509,1,0,0:0:0:0:
498,351,21680,1,8,0:0:0:0:
508,357,22021,1,12,0:0:0:0:
508,357,22191,1,0,0:0:0:0:
508,357,22362,1,8,0:0:0:0:
508,357,22532,1,8,0:0:0:0:
508,357,22617,1,8,0:0:0:0:
508,357,22703,1,0,0:0:0:0:
453,298,22788,1,8,0:0:0:0:
451,303,22873,1,0,0:0:0:0:
451,304,22958,1,0,0:0:0:0:
454,309,23043,1,8,0:0:0:0:
470,336,23214,1,8,0:0:0:0:
473,354,23384,1,0,0:0:0:0:
473,354,23555,1,0,0:0:0:0:
473,354,23640,1,0,0:0:0:0:
473,354,23725,1,8,0:0:0:0:
475,358,23896,1,0,0:0:0:0:
452,348,24066,1,0,0:0:0:0:
447,355,24151,1,0,0:0:0:0:
447,356,24237,1,8,0:0:0:0:
447,355,24322,1,0,0:0:0:0:
447,356,24407,1,8,0:0:0:0:
462,371,24492,1,8,0:0:0:0:
461,371,24578,1,0,0:0:0:0:
462,371,24663,1,8,0:0:0:0:
461,371,24748,1,0,0:0:0:0:
451,334,24918,1,0,0:0:0:0:
451,334,25004,1,0,0:0:0:0:
449,342,25089,1,8,0:0:0:0:
449,349,25259,1,0,0:0:0:0:
471,355,25430,1,0,0:0:0:0:
471,355,25515,1,8,0:0:0:0:
471,355,25600,1,0,0:0:0:0:
472,362,25685,1,0,0:0:0:0:
473,363,25771,1,8,0:0:0:0:
480,365,25941,1,8,0:0:0:0:
480,365,26112,1,0,0:0:0:0:
480,365,26282,1,0,0:0:0:0:
480,365,26367,1,0,0:0:0:0:
473,364,26453,1,8,0:0:0:0:
490,361,26623,1,0,0:0:0:0:
455,358,26793,1,0,0:0:0:0:
466,348,26879,1,8,0:0:0:0:
466,348,26964,1,0,0:0:0:0:
453,363,27049,1,0,0:0:0:0:
454,363,27134,1,8,0:0:0:0:
455,344,27220,1,8,0:0:0:0:
455,344,27305,1,0,0:0:0:0:
455,344,27390,1,8,0:0:0:0:
455,344,27475,1,0,0:0:0:0:
484,340,27646,1,0,0:0:0:0:
484,340,27731,1,0,0:0:0:0:
484,340,27816,1,8,0:0:0:0:
470,360,27987,1,0,0:0:0:0:
470,360,28157,1,8,0:0:0:0:
470,368,28242,1,0,0:0:0:0:
470,368,28328,1,8,0:0:0:0:
471,368,28413,1,8,0:0:0:0:
471,368,28498,1,0,0:0:0:0:
461,347,28668,1,0,0:0:0:0:
460,330,28839,1,8,0:0:0:0:
446,306,29009,1,0,0:0:0:0:
441,311,29095,1,0,0:0:0:0:
440,316,29180,1,8,0:0:0:0:
456,326,29350,1,0,0:0:0:0:
456,326,29435,1,0,0:0:0:0:
456,326,29521,1,8,0:0:0:0:
456,326,29606,1,0,0:0:0:0:
456,326,29691,1,8,0:0:0:0:
456,326,29776,1,8,0:0:0:0:
456,326,29862,1,0,0:0:0:0:
453,346,30032,1,0,0:0:0:0:
456,330,30203,1,8,0:0:0:0:
480,340,30373,1,0,0:0:0:0:
480,340,30458,1,0,0:0:0:0:
480,340,30543,1,8,0:0:0:0:
466,360,30714,1,0,0:0:0:0:
466,360,30884,1,8,0:0:0:0:
466,368,30970,1,0,0:0:0:0:
466,368,31055,1,8,0:0:0:0:
467,368,31140,1,8,0:0:0:0:
467,368,31225,1,0,0:0:0:0:
457,347,31396,1,0,0:0:0:0:
456,330,31566,1,8,0:0:0:0:
442,306,31737,1,0,0:0:0:0:
437,311,31822,1,0,0:0:0:0:
436,316,31907,1,8,0:0:0:0:
452,326,32078,1,0,0:0:0:0:
452,326,32163,1,0,0:0:0:0:
452,326,32248,1,8,0:0:0:0:
452,326,32333,1,0,0:0:0:0:
452,326,32418,1,8,0:0:0:0:
452,326,32504,1,8,0:0:0:0:
452,326,32589,1,0,0:0:0:0:
449,346,32759,1,0,0:0:0:0:
508,357,32930,1,8,0:0:0:0:
508,357,33015,1,8,0:0:0:0:
508,357,33100,1,0,0:0:0:0:
508,357,33271,1,8,0:0:0:0:
508,357,33441,1,8,0:0:0:0:
508,357,33526,1,8,0:0:0:0:
508,357,33612,1,0,0:0:0:0:
453,298,33697,1,8,0:0:0:0:
451,303,33782,1,0,0:0:0:0:
451,304,33867,1,0,0:0:0:0:
454,309,33953,1,8,0:0:0:0:
470,336,34123,1,8,0:0:0:0:
473,354,34293,1,0,0:0:0:0:
473,354,34464,1,0,0:0:0:0:
473,354,34549,1,0,0:0:0:0:
473,354,34634,1,8,0:0:0:0:
475,358,34805,1,0,0:0:0:0:
452,348,34975,1,0,0:0:0:0:
447,355,35060,1,0,0:0:0:0:
447,356,35146,1,8,0:0:0:0:
447,355,35231,1,0,0:0:0:0:
447,356,35316,1,8,0:0:0:0:
462,371,35401,1,8,0:0:0:0:
461,371,35487,1,0,0:0:0:0:
462,371,35572,1,8,0:0:0:0:
461,371,35657,1,0,0:0:0:0:
451,334,35828,1,0,0:0:0:0:
451,334,35913,1,0,0:0:0:0:
449,342,35998,1,8,0:0:0:0:
449,349,36168,1,0,0:0:0:0:
471,355,36339,1,0,0:0:0:0:
471,355,36424,1,8,0:0:0:0:
471,355,36509,1,0,0:0:0:0:
472,362,36595,1,0,0:0:0:0:
473,363,36680,1,8,0:0:0:0:
480,365,36850,1,8,0:0:0:0:
480,365,37021,1,0,0:0:0:0:
480,365,37191,1,0,0:0:0:0:
480,365,37276,1,0,0:0:0:0:
473,364,37362,1,8,0:0:0:0:
490,361,37532,1,0,0:0:0:0:
455,358,37703,1,0,0:0:0:0:
466,348,37788,1,8,0:0:0:0:
466,348,37873,1,0,0:0:0:0:
453,363,37958,1,0,0:0:0:0:
454,363,38043,1,8,0:0:0:0:
455,344,38129,1,8,0:0:0:0:
455,344,38214,1,0,0:0:0:0:
455,344,38299,1,8,0:0:0:0:
455,344,38384,1,0,0:0:0:0:
484,340,38555,1,0,0:0:0:0:
484,340,38640,1,0,0:0:0:0:
484,340,38725,1,8,0:0:0:0:
470,360,38896,1,0,0:0:0:0:
470,360,39066,1,8,0:0:0:0:
470,368,39151,1,0,0:0:0:0:
470,368,39237,1,8,0:0:0:0:
471,368,39322,1,8,0:0:0:0:
471,368,39407,1,0,0:0:0:0:
461,347,39578,1,0,0:0:0:0:
460,330,39748,1,8,0:0:0:0:
446,306,39918,1,0,0:0:0:0:
441,311,40004,1,0,0:0:0:0:
440,316,40089,1,8,0:0:0:0:
456,326,40259,1,0,0:0:0:0:
456,326,40345,1,0,0:0:0:0:
456,326,40430,1,8,0:0:0:0:
456,326,40515,1,0,0:0:0:0:
456,326,40600,1,8,0:0:0:0:
456,326,40685,1,8,0:0:0:0:
456,326,40771,1,0,0:0:0:0:
453,346,40941,1,0,0:0:0:0:
456,330,41112,1,0,0:0:0:0:
463,315,41282,1,0,0:0:0:0:
463,315,41453,1,8,0:0:0:0:
463,315,41623,1,0,0:0:0:0:
463,315,41793,1,0,0:0:0:0:
463,315,41964,1,0,0:0:0:0:
462,321,42134,1,8,0:0:0:0:
462,321,42305,1,0,0:0:0:0:
446,349,42475,1,8,0:0:0:0:
457,346,42560,1,8,0:0:0:0:
446,349,42646,1,0,0:0:0:0:
446,349,42731,1,8,0:0:0:0:
446,349,42816,1,0,0:0:0:0:
446,349,42901,1,0,0:0:0:0:
446,349,42987,1,8,0:0:0:0:
446,349,43072,1,0,0:0:0:0:
446,349,43157,1,8,0:0:0:0:
446,349,43242,1,8,0:0:0:0:
446,349,43328,1,0,0:0:0:0:
452,352,43413,1,0,0:0:0:0:
446,349,43498,1,8,0:0:0:0:
487,356,43839,1,8,0:0:0:0:
486,342,44350,1,8,0:0:0:0:
483,368,44862,1,8,0:0:0:0:
490,366,45373,1,8,0:0:0:0:
481,359,45884,1,8,0:0:0:0:
487,360,46225,1,8,0:0:0:0:
487,360,46566,1,8,0:0:0:0:
487,362,47078,1,8,0:0:0:0:
487,362,47589,1,8,0:0:0:0:
487,362,48100,1,8,0:0:0:0:
488,362,48612,1,8,0:0:0:0:
485,340,48953,1,8,0:0:0:0:
485,340,49293,1,0,0:0:0:0:
486,336,49805,1,8,0:0:0:0:
485,335,50316,1,0,0:0:0:0:
483,338,50828,1,8,0:0:0:0:
480,346,51339,1,0,0:0:0:0:
481,345,51680,1,0,0:0:0:0:
481,345,52021,1,8,0:0:0:0:
489,333,52532,1,8,0:0:0:0:
489,333,53043,1,8,0:0:0:0:
488,333,53555,1,8,0:0:0:0:
487,335,54066,1,0,0:0:0:0:
487,335,54407,1,0,0:0:0:0:
487,356,54748,1,8,0:0:0:0:
486,342,55259,1,8,0:0:0:0:
483,368,55771,1,8,0:0:0:0:
490,366,56282,1,8,0:0:0:0:
481,359,56793,1,8,0:0:0:0:
487,360,57134,1,8,0:0:0:0:
487,360,57475,1,8,0:0:0:0:
487,362,57987,1,8,0:0:0:0:
487,362,58498,1,8,0:0:0:0:
487,362,59009,1,8,0:0:0:0:
488,362,59521,1,8,0:0:0:0:
485,340,59862,1,8,0:0:0:0:
485,340,60203,1,0,0:0:0:0:
486,336,60714,1,8,0:0:0:0:
485,335,61225,1,0,0:0:0:0:
483,338,61737,1,8,0:0:0:0:
480,346,62248,1,0,0:0:0:0:
481,345,62589,1,0,0:0:0:0:
481,345,62930,1,8,0:0:0:0:
489,333,63441,1,8,0:0:0:0:
489,333,63953,1,8,0:0:0:0:
488,333,64464,1,8,0:0:0:0:
487,335,64975,1,0,0:0:0:0:
487,335,65316,1,0,0:0:0:0:
487,356,65657,1,12,0:0:0:0:
472,320,65998,1,0,0:0:0:0:
486,342,66168,1,8,0:0:0:0:
470,320,66509,1,0,0:0:0:0:
483,368,66680,1,8,0:0:0:0:
470,320,67021,1,0,0:0:0:0:
490,366,67191,1,8,0:0:0:0:
466,333,67532,1,0,0:0:0:0:
481,359,67703,1,8,0:0:0:0:
487,360,68043,1,8,0:0:0:0:
487,360,68384,1,8,0:0:0:0:
479,337,68725,1,0,0:0:0:0:
487,362,68896,1,8,0:0:0:0:
479,337,69237,1,0,0:0:0:0:
487,362,69407,1,8,0:0:0:0:
485,340,69748,1,0,0:0:0:0:
487,362,69918,1,8,0:0:0:0:
485,340,70259,1,0,0:0:0:0:
488,362,70430,1,8,0:0:0:0:
485,340,70771,1,8,0:0:0:0:
485,340,71112,1,0,0:0:0:0:
468,315,71453,1,0,0:0:0:0:
486,336,71623,1,8,0:0:0:0:
485,335,71964,1,8,0:0:0:0:
467,319,72134,1,0,0:0:0:0:
467,319,72475,1,0,0:0:0:0:
483,338,72646,1,8,0:0:0:0:
467,319,72987,1,8,0:0:0:0:
480,346,73157,1,0,0:0:0:0:
481,345,73498,1,0,0:0:0:0:
481,345,73839,1,8,0:0:0:0:
472,328,74180,1,0,0:0:0:0:
489,333,74350,1,8,0:0:0:0:
473,326,74691,1,0,0:0:0:0:
489,333,74862,1,8,0:0:0:0:
473,327,75203,1,0,0:0:0:0:
488,333,75373,1,8,0:0:0:0:
473,328,75714,1,8,0:0:0:0:
487,335,75884,1,0,0:0:0:0:
487,335,76225,1,0,0:0:0:0:
469,352,76566,1,8,0:0:0:0:
465,347,76737,1,0,0:0:0:0:
472,346,76907,1,8,0:0:0:0:
500,334,77078,1,0,0:0:0:0:
500,334,77248,1,0,0:0:0:0:
500,334,77418,1,8,0:0:0:0:
476,340,77589,1,8,0:0:0:0:
476,340,77674,1,8,0:0:0:0:
476,340,77759,1,0,0:0:0:0:
469,356,77930,1,0,0:0:0:0:
469,356,78100,1,8,0:0:0:0:
469,356,78271,1,0,0:0:0:0:
470,372,78441,1,8,0:0:0:0:
470,372,78526,1,0,0:0:0:0:
470,372,78612,1,8,0:0:0:0:
470,372,78697,1,8,0:0:0:0:
470,372,78782,1,0,0:0:0:0:
474,367,78953,1,8,0:0:0:0:
474,367,79038,1,0,0:0:0:0:
474,367,79123,1,0,0:0:0:0:
474,367,79208,1,0,0:0:0:0:
469,356,79293,1,8,0:0:0:0:
465,351,79464,1,0,0:0:0:0:
472,350,79634,1,8,0:0:0:0:
500,338,79805,1,0,0:0:0:0:
500,338,79975,1,0,0:0:0:0:
500,338,80146,1,8,0:0:0:0:
476,344,80316,1,8,0:0:0:0:
476,344,80401,1,8,0:0:0:0:
476,344,80487,1,0,0:0:0:0:
469,360,80657,1,0,0:0:0:0:
469,360,80828,1,8,0:0:0:0:
469,360,80998,1,0,0:0:0:0:
470,376,81168,1,8,0:0:0:0:
470,376,81254,1,0,0:0:0:0:
470,376,81339,1,8,0:0:0:0:
470,376,81424,1,8,0:0:0:0:
470,376,81509,1,0,0:0:0:0:
474,371,81680,1,8,0:0:0:0:
474,371,81765,1,0,0:0:0:0:
474,371,81850,1,0,0:0:0:0:
474,371,81935,1,0,0:0:0:0:
469,352,82021,1,8,0:0:0:0:
465,347,82191,1,0,0:0:0:0:
472,346,82362,1,8,0:0:0:0:
500,334,82532,1,0,0:0:0:0:
500,334,82703,1,0,0:0:0:0:
500,334,82873,1,8,0:0:0:0:
476,340,83043,1,8,0:0:0:0:
476,340,83129,1,8,0:0:0:0:
476,340,83214,1,0,0:0:0:0:
469,356,83384,1,0,0:0:0:0:
469,356,83555,1,8,0:0:0:0:
469,356,83725,1,0,0:0:0:0:
470,372,83896,1,8,0:0:0:0:
470,372,83981,1,0,0:0:0:0:
470,372,84066,1,8,0:0:0:0:
470,372,84151,1,8,0:0:0:0:
470,372,84237,1,0,0:0:0:0:
474,367,84407,1,8,0:0:0:0:
474,367,84492,1,0,0:0:0:0:
474,367,84578,1,8,0:0:0:0:
474,367,84663,1,0,0:0:0:0:
470,339,84748,1,8,0:0:0:0:
470,332,84918,1,0,0:0:0:0:
470,332,85089,1,8,0:0:0:0:
470,332,85259,1,0,0:0:0:0:
470,349,85430,1,0,0:0:0:0:
470,349,85600,1,8,0:0:0:0:
470,349,85771,1,0,0:0:0:0:
481,347,85941,1,8,0:0:0:0:
473,356,86112,1,0,0:0:0:0:
480,359,86282,1,8,0:0:0:0:
478,344,86453,1,0,0:0:0:0:
478,344,86538,1,8,0:0:0:0:
465,335,86623,1,0,0:0:0:0:
476,347,86793,1,0,0:0:0:0:
476,347,86879,1,0,0:0:0:0:
476,347,86964,1,0,0:0:0:0:
476,347,87049,1,0,0:0:0:0:
476,347,87134,1,8,0:0:0:0:
466,327,87475,1,12,0:0:0:0:
466,327,87646,1,0,0:0:0:0:
465,333,87731,1,0,0:0:0:0:
465,338,87816,1,8,0:0:0:0:
465,332,87987,1,0,0:0:0:0:
464,345,88157,1,0,0:0:0:0:
464,345,88242,1,0,0:0:0:0:
464,345,88328,1,8,0:0:0:0:
464,345,88413,1,0,0:0:0:0:
476,343,88498,1,8,0:0:0:0:
478,316,88668,1,8,0:0:0:0:
479,322,88839,1,0,0:0:0:0:
481,340,89009,1,0,0:0:0:0:
481,340,89095,1,0,0:0:0:0:
481,340,89180,1,8,0:0:0:0:
473,345,89350,1,0,0:0:0:0:
478,352,89521,1,0,0:0:0:0:
478,352,89606,1,0,0:0:0:0:
478,352,89691,1,8,0:0:0:0:
478,352,89776,1,0,0:0:0:0:
478,352,89862,1,8,0:0:0:0:
479,362,89947,1,8,0:0:0:0:
479,362,90032,1,0,0:0:0:0:
479,362,90117,1,8,0:0:0:0:
482,370,90203,1,0,0:0:0:0:
484,348,90373,1,0,0:0:0:0:
484,348,90458,1,0,0:0:0:0:
484,348,90543,1,8,0:0:0:0:
484,348,90714,1,0,0:0:0:0:
472,341,90884,1,0,0:0:0:0:
472,341,90970,1,0,0:0:0:0:
472,341,91055,1,8,0:0:0:0:
472,341,91140,1,0,0:0:0:0:
472,341,91225,1,8,0:0:0:0:
475,348,91396,1,8,0:0:0:0:
475,353,91566,1,0,0:0:0:0:
482,323,91737,1,0,0:0:0:0:
482,323,91822,1,0,0:0:0:0:
482,323,91907,1,8,0:0:0:0:
475,335,92078,1,0,0:0:0:0:
468,367,92248,1,0,0:0:0:0:
421,315,92333,1,0,0:0:0:0:
426,315,92418,1,8,0:0:0:0:
421,315,92504,1,8,0:0:0:0:
426,315,92589,1,0,0:0:0:0:
421,315,92674,1,0,0:0:0:0:
426,315,92759,1,8,0:0:0:0:
465,362,92845,1,8,0:0:0:0:
465,362,92930,1,0,0:0:0:0:
465,362,93100,1,0,0:0:0:0:
465,362,93185,1,0,0:0:0:0:
465,362,93271,1,8,0:0:0:0:
478,348,93441,1,8,0:0:0:0:
475,349,93612,1,8,0:0:0:0:
474,355,93697,1,8,0:0:0:0:
474,355,93782,1,0,0:0:0:0:
474,355,93867,1,0,0:0:0:0:
473,360,93953,1,8,0:0:0:0:
471,338,94123,1,8,0:0:0:0:
471,338,94293,1,0,0:0:0:0:
458,348,94464,1,0,0:0:0:0:
458,348,94549,1,0,0:0:0:0:
458,348,94634,1,8,0:0:0:0:
475,341,94805,1,8,0:0:0:0:
475,341,94975,1,8,0:0:0:0:
475,341,95060,1,8,0:0:0:0:
475,341,95146,1,0,0:0:0:0:
475,341,95231,1,0,0:0:0:0:
475,341,95316,1,8,0:0:0:0:
475,341,95401,1,8,0:0:0:0:
475,341,95487,1,0,0:0:0:0:
475,341,95572,1,8,0:0:0:0:
475,341,95657,1,0,0:0:0:0:
462,335,95828,1,0,0:0:0:0:
462,335,95913,1,0,0:0:0:0:
462,335,95998,1,8,0:0:0:0:
460,344,96168,1,8,0:0:0:0:
466,348,96339,1,8,0:0:0:0:
466,348,96424,1,8,0:0:0:0:
466,348,96509,1,0,0:0:0:0:
466,348,96595,1,0,0:0:0:0:
466,348,96680,1,8,0:0:0:0:
466,348,96850,1,8,0:0:0:0:
466,348,97021,1,0,0:0:0:0:
466,348,97191,1,0,0:0:0:0:
464,353,97276,1,0,0:0:0:0:
464,354,97362,1,8,0:0:0:0:
464,354,97532,1,8,0:0:0:0:
464,359,97703,1,8,0:0:0:0:
464,359,97788,1,8,0:0:0:0:
464,359,97873,1,0,0:0:0:0:
464,359,97958,1,0,0:0:0:0:
464,359,98043,1,8,0:0:0:0:
464,359,98129,1,0,0:0:0:0:
464,359,98214,1,8,0:0:0:0:
464,359,98299,1,8,0:0:0:0:
461,349,98384,1,0,0:0:0:0:
466,327,98555,1,0,0:0:0:0:
465,333,98640,1,0,0:0:0:0:
465,338,98725,1,8,0:0:0:0:
465,332,98896,1,0,0:0:0:0:
464,345,99066,1,0,0:0:0:0:
464,345,99151,1,0,0:0:0:0:
464,345,99237,1,8,0:0:0:0:
464,345,99322,1,0,0:0:0:0:
476,343,99407,1,8,0:0:0:0:
478,316,99578,1,8,0:0:0:0:
479,322,99748,1,0,0:0:0:0:
481,340,99918,1,0,0:0:0:0:
481,340,100004,1,0,0:0:0:0:
481,340,100089,1,8,0:0:0:0:
473,345,100259,1,0,0:0:0:0:
478,352,100430,1,0,0:0:0:0:
478,352,100515,1,0,0:0:0:0:
478,352,100600,1,8,0:0:0:0:
478,352,100685,1,0,0:0:0:0:
478,352,100771,1,8,0:0:0:0:
479,362,100856,1,8,0:0:0:0:
479,362,100941,1,0,0:0:0:0:
479,362,101026,1,8,0:0:0:0:
482,370,101112,1,0,0:0:0:0:
484,348,101282,1,0,0:0:0:0:
484,348,101367,1,0,0:0:0:0:
484,348,101453,1,8,0:0:0:0:
484,348,101623,1,0,0:0:0:0:
472,341,101793,1,0,0:0:0:0:
472,341,101879,1,0,0:0:0:0:
472,341,101964,1,8,0:0:0:0:
472,341,102049,1,0,0:0:0:0:
472,341,102134,1,8,0:0:0:0:
475,348,102305,1,8,0:0:0:0:
475,353,102475,1,0,0:0:0:0:
482,323,102646,1,0,0:0:0:0:
482,323,102731,1,0,0:0:0:0:
482,323,102816,1,8,0:0:0:0:
475,335,102987,1,0,0:0:0:0:
468,367,103157,1,0,0:0:0:0:
468,367,103242,1,0,0:0:0:0:
465,362,103328,1,8,0:0:0:0:
465,362,103413,1,8,0:0:0:0:
465,362,103498,1,8,0:0:0:0:
465,362,103583,1,0,0:0:0:0:
465,362,103668,1,8,0:0:0:0:
465,362,103754,1,8,0:0:0:0:
465,362,103839,1,0,0:0:0:0:
465,362,104009,1,0,0:0:0:0:
465,362,104095,1,0,0:0:0:0:
465,362,104180,1,8,0:0:0:0:
478,348,104350,1,8,0:0:0:0:
475,349,104521,1,8,0:0:0:0:
474,355,104606,1,8,0:0:0:0:
474,355,104691,1,0,0:0:0:0:
474,355,104776,1,0,0:0:0:0:
473,360,104862,1,8,0:0:0:0:
471,338,105032,1,8,0:0:0:0:
471,338,105203,1,0,0:0:0:0:
458,348,105373,1,0,0:0:0:0:
458,348,105458,1,0,0:0:0:0:
458,348,105543,1,8,0:0:0:0:
475,341,105714,1,8,0:0:0:0:
475,341,105884,1,8,0:0:0:0:
475,341,105970,1,8,0:0:0:0:
475,341,106055,1,0,0:0:0:0:
475,341,106140,1,0,0:0:0:0:
475,341,106225,1,8,0:0:0:0:
475,341,106310,1,8,0:0:0:0:
475,341,106396,1,0,0:0:0:0:
475,341,106481,1,8,0:0:0:0:
475,341,106566,1,0,0:0:0:0:
462,335,106737,1,0,0:0:0:0:
462,335,106822,1,0,0:0:0:0:
462,335,106907,1,8,0:0:0:0:
460,344,107078,1,8,0:0:0:0:
466,348,107248,1,8,0:0:0:0:
466,348,107333,1,8,0:0:0:0:
466,348,107418,1,0,0:0:0:0:
466,348,107504,1,0,0:0:0:0:
466,348,107589,1,8,0:0:0:0:
466,348,107759,1,8,0:0:0:0:
466,348,107930,1,0,0:0:0:0:
466,348,108100,1,0,0:0:0:0:
464,353,108185,1,0,0:0:0:0:
464,354,108271,1,8,0:0:0:0:
464,354,108441,1,8,0:0:0:0:
464,359,108612,1,8,0:0:0:0:
464,359,108697,1,8,0:0:0:0:
464,359,108782,1,0,0:0:0:0:
464,359,108867,1,0,0:0:0:0:
464,359,108953,1,8,0:0:0:0:
464,359,109038,1,0,0:0:0:0:
464,359,109123,1,8,0:0:0:0:
478,348,109208,1,0,0:0:0:0:
478,348,109293,1,12,0:0:0:0:
478,348,109464,1,0,0:0:0:0:
466,343,109634,1,8,0:0:0:0:
466,343,109805,1,8,0:0:0:0:
466,343,109890,1,8,0:0:0:0:
466,343,109975,1,0,0:0:0:0:
478,348,110060,1,8,0:0:0:0:
478,348,110146,1,0,0:0:0:0:
478,348,110231,1,0,0:0:0:0:
478,348,110316,1,8,0:0:0:0:
469,329,110487,1,8,0:0:0:0:
469,329,110657,1,0,0:0:0:0:
481,340,110828,1,0,0:0:0:0:
481,340,110913,1,0,0:0:0:0:
481,340,110998,1,8,0:0:0:0:
473,345,111168,1,0,0:0:0:0:
478,352,111339,1,0,0:0:0:0:
478,352,111424,1,0,0:0:0:0:
478,352,111509,1,8,0:0:0:0:
478,352,111595,1,0,0:0:0:0:
478,352,111680,1,8,0:0:0:0:
479,362,111765,1,8,0:0:0:0:
479,362,111850,1,0,0:0:0:0:
479,362,111935,1,8,0:0:0:0:
482,370,112021,1,0,0:0:0:0:
484,348,112191,1,0,0:0:0:0:
484,348,112276,1,0,0:0:0:0:
484,348,112362,1,8,0:0:0:0:
484,348,112532,1,0,0:0:0:0:
472,341,112703,1,0,0:0:0:0:
472,341,112788,1,0,0:0:0:0:
472,341,112873,1,8,0:0:0:0:
472,341,112958,1,0,0:0:0:0:
472,341,113043,1,8,0:0:0:0:
475,348,113214,1,8,0:0:0:0:
475,353,113384,1,0,0:0:0:0:
482,323,113555,1,0,0:0:0:0:
482,323,113640,1,0,0:0:0:0:
482,323,113725,1,8,0:0:0:0:
475,335,113896,1,0,0:0:0:0:
468,367,114066,1,0,0:0:0:0:
481,358,114151,1,0,0:0:0:0:
481,358,114237,1,8,0:0:0:0:
481,358,114322,1,8,0:0:0:0:
481,358,114407,1,0,0:0:0:0:
481,358,114492,1,0,0:0:0:0:
481,358,114578,1,8,0:0:0:0:
481,358,114663,1,8,0:0:0:0:
465,362,114748,1,0,0:0:0:0:
465,362,114918,1,0,0:0:0:0:
465,362,115004,1,0,0:0:0:0:
465,362,115089,1,8,0:0:0:0:
478,348,115259,1,8,0:0:0:0:
475,349,115430,1,8,0:0:0:0:
474,355,115515,1,8,0:0:0:0:
474,355,115600,1,0,0:0:0:0:
474,355,115685,1,0,0:0:0:0:
473,360,115771,1,8,0:0:0:0:
471,338,115941,1,8,0:0:0:0:
471,338,116112,1,0,0:0:0:0:
458,348,116282,1,0,0:0:0:0:
458,348,116367,1,0,0:0:0:0:
458,348,116453,1,8,0:0:0:0:
475,341,116623,1,8,0:0:0:0:
475,341,116793,1,8,0:0:0:0:
475,341,116879,1,8,0:0:0:0:
475,341,116964,1,0,0:0:0:0:
475,341,117049,1,0,0:0:0:0:
475,341,117134,1,8,0:0:0:0:
475,341,117220,1,8,0:0:0:0:
475,341,117305,1,0,0:0:0:0:
475,341,117390,1,8,0:0:0:0:
475,341,117475,1,0,0:0:0:0:
462,335,117646,1,0,0:0:0:0:
462,335,117731,1,0,0:0:0:0:
462,335,117816,1,8,0:0:0:0:
460,344,117987,1,8,0:0:0:0:
466,348,118157,1,8,0:0:0:0:
466,348,118242,1,8,0:0:0:0:
466,348,118328,1,0,0:0:0:0:
466,348,118413,1,0,0:0:0:0:
466,348,118498,1,8,0:0:0:0:
466,348,118668,1,8,0:0:0:0:
466,348,118839,1,0,0:0:0:0:
466,348,119009,1,0,0:0:0:0:
464,353,119095,1,0,0:0:0:0:
464,354,119180,1,8,0:0:0:0:
464,354,119350,1,8,0:0:0:0:
464,359,119521,1,8,0:0:0:0:
464,359,119606,1,8,0:0:0:0:
464,359,119691,1,0,0:0:0:0:
464,359,119776,1,0,0:0:0:0:
464,359,119862,1,8,0:0:0:0:
464,359,119947,1,0,0:0:0:0:
464,359,120032,1,8,0:0:0:0:
455,366,120117,1,0,0:0:0:0:
478,348,120203,1,8,0:0:0:0:
478,348,120288,1,8,0:0:0:0:
478,348,120373,1,0,0:0:0:0:
466,343,120543,1,8,0:0:0:0:
466,343,120714,1,8,0:0:0:0:
466,343,120799,1,8,0:0:0:0:
466,343,120884,1,0,0:0:0:0:
478,348,120970,1,8,0:0:0:0:
478,348,121055,1,0,0:0:0:0:
478,348,121140,1,0,0:0:0:0:
478,348,121225,1,8,0:0:0:0:
469,329,121396,1,8,0:0:0:0:
469,329,121566,1,0,0:0:0:0:
481,340,121737,1,0,0:0:0:0:
481,340,121822,1,0,0:0:0:0:
481,340,121907,1,8,0:0:0:0:
473,345,122078,1,0,0:0:0:0:
478,352,122248,1,0,0:0:0:0:
478,352,122333,1,0,0:0:0:0:
478,352,122418,1,8,0:0:0:0:
478,352,122504,1,0,0:0:0:0:
478,352,122589,1,8,0:0:0:0:
479,362,122674,1,8,0:0:0:0:
479,362,122759,1,0,0:0:0:0:
479,362,122845,1,8,0:0:0:0:
482,370,122930,1,0,0:0:0:0:
484,348,123100,1,0,0:0:0:0:
484,348,123185,1,0,0:0:0:0:
484,348,123271,1,8,0:0:0:0:
484,348,123441,1,0,0:0:0:0:
472,341,123612,1,0,0:0:0:0:
472,341,123697,1,0,0:0:0:0:
472,341,123782,1,8,0:0:0:0:
472,341,123867,1,0,0:0:0:0:
472,341,123953,1,8,0:0:0:0:
475,348,124123,1,8,0:0:0:0:
475,353,124293,1,0,0:0:0:0:
482,323,124464,1,0,0:0:0:0:
482,323,124549,1,0,0:0:0:0:
482,323,124634,1,8,0:0:0:0:
475,335,124805,1,0,0:0:0:0:
468,367,124975,1,0,0:0:0:0:
468,367,125060,1,0,0:0:0:0:
465,362,125146,1,8,0:0:0:0:
465,362,125231,1,8,0:0:0:0:
465,362,125316,1,8,0:0:0:0:
465,362,125401,1,0,0:0:0:0:
465,362,125487,1,8,0:0:0:0:
465,362,125572,1,8,0:0:0:0:
465,362,125657,1,0,0:0:0:0:
465,362,125828,1,0,0:0:0:0:
465,362,125913,1,0,0:0:0:0:
465,362,125998,1,8,0:0:0:0:
478,348,126168,1,8,0:0:0:0:
475,349,126339,1,8,0:0:0:0:
474,355,126424,1,8,0:0:0:0:
474,355,126509,1,0,0:0:0:0:
474,355,126595,1,0,0:0:0:0:
473,360,126680,1,8,0:0:0:0:
471,338,126850,1,8,0:0:0:0:
471,338,127021,1,0,0:0:0:0:
458,348,127191,1,0,0:0:0:0:
458,348,127276,1,0,0:0:0:0:
458,348,127362,1,8,0:0:0:0:
475,341,127532,1,8,0:0:0:0:
475,341,127703,1,8,0:0:0:0:
475,341,127788,1,8,0:0:0:0:
475,341,127873,1,0,0:0:0:0:
475,341,127958,1,0,0:0:0:0:
475,341,128043,1,8,0:0:0:0:
475,341,128129,1,8,0:0:0:0:
475,341,128214,1,0,0:0:0:0:
475,341,128299,1,8,0:0:0:0:
475,341,128384,1,0,0:0:0:0:
462,335,128555,1,0,0:0:0:0:
462,335,128640,1,0,0:0:0:0:
462,335,128725,1,8,0:0:0:0:
460,344,128896,1,8,0:0:0:0:
466,348,129066,1,8,0:0:0:0:
466,348,129151,1,8,0:0:0:0:
466,348,129237,1,0,0:0:0:0:
466,348,129322,1,0,0:0:0:0:
466,348,129407,1,8,0:0:0:0:
466,348,129578,1,8,0:0:0:0:
466,348,129748,1,0,0:0:0:0:
464,353,129833,1,0,0:0:0:0:
466,348,129918,1,8,0:0:0:0:
464,353,130004,1,0,0:0:0:0:
464,354,130089,1,8,0:0:0:0:
464,354,130259,1,8,0:0:0:0:
464,359,130430,1,8,0:0:0:0:
464,359,130515,1,8,0:0:0:0:
464,359,130600,1,0,0:0:0:0:
464,359,130685,1,0,0:0:0:0:
464,359,130771,1,8,0:0:0:0:
464,359,130856,1,0,0:0:0:0:
464,359,130941,1,8,0:0:0:0:
465,352,131026,1,8,0:0:0:0:
456,344,131112,1,4,0:0:0:0:
466,327,131282,1,0,0:0:0:0:
465,333,131367,1,0,0:0:0:0:
465,338,131453,1,8,0:0:0:0:
465,332,131623,1,0,0:0:0:0:
464,345,131793,1,0,0:0:0:0:
464,345,131879,1,0,0:0:0:0:
464,345,131964,1,8,0:0:0:0:
464,345,132049,1,0,0:0:0:0:
476,343,132134,1,8,0:0:0:0:
478,316,132305,1,8,0:0:0:0:
479,322,132475,1,0,0:0:0:0:
481,340,132646,1,0,0:0:0:0:
481,340,132731,1,0,0:0:0:0:
481,340,132816,1,8,0:0:0:0:
473,345,132987,1,0,0:0:0:0:
478,352,133157,1,0,0:0:0:0:
478,352,133242,1,0,0:0:0:0:
478,352,133328,1,8,0:0:0:0:
478,352,133413,1,0,0:0:0:0:
478,352,133498,1,8,0:0:0:0:
479,362,133583,1,8,0:0:0:0:
479,362,133668,1,8,0:0:0:0:
479,362,133754,1,8,0:0:0:0:
482,370,133839,1,0,0:0:0:0:
484,348,134009,1,0,0:0:0:0:
484,348,134095,1,0,0:0:0:0:
484,348,134180,1,8,0:0:0:0:
484,348,134350,1,0,0:0:0:0:
472,341,134521,1,0,0:0:0:0:
472,341,134606,1,0,0:0:0:0:
472,341,134691,1,8,0:0:0:0:
472,341,134776,1,0,0:0:0:0:
472,341,134862,1,8,0:0:0:0:
475,348,135032,1,8,0:0:0:0:
475,353,135203,1,0,0:0:0:0:
482,323,135373,1,0,0:0:0:0:
482,323,135458,1,0,0:0:0:0:
482,323,135543,1,8,0:0:0:0:
475,335,135714,1,0,0:0:0:0:
468,367,135884,1,0,0:0:0:0:
414,362,135970,1,8,0:0:0:0:
414,362,136055,1,0,0:0:0:0:
449,340,136140,1,0,0:0:0:0:
449,340,136225,1,8,0:0:0:0:
449,340,136310,1,8,0:0:0:0:
465,362,136396,1,8,0:0:0:0:
465,362,136481,1,8,0:0:0:0:
465,362,136566,1,0,0:0:0:0:
465,362,136737,1,8,0:0:0:0:
465,362,136822,1,0,0:0:0:0:
465,362,136907,1,8,0:0:0:0:
478,348,137078,1,8,0:0:0:0:
475,349,137248,1,8,0:0:0:0:
474,355,137333,1,8,0:0:0:0:
474,355,137418,1,0,0:0:0:0:
474,355,137504,1,0,0:0:0:0:
473,360,137589,1,8,0:0:0:0:
471,338,137759,1,8,0:0:0:0:
471,338,137930,1,0,0:0:0:0:
458,348,138100,1,8,0:0:0:0:
458,348,138185,1,0,0:0:0:0:
458,348,138271,1,8,0:0:0:0:
475,341,138441,1,8,0:0:0:0:
475,341,138612,1,8,0:0:0:0:
475,341,138697,1,8,0:0:0:0:
475,341,138782,1,0,0:0:0:0:
475,341,138867,1,0,0:0:0:0:
475,341,138953,1,8,0:0:0:0:
475,341,139038,1,8,0:0:0:0:
475,341,139123,1,8,0:0:0:0:
475,341,139208,1,8,0:0:0:0:
475,341,139293,1,0,0:0:0:0:
462,335,139464,1,8,0:0:0:0:
462,335,139549,1,0,0:0:0:0:
462,335,139634,1,8,0:0:0:0:
460,344,139805,1,8,0:0:0:0:
466,348,139975,1,8,0:0:0:0:
466,348,140060,1,8,0:0:0:0:
466,348,140146,1,0,0:0:0:0:
466,348,140231,1,0,0:0:0:0:
466,348,140316,1,8,0:0:0:0:
466,348,140487,1,8,0:0:0:0:
466,348,140657,1,0,0:0:0:0:
466,348,140828,1,8,0:0:0:0:
464,353,140913,1,0,0:0:0:0:
464,354,140998,1,8,0:0:0:0:
464,354,141168,1,8,0:0:0:0:
464,359,141339,1,8,0:0:0:0:
464,359,141424,1,8,0:0:0:0:
464,359,141509,1,0,0:0:0:0:
464,359,141595,1,0,0:0:0:0:
464,359,141680,1,8,0:0:0:0:
464,359,141765,1,8,0:0:0:0:
464,359,141850,1,8,0:0:0:0:
464,359,141935,1,8,0:0:0:0:
461,349,142021,1,0,0:0:0:0:
466,327,142191,1,0,0:0:0:0:
465,333,142276,1,0,0:0:0:0:
465,338,142362,1,8,0:0:0:0:
465,332,142532,1,0,0:0:0:0:
464,345,142703,1,0,0:0:0:0:
464,345,142788,1,0,0:0:0:0:
464,345,142873,1,8,0:0:0:0:
464,345,142958,1,0,0:0:0:0:
476,343,143043,1,8,0:0:0:0:
478,316,143214,1,8,0:0:0:0:
479,322,143384,1,0,0:0:0:0:
481,340,143555,1,0,0:0:0:0:
481,340,143640,1,0,0:0:0:0:
481,340,143725,1,8,0:0:0:0:
473,345,143896,1,0,0:0:0:0:
478,352,144066,1,0,0:0:0:0:
478,352,144151,1,0,0:0:0:0:
478,352,144237,1,8,0:0:0:0:
478,352,144322,1,0,0:0:0:0:
478,352,144407,1,8,0:0:0:0:
479,362,144492,1,8,0:0:0:0:
479,362,144578,1,8,0:0:0:0:
479,362,144663,1,8,0:0:0:0:
482,370,144748,1,0,0:0:0:0:
484,348,144918,1,0,0:0:0:0:
484,348,145004,1,0,0:0:0:0:
484,348,145089,1,8,0:0:0:0:
484,348,145259,1,0,0:0:0:0:
472,341,145430,1,0,0:0:0:0:
472,341,145515,1,0,0:0:0:0:
472,341,145600,1,8,0:0:0:0:
472,341,145685,1,0,0:0:0:0:
472,341,145771,1,8,0:0:0:0:
475,348,145941,1,8,0:0:0:0:
475,353,146112,1,0,0:0:0:0:
482,323,146282,1,0,0:0:0:0:
482,323,146367,1,0,0:0:0:0:
482,323,146453,1,8,0:0:0:0:
475,335,146623,1,0,0:0:0:0:
468,367,146793,1,0,0:0:0:0:
468,367,146879,1,8,0:0:0:0:
465,362,146964,1,0,0:0:0:0:
465,362,147049,1,0,0:0:0:0:
465,362,147134,1,8,0:0:0:0:
465,362,147220,1,8,0:0:0:0:
465,362,147305,1,8,0:0:0:0:
465,362,147390,1,8,0:0:0:0:
465,362,147475,1,0,0:0:0:0:
465,362,147646,1,8,0:0:0:0:
465,362,147731,1,0,0:0:0:0:
465,362,147816,1,8,0:0:0:0:
478,348,147987,1,8,0:0:0:0:
475,349,148157,1,8,0:0:0:0:
474,355,148242,1,8,0:0:0:0:
474,355,148328,1,0,0:0:0:0:
474,355,148413,1,0,0:0:0:0:
473,360,148498,1,8,0:0:0:0:
471,338,148668,1,8,0:0:0:0:
471,338,148839,1,0,0:0:0:0:
458,348,149009,1,8,0:0:0:0:
458,348,149095,1,0,0:0:0:0:
458,348,149180,1,8,0:0:0:0:
475,341,149350,1,8,0:0:0:0:
475,341,149521,1,8,0:0:0:0:
475,341,149606,1,8,0:0:0:0:
475,341,149691,1,0,0:0:0:0:
475,341,149776,1,0,0:0:0:0:
475,341,149862,1,8,0:0:0:0:
475,341,149947,1,8,0:0:0:0:
475,341,150032,1,8,0:0:0:0:
475,341,150117,1,8,0:0:0:0:
475,341,150203,1,0,0:0:0:0:
462,335,150373,1,8,0:0:0:0:
462,335,150458,1,0,0:0:0:0:
462,335,150543,1,8,0:0:0:0:
460,344,150714,1,8,0:0:0:0:
466,348,150884,1,8,0:0:0:0:
466,348,150970,1,8,0:0:0:0:
466,348,151055,1,0,0:0:0:0:
466,348,151140,1,0,0:0:0:0:
466,348,151225,1,8,0:0:0:0:
466,348,151396,1,8,0:0:0:0:
466,348,151566,1,0,0:0:0:0:
466,348,151737,1,8,0:0:0:0:
464,353,151822,1,0,0:0:0:0:
464,354,151907,1,8,0:0:0:0:
464,354,152078,1,8,0:0:0:0:
470,351,152248,1,8,0:0:0:0:
470,351,152333,1,0,0:0:0:0:
470,351,152418,1,8,0:0:0:0:
470,351,152504,1,8,0:0:0:0:
470,351,152589,1,0,0:0:0:0:
466,328,152674,1,8,0:0:0:0:
470,351,152759,1,0,0:0:0:0:
466,328,152845,1,0,0:0:0:0:
456,348,152930,1,8,0:0:0:0:
394,320,153015,1,8,0:0:0:0:
394,320,153100,1,0,0:0:0:0:
394,320,153185,1,0,0:0:0:0:
394,320,153271,1,8,0:0:0:0:
487,323,153356,1,0,0:0:0:0:
487,323,153441,1,8,0:0:0:0:
487,323,153526,1,8,0:0:0:0:
487,323,153612,1,0,0:0:0:0:
487,323,153697,1,8,0:0:0:0:
487,323,153782,1,0,0:0:0:0:
490,330,153867,1,0,0:0:0:0:
490,330,153953,1,8,0:0:0:0:
449,300,154038,1,0,0:0:0:0:
449,300,154123,1,8,0:0:0:0:
449,300,154208,1,8,0:0:0:0:
449,300,154293,1,0,0:0:0:0:
342,263,154379,1,8,0:0:0:0:
342,263,154464,1,0,0:0:0:0:
342,263,154549,1,0,0:0:0:0:
342,263,154634,1,8,0:0:0:0:
380,279,154720,1,8,0:0:0:0:
418,294,154805,1,0,0:0:0:0:
418,294,154890,1,0,0:0:0:0:
418,294,154975,1,8,0:0:0:0:
418,294,155060,1,8,0:0:0:0:
418,294,155146,1,0,0:0:0:0:
418,294,155231,1,0,0:0:0:0:
418,294,155316,1,8,0:0:0:0:
298,271,155401,1,8,0:0:0:0:
298,271,155487,1,8,0:0:0:0:
298,271,155572,1,8,0:0:0:0:
298,271,155657,1,0,0:0:0:0:
394,320,155742,1,8,0:0:0:0:
394,320,155828,1,0,0:0:0:0:
394,320,155913,1,0,0:0:0:0:
394,320,155998,1,8,0:0:0:0:
487,323,156083,1,0,0:0:0:0:
487,323,156168,1,8,0:0:0:0:
487,323,156254,1,8,0:0:0:0:
487,323,156339,1,0,0:0:0:0:
487,323,156424,1,8,0:0:0:0:
487,323,156509,1,0,0:0:0:0:
490,330,156595,1,0,0:0:0:0:
490,330,156680,1,8,0:0:0:0:
449,300,156765,1,0,0:0:0:0:
449,300,156850,1,8,0:0:0:0:
449,300,156935,1,8,0:0:0:0:
449,300,157021,1,0,0:0:0:0:
342,263,157106,1,8,0:0:0:0:
342,263,157191,1,0,0:0:0:0:
342,263,157276,1,0,0:0:0:0:
342,263,157362,1,8,0:0:0:0:
380,279,157447,1,8,0:0:0:0:
418,294,157532,1,0,0:0:0:0:
418,294,157617,1,0,0:0:0:0:
418,294,157703,1,8,0:0:0:0:
418,294,157788,1,8,0:0:0:0:
418,294,157873,1,0,0:0:0:0:
418,294,157958,1,0,0:0:0:0:
418,294,158043,1,8,0:0:0:0:
298,271,158129,1,8,0:0:0:0:
298,271,158214,1,8,0:0:0:0:
298,271,158299,1,8,0:0:0:0:
298,271,158384,1,0,0:0:0:0:
394,320,158470,1,8,0:0:0:0:
394,320,158555,1,0,0:0:0:0:
394,320,158640,1,0,0:0:0:0:
394,320,158725,1,8,0:0:0:0:
487,323,158810,1,0,0:0:0:0:
487,323,158896,1,8,0:0:0:0:
487,323,158981,1,8,0:0:0:0:
487,323,159066,1,0,0:0:0:0:
487,323,159151,1,8,0:0:0:0:
487,323,159237,1,0,0:0:0:0:
490,330,159322,1,0,0:0:0:0:
490,330,159407,1,8,0:0:0:0:
449,300,159492,1,0,0:0:0:0:
449,300,159578,1,8,0:0:0:0:
449,300,159663,1,8,0:0:0:0:
449,300,159748,1,0,0:0:0:0:
342,263,159833,1,8,0:0:0:0:
342,263,159918,1,0,0:0:0:0:
342,263,160004,1,0,0:0:0:0:
342,263,160089,1,8,0:0:0:0:
380,279,160174,1,8,0:0:0:0:
418,294,160259,1,0,0:0:0:0:
418,294,160345,1,0,0:0:0:0:
418,294,160430,1,8,0:0:0:0:
418,294,160515,1,8,0:0:0:0:
418,294,160600,1,0,0:0:0:0:
418,294,160685,1,0,0:0:0:0:
418,294,160771,1,8,0:0:0:0:
298,271,160856,1,8,0:0:0:0:
298,271,160941,1,8,0:0:0:0:
298,271,161026,1,8,0:0:0:0:
298,271,161112,1,0,0:0:0:0:
394,320,161197,1,8,0:0:0:0:
394,320,161282,1,0,0:0:0:0:
394,320,161367,1,0,0:0:0:0:
394,320,161453,1,8,0:0:0:0:
487,323,161538,1,0,0:0:0:0:
487,323,161623,1,8,0:0:0:0:
487,323,161708,1,8,0:0:0:0:
487,323,161793,1,0,0:0:0:0:
487,323,161879,1,8,0:0:0:0:
487,323,161964,1,0,0:0:0:0:
490,330,162049,1,0,0:0:0:0:
490,330,162134,1,8,0:0:0:0:
449,300,162220,1,0,0:0:0:0:
449,300,162305,1,8,0:0:0:0:
449,300,162390,1,8,0:0:0:0:
449,300,162475,1,0,0:0:0:0:
342,263,162560,1,8,0:0:0:0:
342,263,162646,1,0,0:0:0:0:
342,263,162731,1,0,0:0:0:0:
342,263,162816,1,8,0:0:0:0:
380,279,162901,1,8,0:0:0:0:
418,294,162987,1,0,0:0:0:0:
418,294,163072,1,0,0:0:0:0:
418,294,163157,1,8,0:0:0:0:
418,294,163242,1,8,0:0:0:0:
418,294,163328,1,0,0:0:0:0:
418,294,163413,1,0,0:0:0:0:
418,294,163498,1,8,0:0:0:0:
298,271,163583,1,8,0:0:0:0:
298,271,163668,1,8,0:0:0:0:
298,271,163754,1,8,0:0:0:0:
298,271,163839,1,0,0:0:0:0:
394,320,163924,1,8,0:0:0:0:
394,320,164009,1,0,0:0:0:0:
394,320,164095,1,0,0:0:0:0:
394,320,164180,1,8,0:0:0:0:
487,323,164265,1,0,0:0:0:0:
487,323,164350,1,8,0:0:0:0:
487,323,164435,1,8,0:0:0:0:
487,323,164521,1,0,0:0:0:0:
487,323,164606,1,8,0:0:0:0:
487,323,164691,1,0,0:0:0:0:
490,330,164776,1,0,0:0:0:0:
490,330,164862,1,8,0:0:0:0:
449,300,164947,1,0,0:0:0:0:
449,300,165032,1,8,0:0:0:0:
449,300,165117,1,8,0:0:0:0:
449,300,165203,1,0,0:0:0:0:
342,263,165288,1,8,0:0:0:0:
342,263,165373,1,0,0:0:0:0:
342,263,165458,1,0,0:0:0:0:
342,263,165543,1,8,0:0:0:0:
380,279,165629,1,8,0:0:0:0:
418,294,165714,1,0,0:0:0:0:
418,294,165799,1,0,0:0:0:0:
418,294,165884,1,8,0:0:0:0:
418,294,165970,1,8,0:0:0:0:
418,294,166055,1,0,0:0:0:0:
418,294,166140,1,0,0:0:0:0:
418,294,166225,1,8,0:0:0:0:
298,271,166310,1,8,0:0:0:0:
298,271,166396,1,8,0:0:0:0:
298,271,166481,1,8,0:0:0:0:
298,271,166566,1,0,0:0:0:0:
394,320,166651,1,8,0:0:0:0:
394,320,166737,1,0,0:0:0:0:
394,320,166822,1,0,0:0:0:0:
394,320,166907,1,8,0:0:0:0:
487,323,166992,1,0,0:0:0:0:
487,323,167078,1,8,0:0:0:0:
487,323,167163,1,8,0:0:0:0:
487,323,167248,1,0,0:0:0:0:
487,323,167333,1,8,0:0:0:0:
487,323,167418,1,0,0:0:0:0:
490,330,167504,1,0,0:0:0:0:
490,330,167589,1,8,0:0:0:0:
449,300,167674,1,0,0:0:0:0:
449,300,167759,1,8,0:0:0:0:
449,300,167845,1,8,0:0:0:0:
449,300,167930,1,0,0:0:0:0:
342,263,168015,1,8,0:0:0:0:
342,263,168100,1,0,0:0:0:0:
342,263,168185,1,0,0:0:0:0:
342,263,168271,1,8,0:0:0:0:
380,279,168356,1,8,0:0:0:0:
418,294,168441,1,0,0:0:0:0:
418,294,168526,1,0,0:0:0:0:
418,294,168612,1,8,0:0:0:0:
418,294,168697,1,8,0:0:0:0:
418,294,168782,1,0,0:0:0:0:
418,294,168867,1,0,0:0:0:0:
418,294,168953,1,8,0:0:0:0:
298,271,169038,1,8,0:0:0:0:
298,271,169123,1,8,0:0:0:0:
298,271,169208,1,8,0:0:0:0:
298,271,169293,1,0,0:0:0:0:
394,320,169379,1,8,0:0:0:0:
394,320,169464,1,0,0:0:0:0:
394,320,169549,1,0,0:0:0:0:
394,320,169634,1,8,0:0:0:0:
487,323,169720,1,0,0:0:0:0:
487,323,169805,1,8,0:0:0:0:
487,323,169890,1,8,0:0:0:0:
487,323,169975,1,0,0:0:0:0:
487,323,170060,1,8,0:0:0:0:
487,323,170146,1,0,0:0:0:0:
490,330,170231,1,0,0:0:0:0:
490,330,170316,1,8,0:0:0:0:
449,300,170401,1,0,0:0:0:0:
449,300,170487,1,8,0:0:0:0:
449,300,170572,1,8,0:0:0:0:
449,300,170657,1,0,0:0:0:0:
342,263,170742,1,8,0:0:0:0:
342,263,170828,1,0,0:0:0:0:
342,263,170913,1,0,0:0:0:0:
342,263,170998,1,8,0:0:0:0:
380,279,171083,1,8,0:0:0:0:
418,294,171168,1,0,0:0:0:0:
418,294,171254,1,0,0:0:0:0:
418,294,171339,1,8,0:0:0:0:
418,294,171424,1,8,0:0:0:0:
418,294,171509,1,0,0:0:0:0:
418,294,171595,1,0,0:0:0:0:
418,294,171680,1,8,0:0:0:0:
298,271,171765,1,8,0:0:0:0:
298,271,171850,1,8,0:0:0:0:
298,271,171935,1,8,0:0:0:0:
298,271,172021,1,0,0:0:0:0:
479,353,172106,1,0,0:0:0:0:
479,353,172191,1,8,0:0:0:0:
479,353,172276,1,8,0:0:0:0:
479,353,172362,1,0,0:0:0:0:
480,358,172447,1,8,0:0:0:0:
480,358,172532,1,0,0:0:0:0:
480,358,172617,1,0,0:0:0:0:
483,361,172703,1,8,0:0:0:0:
483,361,172788,1,0,0:0:0:0:
483,361,172873,1,8,0:0:0:0:
487,361,172958,1,8,0:0:0:0:
471,357,173043,1,0,0:0:0:0:
471,357,173129,1,8,0:0:0:0:
471,357,173214,1,0,0:0:0:0:
471,357,173299,1,0,0:0:0:0:
471,357,173384,1,8,0:0:0:0:
471,357,173470,1,0,0:0:0:0:
471,357,173555,1,0,0:0:0:0:
471,357,173640,1,0,0:0:0:0:
471,357,173725,1,8,0:0:0:0:
471,357,173810,1,0,0:0:0:0:
471,357,173896,1,0,0:0:0:0:
475,361,173981,1,0,0:0:0:0:
479,357,174066,1,8,0:0:0:0:
479,357,174151,1,8,0:0:0:0:
479,357,174237,1,0,0:0:0:0:
479,357,174322,1,0,0:0:0:0:
482,363,174407,1,8,0:0:0:0:
470,338,174578,1,8,0:0:0:0:
470,338,174748,1,4,0:0:0:0:
198,275,175259,1,0,0:0:0:0:
201,278,175771,1,0,0:0:0:0:
201,278,176282,1,0,0:0:0:0:
201,278,176793,1,0,0:0:0:0:
201,278,177134,1,0,0:0:0:0:
201,278,177475,1,0,0:0:0:0:
202,279,177987,1,0,0:0:0:0:
202,279,178498,1,0,0:0:0:0:
202,279,179009,1,0,0:0:0:0:
202,279,179521,1,0,0:0:0:0:
203,279,179862,1,0,0:0:0:0:
282,317,180203,1,8,0:0:0:0:
466,374,180714,1,8,0:0:0:0:
460,363,181225,1,8,0:0:0:0:
459,362,181737,1,8,0:0:0:0:
458,363,182248,1,8,0:0:0:0:
458,363,182589,1,8,0:0:0:0:
458,363,182930,1,8,0:0:0:0:
458,364,183441,1,8,0:0:0:0:
458,364,183953,1,8,0:0:0:0:
332,351,184464,1,8,0:0:0:0:
331,351,184975,1,0,0:0:0:0:
331,351,185316,1,8,0:0:0:0:
331,351,185657,1,0,0:0:0:0:
198,275,186168,1,0,0:0:0:0:
201,278,186680,1,0,0:0:0:0:
201,278,187191,1,0,0:0:0:0:
201,278,187703,1,0,0:0:0:0:
201,278,188043,1,0,0:0:0:0:
201,278,188384,1,0,0:0:0:0:
202,279,188896,1,0,0:0:0:0:
202,279,189407,1,0,0:0:0:0:
202,279,189918,1,0,0:0:0:0:
202,279,190430,1,0,0:0:0:0:
203,279,190771,1,0,0:0:0:0:
282,317,191112,1,8,0:0:0:0:
466,374,191623,1,8,0:0:0:0:
460,363,192134,1,8,0:0:0:0:
459,362,192646,1,8,0:0:0:0:
458,363,193157,1,8,0:0:0:0:
458,363,193498,1,8,0:0:0:0:
458,363,193839,1,8,0:0:0:0:
458,364,194350,1,8,0:0:0:0:
458,364,194862,1,8,0:0:0:0:
332,351,195373,1,8,0:0:0:0:
331,351,195884,1,8,0:0:0:0:
331,351,196225,1,8,0:0:0:0:
331,351,196566,1,12,0:0:0:0:
411,347,196907,1,0,0:0:0:0:
467,344,197248,1,0,0:0:0:0:
467,344,197418,1,8,0:0:0:0:
467,344,197589,1,0,0:0:0:0:
467,366,197930,1,8,0:0:0:0:
466,362,198271,1,0,0:0:0:0:
475,327,198612,1,0,0:0:0:0:
475,327,198782,1,8,0:0:0:0:
475,327,198953,1,0,0:0:0:0:
480,352,199293,1,8,0:0:0:0:
474,334,199634,1,0,0:0:0:0:
480,352,199975,1,0,0:0:0:0:
480,352,200146,1,8,0:0:0:0:
154,154,200316,1,0,0:0:0:0:
479,357,200657,1,8,0:0:0:0:
470,324,200998,1,0,0:0:0:0:
469,325,201339,1,0,0:0:0:0:
469,325,201509,1,8,0:0:0:0:
469,325,201680,1,0,0:0:0:0:
469,335,202021,1,8,0:0:0:0:
476,348,202362,1,0,0:0:0:0:
466,353,202703,1,8,0:0:0:0:
465,343,202873,1,0,0:0:0:0:
465,343,203043,1,8,0:0:0:0:
465,343,203384,1,0,0:0:0:0:
463,343,203725,1,8,0:0:0:0:
465,327,204066,1,8,0:0:0:0:
465,327,204237,1,0,0:0:0:0:
465,327,204407,1,8,0:0:0:0:
469,341,204748,1,0,0:0:0:0:
469,335,205089,1,8,0:0:0:0:
466,353,205430,1,8,0:0:0:0:
465,343,205600,1,0,0:0:0:0:
465,343,205771,1,8,0:0:0:0:
465,343,206112,1,0,0:0:0:0:
463,343,206453,1,8,0:0:0:0:
465,327,206793,1,8,0:0:0:0:
465,327,206964,1,0,0:0:0:0:
465,327,207134,1,8,0:0:0:0:
411,347,207475,1,8,0:0:0:0:
469,341,207816,1,0,0:0:0:0:
467,344,208157,1,0,0:0:0:0:
467,344,208328,1,8,0:0:0:0:
467,344,208498,1,0,0:0:0:0:
467,366,208839,1,8,0:0:0:0:
466,362,209180,1,0,0:0:0:0:
475,327,209521,1,0,0:0:0:0:
475,327,209691,1,8,0:0:0:0:
475,327,209862,1,0,0:0:0:0:
480,352,210203,1,8,0:0:0:0:
474,334,210543,1,0,0:0:0:0:
480,352,210884,1,0,0:0:0:0:
480,352,211055,1,8,0:0:0:0:
154,154,211225,1,0,0:0:0:0:
479,357,211566,1,8,0:0:0:0:
470,324,211907,1,0,0:0:0:0:
469,325,212248,1,0,0:0:0:0:
469,325,212418,1,8,0:0:0:0:
469,325,212589,1,0,0:0:0:0:
469,335,212930,1,8,0:0:0:0:
476,348,213271,1,0,0:0:0:0:
466,353,213612,1,8,0:0:0:0:
465,343,213782,1,0,0:0:0:0:
465,343,213953,1,8,0:0:0:0:
465,343,214293,1,0,0:0:0:0:
463,343,214634,1,8,0:0:0:0:
465,327,214975,1,8,0:0:0:0:
465,327,215146,1,0,0:0:0:0:
465,327,215316,1,8,0:0:0:0:
504,332,218043,1,12,0:0:0:0:
477,352,218384,1,4,0:0:0:0:
472,340,218555,1,0,0:0:0:0:
472,340,218640,1,0,0:0:0:0:
472,340,218725,1,8,0:0:0:0:
472,340,218896,1,0,0:0:0:0:
470,324,219066,1,0,0:0:0:0:
470,324,219151,1,0,0:0:0:0:
470,324,219237,1,8,0:0:0:0:
474,328,219322,1,0,0:0:0:0:
474,328,219407,1,8,0:0:0:0:
462,338,219578,1,8,0:0:0:0:
462,343,219748,1,0,0:0:0:0:
454,328,219918,1,0,0:0:0:0:
454,328,220004,1,0,0:0:0:0:
454,328,220089,1,8,0:0:0:0:
459,346,220259,1,0,0:0:0:0:
472,345,220430,1,0,0:0:0:0:
472,345,220515,1,0,0:0:0:0:
472,345,220600,1,8,0:0:0:0:
472,345,220685,1,0,0:0:0:0:
472,345,220771,1,8,0:0:0:0:
472,350,220941,1,8,0:0:0:0:
472,350,221026,1,8,0:0:0:0:
472,350,221112,1,0,0:0:0:0:
472,340,221282,1,0,0:0:0:0:
472,340,221367,1,0,0:0:0:0:
472,340,221453,1,8,0:0:0:0:
472,340,221623,1,0,0:0:0:0:
470,324,221793,1,0,0:0:0:0:
470,324,221879,1,0,0:0:0:0:
470,324,221964,1,8,0:0:0:0:
474,328,222049,1,0,0:0:0:0:
474,328,222134,1,8,0:0:0:0:
462,338,222305,1,8,0:0:0:0:
462,343,222475,1,0,0:0:0:0:
454,328,222646,1,0,0:0:0:0:
454,328,222731,1,0,0:0:0:0:
454,328,222816,1,8,0:0:0:0:
459,346,222987,1,0,0:0:0:0:
472,345,223157,1,8,0:0:0:0:
472,345,223242,1,0,0:0:0:0:
472,345,223328,1,8,0:0:0:0:
472,345,223413,1,8,0:0:0:0:
472,345,223498,1,0,0:0:0:0:
472,350,223668,1,8,0:0:0:0:
472,350,223754,1,8,0:0:0:0:
472,350,223839,1,0,0:0:0:0:
501,355,224009,1,8,0:0:0:0:
501,355,224095,1,8,0:0:0:0:
501,355,224180,1,8,0:0:0:0:
471,368,224350,1,0,0:0:0:0:
463,325,224521,1,8,0:0:0:0:
463,325,224606,1,8,0:0:0:0:
463,325,224691,1,0,0:0:0:0:
463,325,224776,1,0,0:0:0:0:
465,329,224862,1,8,0:0:0:0:
470,330,225032,1,8,0:0:0:0:
448,341,225117,1,8,0:0:0:0:
470,330,225203,1,0,0:0:0:0:
465,347,225373,1,8,0:0:0:0:
465,347,225458,1,8,0:0:0:0:
465,347,225543,1,8,0:0:0:0:
464,355,225714,1,0,0:0:0:0:
448,313,225884,1,8,0:0:0:0:
448,313,225970,1,8,0:0:0:0:
448,313,226055,1,0,0:0:0:0:
448,313,226140,1,0,0:0:0:0:
448,313,226225,1,8,0:0:0:0:
448,313,226310,1,0,0:0:0:0:
448,313,226396,1,8,0:0:0:0:
447,321,226566,1,0,0:0:0:0:
501,355,226737,1,8,0:0:0:0:
501,355,226822,1,8,0:0:0:0:
501,355,226907,1,8,0:0:0:0:
471,368,227078,1,0,0:0:0:0:
463,325,227248,1,8,0:0:0:0:
463,325,227333,1,8,0:0:0:0:
463,325,227418,1,0,0:0:0:0:
463,325,227504,1,0,0:0:0:0:
465,329,227589,1,8,0:0:0:0:
470,330,227759,1,8,0:0:0:0:
448,341,227845,1,8,0:0:0:0:
470,330,227930,1,0,0:0:0:0:
465,347,228100,1,8,0:0:0:0:
465,347,228185,1,8,0:0:0:0:
465,347,228271,1,8,0:0:0:0:
464,355,228441,1,0,0:0:0:0:
448,313,228612,1,8,0:0:0:0:
448,313,228697,1,8,0:0:0:0:
448,313,228782,1,0,0:0:0:0:
448,313,228867,1,0,0:0:0:0:
448,313,228953,1,8,0:0:0:0:
448,313,229038,1,0,0:0:0:0:
448,313,229123,1,8,0:0:0:0:
447,321,229293,1,0,0:0:0:0:
472,340,229464,1,0,0:0:0:0:
472,340,229549,1,0,0:0:0:0:
472,340,229634,1,8,0:0:0:0:
472,340,229805,1,0,0:0:0:0:
470,324,229975,1,0,0:0:0:0:
470,324,230060,1,0,0:0:0:0:
470,324,230146,1,8,0:0:0:0:
474,328,230231,1,0,0:0:0:0:
474,328,230316,1,8,0:0:0:0:
462,338,230487,1,8,0:0:0:0:
462,343,230657,1,0,0:0:0:0:
454,328,230828,1,0,0:0:0:0:
454,328,230913,1,0,0:0:0:0:
454,328,230998,1,8,0:0:0:0:
459,346,231168,1,0,0:0:0:0:
472,345,231339,1,0,0:0:0:0:
472,345,231424,1,0,0:0:0:0:
472,345,231509,1,8,0:0:0:0:
472,345,231595,1,0,0:0:0:0:
472,345,231680,1,8,0:0:0:0:
472,350,231850,1,8,0:0:0:0:
472,350,231935,1,8,0:0:0:0:
472,350,232021,1,0,0:0:0:0:
472,340,232191,1,0,0:0:0:0:
472,340,232276,1,0,0:0:0:0:
472,340,232362,1,8,0:0:0:0:
472,340,232532,1,0,0:0:0:0:
470,324,232703,1,0,0:0:0:0:
470,324,232788,1,0,0:0:0:0:
470,324,232873,1,8,0:0:0:0:
474,328,232958,1,0,0:0:0:0:
474,328,233043,1,8,0:0:0:0:
462,338,233214,1,8,0:0:0:0:
462,343,233384,1,0,0:0:0:0:
454,328,233555,1,0,0:0:0:0:
454,328,233640,1,0,0:0:0:0:
454,328,233725,1,8,0:0:0:0:
459,346,233896,1,0,0:0:0:0:
472,345,234066,1,8,0:0:0:0:
472,345,234151,1,0,0:0:0:0:
472,345,234237,1,8,0:0:0:0:
472,345,234322,1,8,0:0:0:0:
472,345,234407,1,0,0:0:0:0:
472,350,234578,1,8,0:0:0:0:
472,350,234663,1,8,0:0:0:0:
472,350,234748,1,0,0:0:0:0:
501,355,234918,1,8,0:0:0:0:
501,355,235004,1,8,0:0:0:0:
501,355,235089,1,8,0:0:0:0:
471,368,235259,1,0,0:0:0:0:
463,325,235430,1,8,0:0:0:0:
463,325,235515,1,8,0:0:0:0:
463,325,235600,1,0,0:0:0:0:
463,325,235685,1,0,0:0:0:0:
465,329,235771,1,8,0:0:0:0:
470,330,235941,1,8,0:0:0:0:
448,341,236026,1,8,0:0:0:0:
470,330,236112,1,0,0:0:0:0:
465,347,236282,1,8,0:0:0:0:
465,347,236367,1,8,0:0:0:0:
465,347,236453,1,8,0:0:0:0:
464,355,236623,1,0,0:0:0:0:
448,313,236793,1,8,0:0:0:0:
448,313,236879,1,8,0:0:0:0:
448,313,236964,1,0,0:0:0:0:
448,313,237049,1,0,0:0:0:0:
448,313,237134,1,8,0:0:0:0:
448,313,237220,1,0,0:0:0:0:
448,313,237305,1,8,0:0:0:0:
447,321,237475,1,0,0:0:0:0:
501,355,237646,1,8,0:0:0:0:
501,355,237731,1,8,0:0:0:0:
501,355,237816,1,8,0:0:0:0:
471,368,237987,1,0,0:0:0:0:
463,325,238157,1,8,0:0:0:0:
463,325,238242,1,8,0:0:0:0:
463,325,238328,1,0,0:0:0:0:
463,325,238413,1,0,0:0:0:0:
465,329,238498,1,8,0:0:0:0:
470,330,238668,1,8,0:0:0:0:
448,341,238754,1,8,0:0:0:0:
470,330,238839,1,0,0:0:0:0:
465,347,239009,1,8,0:0:0:0:
465,347,239095,1,8,0:0:0:0:
465,347,239180,1,8,0:0:0:0:
464,355,239350,1,0,0:0:0:0:
448,313,239521,1,8,0:0:0:0:
448,313,239606,1,8,0:0:0:0:
448,313,239691,1,0,0:0:0:0:
448,313,239776,1,0,0:0:0:0:
448,313,239862,1,8,0:0:0:0:
448,313,239947,1,0,0:0:0:0:
448,313,240032,1,8,0:0:0:0:
447,321,240203,1,4,0:0:0:0:
466,327,240373,1,0,0:0:0:0:
465,333,240458,1,0,0:0:0:0:
465,338,240543,1,8,0:0:0:0:
465,332,240714,1,0,0:0:0:0:
464,345,240884,1,0,0:0:0:0:
464,345,240970,1,0,0:0:0:0:
464,345,241055,1,8,0:0:0:0:
464,345,241140,1,0,0:0:0:0:
476,343,241225,1,8,0:0:0:0:
478,316,241396,1,8,0:0:0:0:
479,322,241566,1,0,0:0:0:0:
481,340,241737,1,0,0:0:0:0:
481,340,241822,1,0,0:0:0:0:
481,340,241907,1,8,0:0:0:0:
473,345,242078,1,0,0:0:0:0:
478,352,242248,1,0,0:0:0:0:
478,352,242333,1,0,0:0:0:0:
478,352,242418,1,8,0:0:0:0:
478,352,242504,1,0,0:0:0:0:
478,352,242589,1,8,0:0:0:0:
479,362,242674,1,8,0:0:0:0:
479,362,242759,1,8,0:0:0:0:
479,362,242845,1,8,0:0:0:0:
482,370,242930,1,0,0:0:0:0:
484,348,243100,1,0,0:0:0:0:
484,348,243185,1,0,0:0:0:0:
484,348,243271,1,8,0:0:0:0:
484,348,243441,1,0,0:0:0:0:
472,341,243612,1,0,0:0:0:0:
472,341,243697,1,0,0:0:0:0:
472,341,243782,1,8,0:0:0:0:
472,341,243867,1,0,0:0:0:0:
472,341,243953,1,8,0:0:0:0:
475,348,244123,1,8,0:0:0:0:
475,353,244293,1,0,0:0:0:0:
482,323,244464,1,0,0:0:0:0:
482,323,244549,1,0,0:0:0:0:
482,323,244634,1,8,0:0:0:0:
475,335,244805,1,0,0:0:0:0:
468,367,244975,1,0,0:0:0:0:
468,367,245060,1,8,0:0:0:0:
465,362,245146,1,0,0:0:0:0:
465,362,245231,1,0,0:0:0:0:
465,362,245316,1,8,0:0:0:0:
465,362,245401,1,8,0:0:0:0:
465,362,245487,1,8,0:0:0:0:
465,362,245572,1,8,0:0:0:0:
465,362,245657,1,0,0:0:0:0:
465,362,245828,1,8,0:0:0:0:
465,362,245913,1,0,0:0:0:0:
465,362,245998,1,8,0:0:0:0:
478,348,246168,1,8,0:0:0:0:
475,349,246339,1,8,0:0:0:0:
474,355,246424,1,8,0:0:0:0:
474,355,246509,1,0,0:0:0:0:
474,355,246595,1,0,0:0:0:0:
473,360,246680,1,8,0:0:0:0:
471,338,246850,1,8,0:0:0:0:
471,338,247021,1,0,0:0:0:0:
458,348,247191,1,8,0:0:0:0:
458,348,247276,1,0,0:0:0:0:
458,348,247362,1,8,0:0:0:0:
475,341,247532,1,8,0:0:0:0:
475,341,247703,1,8,0:0:0:0:
475,341,247788,1,8,0:0:0:0:
475,341,247873,1,0,0:0:0:0:
475,341,247958,1,0,0:0:0:0:
475,341,248043,1,8,0:0:0:0:
475,341,248129,1,8,0:0:0:0:
475,341,248214,1,8,0:0:0:0:
475,341,248299,1,8,0:0:0:0:
475,341,248384,1,0,0:0:0:0:
462,335,248555,1,8,0:0:0:0:
462,335,248640,1,0,0:0:0:0:
462,335,248725,1,8,0:0:0:0:
460,344,248896,1,8,0:0:0:0:
466,348,249066,1,8,0:0:0:0:
466,348,249151,1,8,0:0:0:0:
466,348,249237,1,0,0:0:0:0:
466,348,249322,1,0,0:0:0:0:
466,348,249407,1,8,0:0:0:0:
466,348,249578,1,8,0:0:0:0:
466,348,249748,1,0,0:0:0:0:
466,348,249918,1,8,0:0:0:0:
464,353,250004,1,0,0:0:0:0:
464,354,250089,1,8,0:0:0:0:
464,354,250259,1,8,0:0:0:0:
464,359,250430,1,8,0:0:0:0:
464,359,250515,1,8,0:0:0:0:
464,359,250600,1,0,0:0:0:0:
464,359,250685,1,0,0:0:0:0:
464,359,250771,1,8,0:0:0:0:
464,359,250856,1,8,0:0:0:0:
464,359,250941,1,8,0:0:0:0:
464,359,251026,1,8,0:0:0:0:
461,349,251112,1,0,0:0:0:0:
466,327,251282,1,0,0:0:0:0:
465,333,251367,1,0,0:0:0:0:
465,338,251453,1,8,0:0:0:0:
465,332,251623,1,0,0:0:0:0:
464,345,251793,1,0,0:0:0:0:
464,345,251879,1,0,0:0:0:0:
464,345,251964,1,8,0:0:0:0:
464,345,252049,1,0,0:0:0:0:
476,343,252134,1,8,0:0:0:0:
478,316,252305,1,8,0:0:0:0:
479,322,252475,1,0,0:0:0:0:
481,340,252646,1,0,0:0:0:0:
481,340,252731,1,0,0:0:0:0:
481,340,252816,1,8,0:0:0:0:
473,345,252987,1,0,0:0:0:0:
478,352,253157,1,0,0:0:0:0:
478,352,253242,1,0,0:0:0:0:
478,352,253328,1,8,0:0:0:0:
478,352,253413,1,0,0:0:0:0:
478,352,253498,1,8,0:0:0:0:
479,362,253583,1,8,0:0:0:0:
479,362,253668,1,8,0:0:0:0:
479,362,253754,1,8,0:0:0:0:
482,370,253839,1,0,0:0:0:0:
484,348,254009,1,0,0:0:0:0:
484,348,254095,1,0,0:0:0:0:
484,348,254180,1,8,0:0:0:0:
484,348,254350,1,0,0:0:0:0:
472,341,254521,1,0,0:0:0:0:
472,341,254606,1,0,0:0:0:0:
472,341,254691,1,8,0:0:0:0:
472,341,254776,1,0,0:0:0:0:
472,341,254862,1,8,0:0:0:0:
475,348,255032,1,8,0:0:0:0:
475,353,255203,1,0,0:0:0:0:
482,323,255373,1,0,0:0:0:0:
482,323,255458,1,0,0:0:0:0:
482,323,255543,1,8,0:0:0:0:
475,335,255714,1,0,0:0:0:0:
468,367,255884,1,0,0:0:0:0:
468,367,255970,1,8,0:0:0:0:
465,362,256055,1,0,0:0:0:0:
465,362,256140,1,0,0:0:0:0:
465,362,256225,1,8,0:0:0:0:
465,362,256310,1,8,0:0:0:0:
465,362,256396,1,8,0:0:0:0:
465,362,256481,1,8,0:0:0:0:
465,362,256566,1,0,0:0:0:0:
465,362,256737,1,8,0:0:0:0:
465,362,256822,1,0,0:0:0:0:
465,362,256907,1,8,0:0:0:0:
478,348,257078,1,8,0:0:0:0:
475,349,257248,1,8,0:0:0:0:
474,355,257333,1,8,0:0:0:0:
474,355,257418,1,0,0:0:0:0:
474,355,257504,1,0,0:0:0:0:
473,360,257589,1,8,0:0:0:0:
471,338,257759,1,8,0:0:0:0:
471,338,257930,1,0,0:0:0:0:
458,348,258100,1,8,0:0:0:0:
458,348,258185,1,0,0:0:0:0:
458,348,258271,1,8,0:0:0:0:
475,341,258441,1,8,0:0:0:0:
475,341,258612,1,8,0:0:0:0:
475,341,258697,1,8,0:0:0:0:
475,341,258782,1,0,0:0:0:0:
475,341,258867,1,0,0:0:0:0:
475,341,258953,1,8,0:0:0:0:
475,341,259038,1,8,0:0:0:0:
475,341,259123,1,8,0:0:0:0:
475,341,259208,1,8,0:0:0:0:
475,341,259293,1,0,0:0:0:0:
462,335,259464,1,8,0:0:0:0:
462,335,259549,1,0,0:0:0:0:
462,335,259634,1,8,0:0:0:0:
460,344,259805,1,8,0:0:0:0:
466,348,259975,1,8,0:0:0:0:
466,348,260060,1,8,0:0:0:0:
466,348,260146,1,0,0:0:0:0:
466,348,260231,1,0,0:0:0:0:
466,348,260316,1,8,0:0:0:0:
466,348,260487,1,8,0:0:0:0:
466,348,260657,1,0,0:0:0:0:
466,348,260828,1,8,0:0:0:0:
464,353,260913,1,0,0:0:0:0:
464,354,260998,1,8,0:0:0:0:
464,354,261168,1,8,0:0:0:0:
470,351,261339,1,8,0:0:0:0:
470,351,261424,1,0,0:0:0:0:
470,351,261509,1,8,0:0:0:0:
470,351,261595,1,8,0:0:0:0:
470,351,261680,1,0,0:0:0:0:
466,328,261765,1,8,0:0:0:0:
470,351,261850,1,0,0:0:0:0:
466,328,261935,1,0,0:0:0:0:
478,348,262021,1,12,0:0:0:0:
478,348,262191,1,0,0:0:0:0:
466,343,262362,1,8,0:0:0:0:
466,343,262532,1,8,0:0:0:0:
466,343,262617,1,8,0:0:0:0:
466,343,262703,1,0,0:0:0:0:
478,348,262788,1,8,0:0:0:0:
478,348,262873,1,0,0:0:0:0:
478,348,262958,1,0,0:0:0:0:
478,348,263043,1,8,0:0:0:0:
469,329,263214,1,8,0:0:0:0:
469,329,263384,1,0,0:0:0:0:
481,340,263555,1,0,0:0:0:0:
481,340,263640,1,0,0:0:0:0:
481,340,263725,1,8,0:0:0:0:
473,345,263896,1,0,0:0:0:0:
478,352,264066,1,0,0:0:0:0:
478,352,264151,1,0,0:0:0:0:
478,352,264237,1,8,0:0:0:0:
478,352,264322,1,0,0:0:0:0:
478,352,264407,1,8,0:0:0:0:
479,362,264492,1,8,0:0:0:0:
479,362,264578,1,0,0:0:0:0:
479,362,264663,1,8,0:0:0:0:
482,370,264748,1,0,0:0:0:0:
484,348,264918,1,0,0:0:0:0:
484,348,265004,1,0,0:0:0:0:
484,348,265089,1,8,0:0:0:0:
484,348,265259,1,0,0:0:0:0:
472,341,265430,1,0,0:0:0:0:
472,341,265515,1,0,0:0:0:0:
472,341,265600,1,8,0:0:0:0:
472,341,265685,1,0,0:0:0:0:
472,341,265771,1,8,0:0:0:0:
475,348,265941,1,8,0:0:0:0:
475,353,266112,1,0,0:0:0:0:
482,323,266282,1,0,0:0:0:0:
482,323,266367,1,0,0:0:0:0:
482,323,266453,1,8,0:0:0:0:
475,335,266623,1,0,0:0:0:0:
367,274,266793,1,0,0:0:0:0:
377,289,266879,1,0,0:0:0:0:
377,289,266964,1,8,0:0:0:0:
377,289,267049,1,8,0:0:0:0:
377,289,267134,1,0,0:0:0:0:
377,289,267220,1,0,0:0:0:0:
377,289,267305,1,8,0:0:0:0:
377,289,267390,1,8,0:0:0:0:
377,289,267475,1,0,0:0:0:0:
465,362,267646,1,0,0:0:0:0:
465,362,267731,1,0,0:0:0:0:
465,362,267816,1,8,0:0:0:0:
478,348,267987,1,8,0:0:0:0:
475,349,268157,1,8,0:0:0:0:
474,355,268242,1,8,0:0:0:0:
474,355,268328,1,0,0:0:0:0:
474,355,268413,1,0,0:0:0:0:
473,360,268498,1,8,0:0:0:0:
471,338,268668,1,8,0:0:0:0:
471,338,268839,1,0,0:0:0:0:
458,348,269009,1,0,0:0:0:0:
458,348,269095,1,0,0:0:0:0:
458,348,269180,1,8,0:0:0:0:
475,341,269350,1,8,0:0:0:0:
475,341,269521,1,8,0:0:0:0:
475,341,269606,1,8,0:0:0:0:
475,341,269691,1,0,0:0:0:0:
475,341,269776,1,0,0:0:0:0:
475,341,269862,1,8,0:0:0:0:
475,341,269947,1,8,0:0:0:0:
475,341,270032,1,0,0:0:0:0:
475,341,270117,1,8,0:0:0:0:
475,341,270203,1,0,0:0:0:0:
462,335,270373,1,0,0:0:0:0:
462,335,270458,1,0,0:0:0:0:
462,335,270543,1,8,0:0:0:0:
460,344,270714,1,8,0:0:0:0:
466,348,270884,1,8,0:0:0:0:
466,348,270970,1,8,0:0:0:0:
466,348,271055,1,0,0:0:0:0:
466,348,271140,1,0,0:0:0:0:
466,348,271225,1,8,0:0:0:0:
466,348,271396,1,8,0:0:0:0:
466,348,271566,1,0,0:0:0:0:
466,348,271737,1,0,0:0:0:0:
464,353,271822,1,0,0:0:0:0:
464,354,271907,1,8,0:0:0:0:
464,354,272078,1,8,0:0:0:0:
464,359,272248,1,8,0:0:0:0:
464,359,272333,1,8,0:0:0:0:
464,359,272418,1,0,0:0:0:0:
464,359,272504,1,0,0:0:0:0:
464,359,272589,1,8,0:0:0:0:
464,359,272674,1,0,0:0:0:0:
464,359,272759,1,8,0:0:0:0:
455,366,272845,1,0,0:0:0:0:
478,348,272930,1,8,0:0:0:0:
478,348,273015,1,8,0:0:0:0:
478,348,273100,1,0,0:0:0:0:
466,343,273271,1,8,0:0:0:0:
466,343,273441,1,8,0:0:0:0:
466,343,273526,1,8,0:0:0:0:
466,343,273612,1,0,0:0:0:0:
478,348,273697,1,8,0:0:0:0:
478,348,273782,1,0,0:0:0:0:
478,348,273867,1,0,0:0:0:0:
478,348,273953,1,8,0:0:0:0:
469,329,274123,1,8,0:0:0:0:
469,329,274293,1,0,0:0:0:0:
481,340,274464,1,0,0:0:0:0:
481,340,274549,1,0,0:0:0:0:
481,340,274634,1,8,0:0:0:0:
473,345,274805,1,0,0:0:0:0:
478,352,274975,1,0,0:0:0:0:
478,352,275060,1,0,0:0:0:0:
478,352,275146,1,8,0:0:0:0:
478,352,275231,1,0,0:0:0:0:
478,352,275316,1,8,0:0:0:0:
479,362,275401,1,8,0:0:0:0:
479,362,275487,1,0,0:0:0:0:
479,362,275572,1,8,0:0:0:0:
482,370,275657,1,0,0:0:0:0:
484,348,275828,1,0,0:0:0:0:
484,348,275913,1,0,0:0:0:0:
484,348,275998,1,8,0:0:0:0:
484,348,276168,1,0,0:0:0:0:
472,341,276339,1,0,0:0:0:0:
472,341,276424,1,0,0:0:0:0:
472,341,276509,1,8,0:0:0:0:
472,341,276595,1,0,0:0:0:0:
472,341,276680,1,8,0:0:0:0:
475,348,276850,1,8,0:0:0:0:
475,353,277021,1,0,0:0:0:0:
482,323,277191,1,0,0:0:0:0:
482,323,277276,1,0,0:0:0:0:
482,323,277362,1,8,0:0:0:0:
475,335,277532,1,0,0:0:0:0:
468,367,277703,1,0,0:0:0:0:
468,367,277788,1,0,0:0:0:0:
465,362,277873,1,8,0:0:0:0:
465,362,277958,1,8,0:0:0:0:
465,362,278043,1,8,0:0:0:0:
465,362,278129,1,0,0:0:0:0:
465,362,278214,1,8,0:0:0:0:
465,362,278299,1,8,0:0:0:0:
465,362,278384,1,0,0:0:0:0:
465,362,278555,1,0,0:0:0:0:
465,362,278640,1,0,0:0:0:0:
465,362,278725,1,8,0:0:0:0:
478,348,278896,1,8,0:0:0:0:
475,349,279066,1,8,0:0:0:0:
474,355,279151,1,8,0:0:0:0:
474,355,279237,1,0,0:0:0:0:
474,355,279322,1,0,0:0:0:0:
473,360,279407,1,8,0:0:0:0:
471,338,279578,1,8,0:0:0:0:
471,338,279748,1,0,0:0:0:0:
458,348,279918,1,0,0:0:0:0:
458,348,280004,1,0,0:0:0:0:
458,348,280089,1,8,0:0:0:0:
475,341,280259,1,8,0:0:0:0:
475,341,280430,1,8,0:0:0:0:
475,341,280515,1,8,0:0:0:0:
475,341,280600,1,0,0:0:0:0:
475,341,280685,1,0,0:0:0:0:
475,341,280771,1,8,0:0:0:0:
475,341,280856,1,8,0:0:0:0:
475,341,280941,1,0,0:0:0:0:
475,341,281026,1,8,0:0:0:0:
475,341,281112,1,0,0:0:0:0:
462,335,281282,1,0,0:0:0:0:
462,335,281367,1,0,0:0:0:0:
462,335,281453,1,8,0:0:0:0:
460,344,281623,1,8,0:0:0:0:
466,348,281793,1,8,0:0:0:0:
466,348,281879,1,8,0:0:0:0:
466,348,281964,1,0,0:0:0:0:
466,348,282049,1,0,0:0:0:0:
466,348,282134,1,8,0:0:0:0:
466,348,282305,1,8,0:0:0:0:
466,348,282475,1,0,0:0:0:0:
464,353,282560,1,8,0:0:0:0:
466,348,282646,1,0,0:0:0:0:
464,353,282731,1,0,0:0:0:0:
464,354,282816,1,8,0:0:0:0:
464,354,282987,1,8,0:0:0:0:
464,359,283157,1,8,0:0:0:0:
464,359,283242,1,8,0:0:0:0:
464,359,283328,1,0,0:0:0:0:
464,359,283413,1,0,0:0:0:0:
464,359,283498,1,8,0:0:0:0:
464,359,283583,1,0,0:0:0:0:
464,359,283668,1,8,0:0:0:0:
482,363,283754,1,0,0:0:0:0:
507,357,283839,1,12,0:0:0:0:
507,357,284009,1,0,0:0:0:0:
507,357,284180,1,8,0:0:0:0:
507,357,284350,1,8,0:0:0:0:
507,357,284435,1,8,0:0:0:0:
507,357,284521,1,0,0:0:0:0:
452,298,284606,1,8,0:0:0:0:
450,303,284691,1,0,0:0:0:0:
450,304,284776,1,0,0:0:0:0:
453,309,284862,1,8,0:0:0:0:
469,336,285032,1,8,0:0:0:0:
472,354,285203,1,0,0:0:0:0:
472,354,285373,1,0,0:0:0:0:
472,354,285458,1,0,0:0:0:0:
472,354,285543,1,8,0:0:0:0:
474,358,285714,1,0,0:0:0:0:
451,348,285884,1,0,0:0:0:0:
446,355,285970,1,0,0:0:0:0:
446,356,286055,1,8,0:0:0:0:
446,355,286140,1,0,0:0:0:0:
446,356,286225,1,8,0:0:0:0:
461,371,286310,1,8,0:0:0:0:
460,371,286396,1,0,0:0:0:0:
461,371,286481,1,8,0:0:0:0:
460,371,286566,1,0,0:0:0:0:
450,334,286737,1,0,0:0:0:0:
450,334,286822,1,0,0:0:0:0:
448,342,286907,1,8,0:0:0:0:
448,349,287078,1,0,0:0:0:0:
470,355,287248,1,0,0:0:0:0:
470,355,287333,1,0,0:0:0:0:
470,355,287418,1,8,0:0:0:0:
471,362,287504,1,0,0:0:0:0:
472,363,287589,1,8,0:0:0:0:
479,365,287759,1,8,0:0:0:0:
479,365,287930,1,0,0:0:0:0:
479,365,288100,1,0,0:0:0:0:
479,365,288185,1,0,0:0:0:0:
472,364,288271,1,8,0:0:0:0:
489,361,288441,1,0,0:0:0:0:
414,355,288612,1,0,0:0:0:0:
414,355,288697,1,0,0:0:0:0:
414,355,288782,1,8,0:0:0:0:
414,355,288867,1,8,0:0:0:0:
414,355,288953,1,0,0:0:0:0:
414,355,289038,1,0,0:0:0:0:
414,355,289123,1,8,0:0:0:0:
414,355,289208,1,8,0:0:0:0:
414,355,289293,1,0,0:0:0:0:
483,340,289464,1,0,0:0:0:0:
483,340,289549,1,0,0:0:0:0:
483,340,289634,1,8,0:0:0:0:
469,360,289805,1,0,0:0:0:0:
469,360,289975,1,8,0:0:0:0:
469,368,290060,1,0,0:0:0:0:
469,368,290146,1,8,0:0:0:0:
470,368,290231,1,8,0:0:0:0:
470,368,290316,1,0,0:0:0:0:
460,347,290487,1,0,0:0:0:0:
459,330,290657,1,8,0:0:0:0:
445,306,290828,1,0,0:0:0:0:
440,311,290913,1,0,0:0:0:0:
439,316,290998,1,8,0:0:0:0:
455,326,291168,1,0,0:0:0:0:
455,326,291254,1,0,0:0:0:0:
455,326,291339,1,8,0:0:0:0:
455,326,291424,1,0,0:0:0:0:
455,326,291509,1,8,0:0:0:0:
455,326,291595,1,8,0:0:0:0:
455,326,291680,1,0,0:0:0:0:
452,346,291850,1,0,0:0:0:0:
455,330,292021,1,8,0:0:0:0:
479,340,292191,1,0,0:0:0:0:
479,340,292276,1,0,0:0:0:0:
479,340,292362,1,8,0:0:0:0:
465,360,292532,1,0,0:0:0:0:
465,360,292703,1,8,0:0:0:0:
465,368,292788,1,0,0:0:0:0:
465,368,292873,1,8,0:0:0:0:
466,368,292958,1,8,0:0:0:0:
466,368,293043,1,0,0:0:0:0:
456,347,293214,1,0,0:0:0:0:
455,330,293384,1,8,0:0:0:0:
441,306,293555,1,0,0:0:0:0:
436,311,293640,1,0,0:0:0:0:
435,316,293725,1,8,0:0:0:0:
451,326,293896,1,0,0:0:0:0:
451,326,293981,1,0,0:0:0:0:
451,326,294066,1,8,0:0:0:0:
451,326,294151,1,0,0:0:0:0:
451,326,294237,1,8,0:0:0:0:
451,326,294322,1,8,0:0:0:0:
451,326,294407,1,0,0:0:0:0:
448,346,294578,1,0,0:0:0:0:
508,357,294748,1,8,0:0:0:0:
508,357,294833,1,8,0:0:0:0:
508,357,294918,1,0,0:0:0:0:
508,357,295089,1,8,0:0:0:0:
508,357,295259,1,8,0:0:0:0:
508,357,295345,1,8,0:0:0:0:
508,357,295430,1,0,0:0:0:0:
453,298,295515,1,8,0:0:0:0:
451,303,295600,1,0,0:0:0:0:
451,304,295685,1,0,0:0:0:0:
454,309,295771,1,8,0:0:0:0:
470,336,295941,1,8,0:0:0:0:
473,354,296112,1,0,0:0:0:0:
473,354,296282,1,0,0:0:0:0:
473,354,296367,1,0,0:0:0:0:
473,354,296453,1,8,0:0:0:0:
475,358,296623,1,0,0:0:0:0:
452,348,296793,1,0,0:0:0:0:
447,355,296879,1,0,0:0:0:0:
447,356,296964,1,8,0:0:0:0:
447,355,297049,1,0,0:0:0:0:
447,356,297134,1,8,0:0:0:0:
462,371,297220,1,8,0:0:0:0:
461,371,297305,1,0,0:0:0:0:
462,371,297390,1,8,0:0:0:0:
461,371,297475,1,0,0:0:0:0:
451,334,297646,1,0,0:0:0:0:
451,334,297731,1,0,0:0:0:0:
449,342,297816,1,8,0:0:0:0:
449,349,297987,1,0,0:0:0:0:
471,355,298157,1,0,0:0:0:0:
471,355,298242,1,0,0:0:0:0:
471,355,298328,1,8,0:0:0:0:
472,362,298413,1,0,0:0:0:0:
473,363,298498,1,8,0:0:0:0:
480,365,298668,1,8,0:0:0:0:
480,365,298839,1,0,0:0:0:0:
480,365,299009,1,0,0:0:0:0:
480,365,299095,1,0,0:0:0:0:
473,364,299180,1,8,0:0:0:0:
490,361,299350,1,0,0:0:0:0:
468,367,299521,1,0,0:0:0:0:
468,367,299606,1,0,0:0:0:0:
465,362,299691,1,8,0:0:0:0:
465,362,299776,1,8,0:0:0:0:
465,362,299862,1,8,0:0:0:0:
465,362,299947,1,0,0:0:0:0:
465,362,300032,1,8,0:0:0:0:
465,362,300117,1,8,0:0:0:0:
465,362,300203,1,0,0:0:0:0:
484,340,300373,1,0,0:0:0:0:
484,340,300458,1,0,0:0:0:0:
484,340,300543,1,8,0:0:0:0:
470,360,300714,1,0,0:0:0:0:
470,360,300884,1,8,0:0:0:0:
470,368,300970,1,0,0:0:0:0:
470,368,301055,1,8,0:0:0:0:
471,368,301140,1,8,0:0:0:0:
471,368,301225,1,0,0:0:0:0:
461,347,301396,1,0,0:0:0:0:
460,330,301566,1,8,0:0:0:0:
446,306,301737,1,0,0:0:0:0:
441,311,301822,1,0,0:0:0:0:
440,316,301907,1,8,0:0:0:0:
456,326,302078,1,0,0:0:0:0:
456,326,302163,1,0,0:0:0:0:
456,326,302248,1,8,0:0:0:0:
456,326,302333,1,0,0:0:0:0:
456,326,302418,1,8,0:0:0:0:
456,326,302504,1,8,0:0:0:0:
456,326,302589,1,0,0:0:0:0:
453,346,302759,1,0,0:0:0:0:
456,330,302930,1,8,0:0:0:0:
480,340,303100,1,0,0:0:0:0:
480,340,303185,1,0,0:0:0:0:
480,340,303271,1,8,0:0:0:0:
466,360,303441,1,0,0:0:0:0:
466,360,303612,1,8,0:0:0:0:
466,368,303697,1,0,0:0:0:0:
466,368,303782,1,8,0:0:0:0:
467,368,303867,1,8,0:0:0:0:
467,368,303953,1,0,0:0:0:0:
457,347,304123,1,0,0:0:0:0:
456,330,304293,1,8,0:0:0:0:
442,306,304464,1,0,0:0:0:0:
437,311,304549,1,0,0:0:0:0:
436,316,304634,1,8,0:0:0:0:
452,326,304805,1,0,0:0:0:0:
452,326,304890,1,0,0:0:0:0:
452,326,304975,1,8,0:0:0:0:
452,326,305060,1,0,0:0:0:0:
452,326,305146,1,8,0:0:0:0:
452,326,305231,1,8,0:0:0:0:
452,326,305316,1,0,0:0:0:0:
449,346,305487,1,0,0:0:0:0:
439,313,305657,1,12,0:0:0:0:
439,313,305828,1,0,0:0:0:0:
433,318,305998,1,8,0:0:0:0:
433,318,306168,1,8,0:0:0:0:
433,318,306254,1,8,0:0:0:0:
433,318,306339,1,0,0:0:0:0:
480,322,306424,1,8,0:0:0:0:
479,344,306509,1,0,0:0:0:0:
477,364,306680,1,8,0:0:0:0:
480,354,307021,1,0,0:0:0:0:
483,361,307191,1,0,0:0:0:0:
483,361,307362,1,8,0:0:0:0:
476,354,307532,1,8,0:0:0:0:
476,354,307617,1,8,0:0:0:0:
483,361,307703,1,0,0:0:0:0:
477,364,307873,1,0,0:0:0:0:
478,337,308043,1,8,0:0:0:0:
478,346,308129,1,0,0:0:0:0:
481,352,308214,1,8,0:0:0:0:
482,353,308299,1,8,0:0:0:0:
481,352,308384,1,0,0:0:0:0:
490,359,308555,1,0,0:0:0:0:
490,359,308725,1,8,0:0:0:0:
481,353,308896,1,8,0:0:0:0:
480,358,308981,1,8,0:0:0:0:
471,362,309066,1,0,0:0:0:0:
437,349,309151,1,8,0:0:0:0:
474,365,309237,1,0,0:0:0:0:
474,365,309407,1,8,0:0:0:0:
457,343,309748,1,0,0:0:0:0:
457,343,309918,1,0,0:0:0:0:
457,343,310089,1,8,0:0:0:0:
457,348,310259,1,8,0:0:0:0:
457,348,310345,1,8,0:0:0:0:
457,348,310430,1,0,0:0:0:0:
379,298,310600,1,8,0:0:0:0:
386,302,310685,1,8,0:0:0:0:
386,302,310771,1,0,0:0:0:0:
386,302,310856,1,0,0:0:0:0:
386,302,310941,1,8,0:0:0:0:
386,302,311026,1,8,0:0:0:0:
386,302,311112,1,0,0:0:0:0:
491,326,311282,1,0,0:0:0:0:
491,333,311453,1,8,0:0:0:0:
491,333,311623,1,8,0:0:0:0:
486,342,311708,1,8,0:0:0:0:
485,341,311793,1,0,0:0:0:0:
508,318,311879,1,8,0:0:0:0:
486,347,311964,1,0,0:0:0:0:
486,347,312134,1,8,0:0:0:0:
493,336,312475,1,0,0:0:0:0:
493,336,312646,1,0,0:0:0:0:
493,336,312816,1,8,0:0:0:0:
477,338,312987,1,8,0:0:0:0:
477,338,313072,1,8,0:0:0:0:
477,338,313157,1,0,0:0:0:0:
477,338,313328,1,0,0:0:0:0:
477,338,313498,1,8,0:0:0:0:
477,338,313583,1,0,0:0:0:0:
477,338,313668,1,8,0:0:0:0:
477,338,313754,1,8,0:0:0:0:
477,332,313839,1,0,0:0:0:0:
477,332,314009,1,0,0:0:0:0:
477,332,314180,1,8,0:0:0:0:
477,332,314350,1,8,0:0:0:0:
477,332,314435,1,8,0:0:0:0:
477,332,314521,1,0,0:0:0:0:
405,347,314606,1,8,0:0:0:0:
477,332,314691,1,0,0:0:0:0:
485,347,314862,1,8,0:0:0:0:
489,350,315203,1,0,0:0:0:0:
489,350,315373,1,0,0:0:0:0:
489,350,315543,1,8,0:0:0:0:
478,330,315714,1,8,0:0:0:0:
478,330,315799,1,8,0:0:0:0:
478,330,315884,1,0,0:0:0:0:
478,330,316055,1,0,0:0:0:0:
477,355,316140,1,0,0:0:0:0:
477,355,316225,1,8,0:0:0:0:
477,355,316310,1,0,0:0:0:0:
481,353,316396,1,8,0:0:0:0:
481,353,316481,1,0,0:0:0:0:
439,313,316566,1,8,0:0:0:0:
439,313,316651,1,8,0:0:0:0:
439,313,316737,1,0,0:0:0:0:
433,318,316907,1,8,0:0:0:0:
433,318,317078,1,8,0:0:0:0:
433,318,317163,1,8,0:0:0:0:
433,318,317248,1,0,0:0:0:0:
367,289,317333,1,8,0:0:0:0:
479,344,317418,1,0,0:0:0:0:
477,364,317589,1,8,0:0:0:0:
480,354,317930,1,0,0:0:0:0:
483,361,318100,1,0,0:0:0:0:
483,361,318271,1,8,0:0:0:0:
476,354,318441,1,8,0:0:0:0:
476,354,318526,1,8,0:0:0:0:
483,361,318612,1,0,0:0:0:0:
477,364,318782,1,0,0:0:0:0:
478,337,318953,1,8,0:0:0:0:
478,346,319038,1,0,0:0:0:0:
481,352,319123,1,8,0:0:0:0:
482,353,319208,1,8,0:0:0:0:
481,352,319293,1,0,0:0:0:0:
490,359,319464,1,0,0:0:0:0:
490,359,319634,1,8,0:0:0:0:
481,353,319805,1,8,0:0:0:0:
480,358,319890,1,8,0:0:0:0:
471,362,319975,1,0,0:0:0:0:
367,289,320060,1,8,0:0:0:0:
474,365,320146,1,0,0:0:0:0:
474,365,320316,1,8,0:0:0:0:
457,343,320657,1,0,0:0:0:0:
457,343,320828,1,0,0:0:0:0:
457,343,320998,1,8,0:0:0:0:
457,348,321168,1,8,0:0:0:0:
457,348,321254,1,8,0:0:0:0:
457,348,321339,1,0,0:0:0:0:
459,358,321509,1,8,0:0:0:0:
473,340,321595,1,8,0:0:0:0:
473,342,321680,1,8,0:0:0:0:
437,350,321765,1,0,0:0:0:0:
437,350,321850,1,8,0:0:0:0:
473,340,321935,1,8,0:0:0:0:
473,342,322021,1,0,0:0:0:0:
491,326,322191,1,0,0:0:0:0:
491,333,322362,1,8,0:0:0:0:
491,333,322532,1,8,0:0:0:0:
486,342,322617,1,8,0:0:0:0:
485,341,322703,1,0,0:0:0:0:
366,289,322788,1,8,0:0:0:0:
486,347,322873,1,0,0:0:0:0:
486,347,323043,1,8,0:0:0:0:
493,336,323384,1,0,0:0:0:0:
493,336,323555,1,0,0:0:0:0:
493,336,323725,1,8,0:0:0:0:
477,338,323896,1,8,0:0:0:0:
477,338,323981,1,8,0:0:0:0:
477,338,324066,1,0,0:0:0:0:
477,338,324237,1,0,0:0:0:0:
477,338,324407,1,8,0:0:0:0:
477,338,324492,1,0,0:0:0:0:
477,338,324578,1,8,0:0:0:0:
477,338,324663,1,8,0:0:0:0:
477,332,324748,1,0,0:0:0:0:
477,332,324918,1,0,0:0:0:0:
477,332,325089,1,8,0:0:0:0:
477,332,325259,1,8,0:0:0:0:
477,332,325345,1,8,0:0:0:0:
477,332,325430,1,0,0:0:0:0:
483,358,325515,1,8,0:0:0:0:
477,332,325600,1,0,0:0:0:0:
485,347,325771,1,8,0:0:0:0:
489,350,326112,1,0,0:0:0:0:
489,350,326282,1,0,0:0:0:0:
489,350,326453,1,8,0:0:0:0:
478,330,326623,1,8,0:0:0:0:
478,330,326708,1,8,0:0:0:0:
478,330,326793,1,0,0:0:0:0:
478,330,326964,1,0,0:0:0:0:
477,355,327049,1,0,0:0:0:0:
477,355,327134,1,8,0:0:0:0:
477,355,327220,1,0,0:0:0:0:
481,353,327305,1,8,0:0:0:0:
481,353,327390,1,0,0:0:0:0:
439,313,327475,1,12,0:0:0:0:
439,313,327646,1,0,0:0:0:0:
433,318,327816,1,8,0:0:0:0:
433,318,327987,1,8,0:0:0:0:
433,318,328072,1,8,0:0:0:0:
433,318,328157,1,0,0:0:0:0:
479,357,328242,1,8,0:0:0:0:
479,344,328328,1,0,0:0:0:0:
477,364,328498,1,8,0:0:0:0:
480,354,328839,1,0,0:0:0:0:
483,361,329009,1,0,0:0:0:0:
483,361,329180,1,8,0:0:0:0:
476,354,329350,1,8,0:0:0:0:
476,354,329435,1,8,0:0:0:0:
483,361,329521,1,0,0:0:0:0:
477,364,329691,1,0,0:0:0:0:
478,337,329862,1,8,0:0:0:0:
478,346,329947,1,0,0:0:0:0:
481,352,330032,1,8,0:0:0:0:
482,353,330117,1,8,0:0:0:0:
481,352,330203,1,0,0:0:0:0:
490,359,330373,1,0,0:0:0:0:
490,359,330543,1,8,0:0:0:0:
481,353,330714,1,8,0:0:0:0:
480,358,330799,1,8,0:0:0:0:
471,362,330884,1,0,0:0:0:0:
480,358,330970,1,8,0:0:0:0:
474,365,331055,1,0,0:0:0:0:
474,365,331225,1,8,0:0:0:0:
457,343,331566,1,0,0:0:0:0:
457,343,331737,1,0,0:0:0:0:
457,343,331907,1,8,0:0:0:0:
457,348,332078,1,8,0:0:0:0:
457,348,332163,1,8,0:0:0:0:
457,348,332248,1,0,0:0:0:0:
404,309,332418,1,8,0:0:0:0:
410,310,332504,1,8,0:0:0:0:
410,311,332589,1,0,0:0:0:0:
410,310,332674,1,0,0:0:0:0:
410,311,332759,1,8,0:0:0:0:
410,310,332845,1,8,0:0:0:0:
410,311,332930,1,0,0:0:0:0:
491,326,333100,1,0,0:0:0:0:
491,333,333271,1,8,0:0:0:0:
491,333,333441,1,8,0:0:0:0:
486,342,333526,1,8,0:0:0:0:
485,341,333612,1,0,0:0:0:0:
479,357,333697,1,8,0:0:0:0:
486,347,333782,1,0,0:0:0:0:
486,347,333953,1,8,0:0:0:0:
493,336,334293,1,0,0:0:0:0:
493,336,334464,1,0,0:0:0:0:
493,336,334634,1,8,0:0:0:0:
477,338,334805,1,8,0:0:0:0:
477,338,334890,1,8,0:0:0:0:
477,338,334975,1,0,0:0:0:0:
477,338,335146,1,0,0:0:0:0:
477,338,335316,1,8,0:0:0:0:
477,338,335401,1,0,0:0:0:0:
477,338,335487,1,8,0:0:0:0:
477,338,335572,1,8,0:0:0:0:
477,332,335657,1,0,0:0:0:0:
477,332,335828,1,0,0:0:0:0:
477,332,335998,1,8,0:0:0:0:
477,332,336168,1,8,0:0:0:0:
477,332,336254,1,8,0:0:0:0:
477,332,336339,1,0,0:0:0:0:
479,357,336424,1,8,0:0:0:0:
477,332,336509,1,0,0:0:0:0:
485,347,336680,1,8,0:0:0:0:
489,350,337021,1,0,0:0:0:0:
489,350,337191,1,0,0:0:0:0:
489,350,337362,1,8,0:0:0:0:
478,330,337532,1,8,0:0:0:0:
478,330,337617,1,8,0:0:0:0:
478,330,337703,1,0,0:0:0:0:
478,330,337873,1,0,0:0:0:0:
477,355,337958,1,0,0:0:0:0:
477,355,338043,1,8,0:0:0:0:
477,355,338129,1,0,0:0:0:0:
481,353,338214,1,8,0:0:0:0:
481,353,338299,1,0,0:0:0:0:
439,313,338384,1,8,0:0:0:0:
439,313,338470,1,8,0:0:0:0:
439,313,338555,1,0,0:0:0:0:
433,318,338725,1,8,0:0:0:0:
433,318,338896,1,8,0:0:0:0:
433,318,338981,1,8,0:0:0:0:
433,318,339066,1,0,0:0:0:0:
478,357,339151,1,8,0:0:0:0:
479,344,339237,1,0,0:0:0:0:
477,364,339407,1,8,0:0:0:0:
480,354,339748,1,0,0:0:0:0:
483,361,339918,1,0,0:0:0:0:
483,361,340089,1,8,0:0:0:0:
476,354,340259,1,8,0:0:0:0:
476,354,340345,1,8,0:0:0:0:
483,361,340430,1,0,0:0:0:0:
477,364,340600,1,0,0:0:0:0:
478,337,340771,1,8,0:0:0:0:
478,346,340856,1,0,0:0:0:0:
481,352,340941,1,8,0:0:0:0:
482,353,341026,1,8,0:0:0:0:
481,352,341112,1,0,0:0:0:0:
490,359,341282,1,0,0:0:0:0:
490,359,341453,1,8,0:0:0:0:
481,353,341623,1,8,0:0:0:0:
480,358,341708,1,8,0:0:0:0:
471,362,341793,1,0,0:0:0:0:
480,358,341879,1,8,0:0:0:0:
474,365,341964,1,0,0:0:0:0:
474,365,342134,1,8,0:0:0:0:
457,343,342475,1,0,0:0:0:0:
457,343,342646,1,0,0:0:0:0:
457,343,342816,1,8,0:0:0:0:
457,348,342987,1,8,0:0:0:0:
457,348,343072,1,8,0:0:0:0:
457,348,343157,1,0,0:0:0:0:
459,358,343328,1,8,0:0:0:0:
473,340,343413,1,8,0:0:0:0:
473,342,343498,1,8,0:0:0:0:
482,310,343583,1,0,0:0:0:0:
482,310,343668,1,8,0:0:0:0:
473,340,343754,1,8,0:0:0:0:
473,342,343839,1,0,0:0:0:0:
491,326,344009,1,0,0:0:0:0:
491,333,344180,1,8,0:0:0:0:
491,333,344350,1,8,0:0:0:0:
486,342,344435,1,8,0:0:0:0:
485,341,344521,1,0,0:0:0:0:
478,357,344606,1,8,0:0:0:0:
486,347,344691,1,0,0:0:0:0:
486,347,344862,1,8,0:0:0:0:
493,336,345203,1,0,0:0:0:0:
493,336,345373,1,0,0:0:0:0:
493,336,345543,1,8,0:0:0:0:
477,338,345714,1,8,0:0:0:0:
477,338,345799,1,8,0:0:0:0:
477,338,345884,1,0,0:0:0:0:
477,338,346055,1,0,0:0:0:0:
477,338,346225,1,8,0:0:0:0:
477,338,346310,1,0,0:0:0:0:
477,338,346396,1,8,0:0:0:0:
477,338,346481,1,8,0:0:0:0:
477,332,346566,1,0,0:0:0:0:
480,341,346737,1,0,0:0:0:0:
480,341,346907,1,8,0:0:0:0:
480,341,347078,1,0,0:0:0:0:
480,341,347248,1,0,0:0:0:0:
480,341,347418,1,0,0:0:0:0:
480,341,347589,1,8,0:0:0:0:
480,341,347759,1,0,0:0:0:0:
446,349,347930,1,8,0:0:0:0:
457,346,348015,1,8,0:0:0:0:
446,349,348100,1,0,0:0:0:0:
446,349,348185,1,8,0:0:0:0:
446,349,348271,1,0,0:0:0:0:
446,349,348356,1,0,0:0:0:0:
446,349,348441,1,8,0:0:0:0:
446,349,348526,1,0,0:0:0:0:
446,349,348612,1,8,0:0:0:0:
446,349,348697,1,8,0:0:0:0:
446,349,348782,1,0,0:0:0:0:
452,337,348867,1,0,0:0:0:0:
469,337,348953,1,8,0:0:0:0:
481,347,349123,1,0,0:0:0:0:
481,347,349293,1,12,0:0:0:0:
