osu file format v14

[General]
AudioFilename: audio.mp3
AudioLeadIn: 0
PreviewTime: 30182
Countdown: 0
SampleSet: Normal
StackLeniency: 0.6
Mode: 0
LetterboxInBreaks: 0
WidescreenStoryboard: 1

[Editor]
Bookmarks: 55919
DistanceSpacing: 1.5
BeatDivisor: 4
GridSize: 4
TimelineZoom: 1

[Metadata]
Title:Fallen Angel feat. Aimee B
TitleUnicode:Fallen Angel feat. Aimee B
Artist:Mitsunori Ikeda
ArtistUnicode:Mitsunori Ikeda
Creator:Nightstalker
Version:Normal+
Source:Panty & Stocking with Gaterbelt
Tags:Taku Takahashi Skairul SkairulGames Ppus Maegi QuizMaegi
BeatmapID:1132262
BeatmapSetID:529983

[Difficulty]
HPDrainRate:2
CircleSize:3
OverallDifficulty:3
ApproachRate:4
SliderMultiplier:1.40000000596046
SliderTickRate:1

[Events]
//Background and Video events
0,0,"270501.jpg",0,0
Video,840,"ED Compressed.wmv"
//Break Periods
2,51540,52546
//Storyboard Layer 0 (Background)
//Storyboard Layer 1 (Fail)
//Storyboard Layer 2 (Pass)
//Storyboard Layer 3 (Foreground)
//Storyboard Sound Samples

[TimingPoints]
814,631.578947368421,4,1,0,45,1,0
814,-100,4,2,0,40,0,0
4919,-100,4,3,0,45,0,0
5866,-100,4,1,0,45,0,0
10287,-100,4,1,0,50,0,0
10919,-100,4,2,0,45,0,0
30182,-100,4,3,0,45,0,0
31129,-100,4,1,0,45,0,1
50392,-100,4,3,0,45,0,1
51340,-100,4,2,0,45,0,0

[Colours]
Combo1 : 203,86,86
Combo2 : 155,162,40
Combo3 : 69,203,89
Combo4 : 63,171,203
Combo5 : 255,192,0
Combo6 : 213,117,199

[HitObjects]
96,88,814,6,0,B|168:64|168:64|240:64,1,140.000000596046
336,64,1761,1,2,0:0:0:0:
440,64,2077,2,0,B|440:136|424:184|452:244,1,140.000000596046,0|2,0:0|0:0,0:0:0:0:
228,204,3340,6,0,B|184:148|184:148|184:108|152:84,1,140.000000596046
64,40,4287,1,2,0:0:0:0:
68,144,4603,2,0,B|68:216|92:248|92:248|204:248|232:228|264:252,1,280.000001192092,0|4,0:0|0:0,0:0:0:0:
260,40,6498,5,8,0:0:0:0:
176,100,6814,2,0,B|128:136|176:156|176:156|132:180|124:192,1,140.000000596046,2|0,0:0|0:0,0:0:0:0:
68,280,7761,1,8,0:0:0:0:
276,280,8392,1,0,0:0:0:0:
348,204,8708,2,0,B|400:152|348:136|348:136|400:96,1,140.000000596046,0|2,0:0|0:0,0:0:0:0:
456,24,9656,1,0,0:0:0:0:
468,288,10445,2,0,B|428:256|428:256|448:224|428:196,1,105.000000447034,8|4,0:0|0:0,0:0:0:0:
304,40,11550,5,8,0:0:0:0:
240,124,11866,2,0,B|192:124|192:160|192:160|160:176|116:152,1,140.000000596046,2|0,0:0|0:0,0:0:0:0:
36,216,12814,1,8,0:0:0:0:
76,336,13445,1,0,0:0:0:0:
196,288,14077,1,8,0:0:0:0:
260,204,14392,2,0,B|308:204|308:168|308:168|340:152|384:176,1,140.000000596046,2|0,0:0|0:0,0:0:0:0:
464,112,15340,1,8,0:0:0:0:
260,60,15971,6,0,B|204:76|204:76|184:120|168:132|124:120,1,140.000000596046,4|8,0:0|0:0,0:0:0:0:
148,228,16919,1,2,0:0:0:0:
356,228,17550,2,0,B|356:184|356:184|328:160|356:120|392:104,1,140.000000596046,0|2,0:0|0:0,0:0:0:0:
488,104,18498,1,0,0:0:0:0:
280,104,19129,2,0,B|280:148|256:156|280:172|280:172|240:204|256:216|232:224|232:224|228:228,1,140.000000596046,8|0,0:0|0:0,0:0:0:0:
96,224,20392,1,8,0:0:0:0:
272,336,21024,6,0,B|328:320|328:320|348:276|364:264|408:276,1,140.000000596046,4|8,0:0|0:0,0:0:0:0:
384,168,21971,1,2,0:0:0:0:
212,48,22603,2,0,B|168:48|168:48|144:20|104:48|88:84,1,140.000000596046,0|2,0:0|0:0,0:0:0:0:
88,180,23550,1,0,0:0:0:0:
280,100,24182,2,0,B|280:144|304:152|280:168|280:168|320:200|304:212|328:220|328:220|332:224,1,140.000000596046,8|0,0:0|0:0,0:0:0:0:
464,220,25445,1,8,0:0:0:0:
268,292,26077,6,0,B|216:292|208:264|208:264|132:260,1,140.000000596046,4|8,0:0|0:0,0:0:0:0:
52,68,27340,2,0,B|124:48|144:68|144:68|200:56,1,140.000000596046,0|8,0:0|0:0,0:0:0:0:
352,188,28603,2,0,B|400:176|400:176|408:144|464:128|464:128|460:112,1,140.000000596046,0|8,0:0|0:0,0:0:0:0:
400,36,29550,1,2,0:0:0:0:
296,36,29866,2,0,B|248:48|248:48|240:80|184:96|184:96|188:112,1,140.000000596046,0|8,0:0|0:0,0:0:0:0:
376,192,31129,1,4,0:0:0:0:
256,264,31761,6,0,B|208:288|192:288|192:288|160:272|116:256,1,140.000000596046,8|0,0:0|0:0,0:0:0:0:
12,176,33024,1,8,0:0:0:0:
76,96,33340,1,0,0:0:0:0:
180,112,33656,2,0,B|224:136|224:136|240:180|240:180|248:200|296:200,1,140.000000596046,0|8,0:0|0:0,0:0:0:0:
340,324,34919,2,0,B|360:356|360:356|404:352|404:352|448:336|464:312,1,140.000000596046,0|8,0:0|0:0,0:0:0:0:
424,224,35866,1,0,0:0:0:0:
320,204,36182,1,4,0:0:0:0:
152,76,36814,2,0,B|204:44|228:36|228:36|276:40|304:48,1,140.000000596046,8|0,0:0|0:0,0:0:0:0:
408,104,38077,1,8,0:0:0:0:
380,240,38708,6,0,B|332:284|300:288|300:288|248:280,1,140.000000596046,0|8,0:0|0:0,0:0:0:0:
172,216,39656,1,0,0:0:0:0:
188,112,39971,2,0,B|248:88|248:88|288:56|288:56|332:48,1,140.000000596046,0|8,0:0|0:0,0:0:0:0:
356,148,40919,1,0,0:0:0:0:
320,248,41235,1,4,0:0:0:0:
112,236,41866,2,0,B|88:180|88:136|96:132|128:120|148:88,1,140.000000596046,8|0,0:0|0:0,0:0:0:0:
328,44,43129,2,0,B|380:80|380:80|384:112|384:112|440:128,1,140.000000596046,8|0,0:0|0:0,0:0:0:0:
432,264,44392,5,8,0:0:0:0:
328,264,44708,1,0,0:0:0:0:
224,260,45024,2,0,B|180:216|192:184|188:188|192:128,1,140.000000596046,0|8,0:0|0:0,0:0:0:0:
404,132,46287,2,0,B|392:184|424:208|396:232|396:232|396:272,1,140.000000596046,4|8,0:0|0:0,0:0:0:0:
292,268,47235,1,0,0:0:0:0:
188,268,47550,2,0,B|128:268|128:268|96:232|56:236,1,140.000000596046,0|8,0:0|0:0,0:0:0:0:
172,60,48814,2,0,B|164:100|192:124|192:124|212:112|248:104|264:112,1,140.000000596046,0|8,0:0|0:0,0:0:0:0:
364,108,49761,1,0,0:0:0:0:
444,176,50077,2,0,B|444:232|400:224|400:224|332:248,1,140.000000596046,0|8,0:0|0:0,0:0:0:0:
240,224,51024,1,2,0:0:0:0:
240,120,51340,1,4,0:0:0:0:
164,68,53866,6,2,B|112:80|112:80|60:172,1,140.000000596046
240,280,55129,2,2,B|292:268|292:268|344:176,1,140.000000596046
268,112,56077,1,4,0:0:0:0:
