osu file format v14

[General]
AudioFilename: audio.mp3
AudioLeadIn: 0
PreviewTime: 30182
Countdown: 0
SampleSet: Normal
StackLeniency: 0.7
Mode: 0
LetterboxInBreaks: 0
WidescreenStoryboard: 1

[Editor]
DistanceSpacing: 1.5
BeatDivisor: 4
GridSize: 4
TimelineZoom: 1

[Metadata]
Title:Fallen Angel feat. Aimee B
TitleUnicode:Fallen Angel feat. Aimee B
Artist:Mitsunori Ikeda
ArtistUnicode:Mitsunori Ikeda
Creator:Nightstalker
Version:Nightsane
Source:Panty & Stocking with Gaterbelt
Tags:Taku Takahashi Skairul SkairulGames Ppus Maegi QuizMaegi
BeatmapID:1124426
BeatmapSetID:529983

[Difficulty]
HPDrainRate:8
CircleSize:3
OverallDifficulty:9
ApproachRate:10
SliderMultiplier:1.99999998092651
SliderTickRate:1

[Events]
//Background and Video events
0,0,"270501.jpg",0,0
Video,687,"ED Compressed.wmv"
//Break Periods
//Storyboard Layer 0 (Background)
//Storyboard Layer 1 (Fail)
//Storyboard Layer 2 (Pass)
//Storyboard Layer 3 (Foreground)
//Storyboard Sound Samples

[TimingPoints]
814,631.578947368421,4,1,0,90,1,0
814,-100,4,2,0,20,0,0
4919,-57.1428571428571,4,3,0,50,0,0
5866,-66.6666666666667,4,1,0,35,0,0
10287,-57.1428571428571,4,1,0,40,0,0
10919,-66.6666666666667,4,2,0,35,0,0
30182,-57.1428571428571,4,3,0,50,0,0
31129,-50,4,1,0,50,0,1
50392,-57.1428571428571,4,3,0,60,0,1
51340,-66.6666666666667,4,2,0,35,0,0

[Colours]
Combo1 : 203,86,86
Combo2 : 155,162,40
Combo3 : 69,203,89
Combo4 : 63,171,203
Combo5 : 255,192,0
Combo6 : 213,117,199

[HitObjects]
171,48,814,5,4,0:0:0:0:
70,91,971,1,2,0:0:0:0:
114,191,1129,1,0,0:0:0:0:
260,104,1445,5,0,0:0:0:0:
370,102,1603,1,2,0:0:0:0:
318,199,1761,1,0,0:0:0:0:
315,88,1919,1,0,0:0:0:0:
382,175,2077,1,0,0:0:0:0:
272,161,2235,1,2,0:0:0:0:
316,60,2392,1,0,0:0:0:0:
421,253,2708,5,0,0:0:0:0:
331,316,2866,1,2,0:0:0:0:
335,206,3024,1,0,0:0:0:0:
421,253,3182,1,0,0:0:0:0:
331,316,3340,6,0,P|247:345|203:342,1,99.9999990463255,4|0,0:0|0:0,0:0:0:0:
297,253,3813,1,2,0:0:0:0:
404,230,3971,2,0,P|356:193|285:180,1,99.9999990463255
428,162,4445,5,2,0:0:0:0:
318,156,4603,2,0,P|376:113|385:82,1,99.9999990463255
199,28,5077,5,0,0:0:0:0:
73,174,5235,1,2,0:0:0:0:
152,348,5392,1,2,0:0:0:0:
192,159,5550,1,8,0:0:0:0:
332,26,5708,2,0,L|283:116,1,87.4999999999998,0|4,0:0|0:0,0:0:0:0:
68,58,6182,5,0,0:0:0:0:
46,168,6340,1,2,0:0:0:0:
154,136,6498,2,0,P|226:98|316:89,1,150.000004291534,8|0,0:0|0:0,0:0:0:0:
375,164,6971,1,0,0:0:0:0:
285,232,7129,1,0,0:0:0:0:
176,202,7287,1,0,0:0:0:0:
150,92,7445,2,0,L|110:18,1,75.0000021457672,0|2,0:0|0:0,0:0:0:0:
150,92,7761,2,0,P|233:75|318:91,1,150.000004291534,8|0,0:0|0:0,0:0:0:0:
273,194,8235,1,0,0:0:0:0:
365,131,8392,5,0,0:0:0:0:
341,241,8550,1,0,0:0:0:0:
365,131,8708,2,0,L|290:78,1,75.0000021457672,0|2,0:0|0:0,0:0:0:0:
416,73,9024,2,0,B|478:124|478:124|480:217,1,150.000004291534,8|0,0:0|0:0,0:0:0:0:
366,201,9498,1,0,0:0:0:0:
409,97,9656,1,0,0:0:0:0:
480,184,9814,1,0,0:0:0:0:
409,97,9971,1,0,0:0:0:0:
366,201,10129,1,2,0:0:0:0:
50,49,10445,5,10,0:0:0:0:
257,330,10603,1,10,0:0:0:0:
427,192,10761,1,10,0:0:0:0:
141,198,10919,6,0,P|85:141|107:49,2,150.000004291534,4|0|8,0:0|0:0|0:0,0:0:0:0:
200,102,11708,1,0,0:0:0:0:
278,182,11866,1,2,0:0:0:0:
390,180,12024,1,0,0:0:0:0:
349,74,12182,2,0,P|284:42|246:46,2,75.0000021457672,0|0|2,0:0|0:0|0:0,0:0:0:0:
389,183,12656,1,0,0:0:0:0:
287,133,12814,2,0,P|221:93|111:81,1,150.000004291534,8|2,0:0|0:0,0:0:0:0:
204,177,13287,5,0,0:0:0:0:
316,187,13445,2,0,P|392:178|442:111,2,150.000004291534,0|2|8,0:0|0:0|0:0,0:0:0:0:
266,288,14235,1,0,0:0:0:0:
217,221,14392,2,0,P|268:185|286:161,1,75.0000021457672,2|0,0:0|0:0,0:0:0:0:
323,73,14708,1,0,0:0:0:0:
431,44,14866,1,0,0:0:0:0:
323,73,15024,1,2,0:0:0:0:
405,149,15182,1,0,0:0:0:0:
485,227,15340,2,0,B|482:307|482:307|446:340|425:348|412:346,1,150.000004291534,8|2,0:0|0:0,0:0:0:0:
377,241,15814,5,0,0:0:0:0:
267,261,15971,2,0,P|191:287|104:270,2,150.000004291534,4|2|8,0:0|0:0|0:0,0:0:0:0:
254,148,16761,1,0,0:0:0:0:
364,167,16919,1,2,0:0:0:0:
330,59,17077,1,0,0:0:0:0:
364,167,17235,1,0,0:0:0:0:
254,148,17392,1,0,0:0:0:0:
330,59,17550,2,0,B|418:66|426:84|460:93|423:172,2,150.000004291534,2|8|2,0:0|0:0|0:0,0:0:0:0:
364,164,18340,5,0,0:0:0:0:
436,77,18498,2,0,P|389:30|286:17,2,150.000004291534,0|2|8,0:0|0:0|0:0,0:0:0:0:
330,115,19287,1,0,0:0:0:0:
382,214,19445,1,2,0:0:0:0:
273,184,19603,1,0,0:0:0:0:
325,283,19761,2,0,L|224:344,1,75.0000021457672
154,282,20077,2,0,B|87:230|87:230|123:204|97:170,2,150.000004291534,2|8|2,0:0|0:0|0:0,0:0:0:0:
193,176,20866,5,0,0:0:0:0:
144,65,21024,2,0,P|100:41|-14:41,2,150.000004291534,4|2|8,0:0|0:0|0:0,0:0:0:0:
39,108,21814,1,0,0:0:0:0:
145,140,21971,1,2,0:0:0:0:
41,184,22129,1,0,0:0:0:0:
148,217,22287,1,0,0:0:0:0:
223,133,22445,2,0,P|281:96|325:90,2,75.0000021457672,0|2|0,0:0|0:0|0:0,0:0:0:0:
241,244,22919,2,0,P|316:301|398:293,1,150.000004291534,8|2,0:0|0:0,0:0:0:0:
308,207,23392,5,0,0:0:0:0:
208,259,23550,2,0,P|157:200|163:130,2,150.000004291534,0|2|8,0:0|0:0|0:0,0:0:0:0:
229,147,24340,2,0,L|187:83,1,75.0000021457672,0|2,0:0|0:0,0:0:0:0:
85,132,24656,2,0,L|136:209,1,75.0000021457672
185,98,24971,2,0,L|249:40,1,75.0000021457672,0|2,0:0|0:0,0:0:0:0:
127,35,25287,1,0,0:0:0:0:
238,47,25445,2,0,P|306:105|353:178,1,150.000004291534,8|2,0:0|0:0,0:0:0:0:
435,92,25919,5,0,0:0:0:0:
342,156,26077,2,0,B|271:191|221:173|210:164|210:164|141:189,2,150.000004291534,4|2|8,0:0|0:0|0:0,0:0:0:0:
129,81,27024,1,2,0:0:0:0:
269,257,27340,2,0,B|295:280|316:273|316:273|328:298|345:291|345:291|371:278|386:310|386:310|409:300,2,150.000004291534,0|2|8,0:0|0:0|0:0,0:0:0:0:
426,96,28287,1,2,0:0:0:0:
390,202,28445,1,0,0:0:0:0:
280,230,28603,1,0,0:0:0:0:
58,188,28919,6,0,B|31:116|31:116|78:47,1,150.000004291534,2|8,0:0|0:0,0:0:0:0:
121,159,29392,1,0,0:0:0:0:
177,61,29550,1,2,0:0:0:0:
64,64,29708,1,0,0:0:0:0:
160,122,29866,1,0,0:0:0:0:
116,18,30024,1,0,0:0:0:0:
244,43,30182,6,0,P|306:71|354:112,1,87.4999999999998,2|0,0:0|0:0,0:0:0:0:
379,294,30498,1,8,0:0:0:0:
165,61,30656,2,0,P|131:109|108:181,1,87.4999999999998,0|2,0:0|0:0,0:0:0:0:
387,177,30971,1,8,0:0:0:0:
165,61,31129,6,0,B|108:72|71:103|49:145|54:190|53:190|53:190|72:198,2,199.999998092651,4|2|8,0:0|0:0|0:0,0:0:0:0:
316,63,31919,1,0,0:0:0:0:
431,159,32077,2,0,P|414:263|398:275,1,99.9999990463255,2|0,0:0|0:0,0:0:0:0:
290,323,32392,2,0,B|166:339|137:331|112:287|111:288|111:288|75:329|43:330,2,199.999998092651,0|2|8,0:0|0:0|0:0,0:0:0:0:
420,51,33340,5,2,0:0:0:0:
461,195,33498,1,0,0:0:0:0:
328,124,33656,2,0,B|234:69|234:69|194:79|187:37|187:37|106:56,1,199.999998092651,4|2,0:0|0:0,0:0:0:0:
59,151,34129,1,0,0:0:0:0:
202,194,34287,2,0,B|297:162|297:162|342:200|401:182,1,199.999998092651,8|2,0:0|0:0,0:0:0:0:
274,281,34761,1,0,0:0:0:0:
137,219,34919,2,0,B|58:164|58:164|64:126|64:126|96:108|96:108|142:107|157:135,1,199.999998092651,0|2,0:0|0:0,0:0:0:0:
374,75,35550,6,0,B|468:40|468:40|475:161,1,199.999998092651,8|2,0:0|0:0,0:0:0:0:
341,211,36024,1,0,0:0:0:0:
302,65,36182,2,0,B|209:30|188:38|176:27|176:27|104:56,2,199.999998092651,4|2|8,0:0|0:0|0:0,0:0:0:0:
227,195,36971,1,0,0:0:0:0:
302,65,37129,1,2,0:0:0:0:
367,200,37287,1,0,0:0:0:0:
227,195,37445,2,0,B|123:174|75:129|75:130|86:79,2,199.999998092651,0|2|8,0:0|0:0|0:0,0:0:0:0:
480,33,38392,6,0,P|387:96|328:188,1,199.999998092651,2|4,0:0|0:0,0:0:0:0:
86,334,39024,6,0,P|109:230|173:137,1,199.999998092651,2|8,0:0|0:0,0:0:0:0:
244,276,39498,5,0,0:0:0:0:
406,322,39656,6,0,P|349:226|258:163,1,199.999998092651,2|0,0:0|0:0,0:0:0:0:
17,27,40287,6,0,P|126:64|227:124,1,199.999998092651,2|8,0:0|0:0,0:0:0:0:
275,235,40761,5,0,0:0:0:0:
416,313,40919,6,0,B|467:222|467:222|426:194|476:157|476:157|426:138|427:138|463:93,1,199.999998092651,2|4,0:0|0:0,0:0:0:0:
171,83,41550,1,2,0:0:0:0:
469,118,41866,2,0,B|489:200|489:200|461:224|475:252|493:241|498:269|467:270|467:270|444:291,1,199.999998092651,8|2,0:0|0:0,0:0:0:0:
314,217,42340,1,0,0:0:0:0:
193,306,42498,1,0,0:0:0:0:
312,215,42656,1,0,0:0:0:0:
178,146,42814,2,0,P|133:83|136:41,2,99.9999990463255,2|0|8,0:0|0:0|0:0,0:0:0:0:
381,366,43445,5,2,0:0:0:0:
471,246,43603,1,0,0:0:0:0:
358,147,43761,2,0,P|255:174|142:257,1,199.999998092651,4|2,0:0|0:0,0:0:0:0:
93,96,44235,1,0,0:0:0:0:
173,221,44392,2,0,P|282:169|364:144,1,199.999998092651,8|2,0:0|0:0,0:0:0:0:
401,289,44866,1,0,0:0:0:0:
358,145,45024,2,0,B|254:165|239:162|226:97|226:97|292:50,2,199.999998092651,0|2|8,0:0|0:0|0:0,0:0:0:0:
81,261,45971,5,2,0:0:0:0:
97,111,46129,1,0,0:0:0:0:
161,246,46287,2,0,B|245:336|257:324|257:324|286:305|350:329,1,199.999998092651,4|2,0:0|0:0,0:0:0:0:
248,31,46919,1,8,0:0:0:0:
421,275,47235,2,0,B|355:304|355:304|293:285|222:328,1,199.999998092651,2|0,0:0|0:0,0:0:0:0:
328,207,47708,1,0,0:0:0:0:
470,140,47866,1,2,0:0:0:0:
367,249,48024,1,0,0:0:0:0:
202,276,48182,2,0,B|117:295|117:294|129:227|129:227|74:177,1,199.999998092651,8|2,0:0|0:0,0:0:0:0:
167,59,48656,5,0,0:0:0:0:
253,181,48814,2,0,B|315:270|361:290|404:268|404:268|425:225,1,199.999998092651,4|2,0:0|0:0,0:0:0:0:
400,110,49287,1,0,0:0:0:0:
408,259,49445,2,0,B|310:283|310:283|282:228|250:248|201:333,1,199.999998092651,8|2,0:0|0:0,0:0:0:0:
212,131,49919,1,0,0:0:0:0:
323,231,50077,1,0,0:0:0:0:
310,81,50235,1,0,0:0:0:0:
323,231,50392,5,2,0:0:0:0:
127,82,50550,1,0,0:0:0:0:
360,157,50708,1,8,0:0:0:0:
120,303,50866,1,0,0:0:0:0:
259,60,51024,1,2,0:0:0:0:
360,321,51182,2,0,P|286:315|236:261,1,87.4999999999998,8|4,0:0|0:0,0:0:0:0:
142,127,51656,6,0,P|214:95|298:87,1,150.000004291534,0|2,0:0|0:0,0:0:0:0:
257,309,52287,1,0,0:0:0:0:
368,295,52445,1,0,0:0:0:0:
416,193,52603,2,0,B|403:120|401:118|420:119|430:120|443:113|410:115|390:92|398:81|443:88|463:95|416:73|379:68|433:88|461:108|472:104|373:106|348:82|461:75|432:136|311:94|422:90,1,150.000004291534,2|0,0:0|0:0,0:0:0:0:
332,192,53077,5,0,0:0:0:0:
442,171,53235,1,2,0:0:0:0:
343,117,53392,1,0,0:0:0:0:
234,88,53550,2,0,P|189:96|154:117,1,75.0000021457672,2|0,0:0|0:0,0:0:0:0:
261,166,53866,6,0,P|344:204|416:202,1,150.000004291534,4|0,0:0|0:0,0:0:0:0:
344,106,54340,1,0,0:0:0:0:
261,166,54498,6,0,P|180:155|114:104,1,150.000004291534,2|0,0:0|0:0,0:0:0:0:
233,86,54971,1,0,0:0:0:0:
260,167,55129,6,0,B|268:245|241:247|241:247|285:315,1,150.000004291534,4|0,0:0|0:0,0:0:0:0:
260,167,55603,1,0,0:0:0:0:
151,197,55761,6,0,B|70:169|70:169|98:153|62:109,1,150.000004291534,2|0,0:0|0:0,0:0:0:0:
178,99,56235,1,2,0:0:0:0:
