osu file format v14

[General]
AudioFilename: audio.mp3
AudioLeadIn: 0
PreviewTime: 30182
Countdown: 0
SampleSet: Soft
StackLeniency: 0.7
Mode: 1
LetterboxInBreaks: 0
WidescreenStoryboard: 0

[Editor]
DistanceSpacing: 1.2
BeatDivisor: 8
GridSize: 32
TimelineZoom: 1.4

[Metadata]
Title:Fallen Angel feat. Aimee B
TitleUnicode:Fallen Angel feat. Aimee B
Artist:Mitsunori Ikeda
ArtistUnicode:Mitsunori Ikeda
Creator:Nightstalker
Version:Night Oni
Source:Panty & Stocking with Gaterbelt
Tags:Taku Takahashi Skairul SkairulGames Ppus Maegi QuizMaegi
BeatmapID:1123598
BeatmapSetID:529983

[Difficulty]
HPDrainRate:8
CircleSize:2
OverallDifficulty:9
ApproachRate:10
SliderMultiplier:2.8
SliderTickRate:1

[Events]
//Background and Video events
0,0,"270501.jpg",0,0
Video,730,"ED Compressed.wmv"
//Break Periods
//Storyboard Layer 0 (Background)
//Storyboard Layer 1 (Fail)
//Storyboard Layer 2 (Pass)
//Storyboard Layer 3 (Foreground)
//Storyboard Sound Samples

[TimingPoints]
814,631.578947368421,4,1,0,60,1,0
814,-100,4,2,0,60,0,0
5866,-100,4,1,0,60,0,0
10919,-133.333333333333,4,2,0,60,0,0
21024,-117.647058823529,4,2,0,60,0,0
30182,-153.846153846154,4,2,0,60,0,0
30498,-133.333333333333,4,2,0,60,0,0
30814,-117.647058823529,4,2,0,60,0,0
31129,-100,4,1,0,60,0,1
51340,-100,4,2,0,60,0,0

[HitObjects]
256,192,814,5,6,0:0:0:0:
256,192,971,1,2,0:0:0:0:
256,192,1129,1,0,0:0:0:0:
256,192,1445,1,2,0:0:0:0:
256,192,1603,1,2,0:0:0:0:
256,192,1761,1,0,0:0:0:0:
256,192,2077,1,2,0:0:0:0:
256,192,2235,1,2,0:0:0:0:
256,192,2392,1,0,0:0:0:0:
256,192,2708,1,2,0:0:0:0:
256,192,2866,1,2,0:0:0:0:
256,192,3024,1,0,0:0:0:0:
256,192,3340,1,0,0:0:0:0:
256,192,3656,1,8,0:0:0:0:
256,192,3813,1,8,0:0:0:0:
256,192,3971,1,0,0:0:0:0:
256,192,4287,1,8,0:0:0:0:
256,192,4445,1,8,0:0:0:0:
256,192,4603,1,0,0:0:0:0:
256,192,4919,1,8,0:0:0:0:
256,192,5077,1,0,0:0:0:0:
256,192,5235,1,0,0:0:0:0:
256,192,5392,1,0,0:0:0:0:
256,192,5550,1,0,0:0:0:0:
256,192,5708,1,0,0:0:0:0:
256,192,5787,1,0,0:0:0:0:
256,192,5866,1,4,0:0:0:0:
256,192,6182,1,8,0:0:0:0:
256,192,6498,1,8,0:0:0:0:
256,192,6656,1,2,0:0:0:0:
256,192,6814,1,0,0:0:0:0:
256,192,6971,1,2,0:0:0:0:
256,192,7129,1,0,0:0:0:0:
256,192,7287,1,2,0:0:0:0:
256,192,7445,1,2,0:0:0:0:
256,192,7761,1,8,0:0:0:0:
256,192,7919,1,2,0:0:0:0:
256,192,8077,1,2,0:0:0:0:
256,192,8235,1,2,0:0:0:0:
256,192,8392,1,0,0:0:0:0:
256,192,8550,1,2,0:0:0:0:
256,192,8708,1,2,0:0:0:0:
256,192,9024,5,8,0:0:0:0:
256,192,9182,1,2,0:0:0:0:
256,192,9340,1,0,0:0:0:0:
256,192,9498,1,2,0:0:0:0:
256,192,9656,1,0,0:0:0:0:
256,192,9814,1,2,0:0:0:0:
256,192,9971,1,2,0:0:0:0:
256,192,10129,1,2,0:0:0:0:
256,192,10445,1,8,0:0:0:0:
256,192,10603,1,8,0:0:0:0:
256,192,10761,1,8,0:0:0:0:
256,192,10840,1,0,0:0:0:0:
256,192,10919,1,4,0:0:0:0:
256,192,11077,1,2,0:0:0:0:
256,192,11235,1,2,0:0:0:0:
256,192,11392,1,2,0:0:0:0:
256,192,11550,1,8,0:0:0:0:
256,192,11708,1,8,0:0:0:0:
256,192,11866,1,0,0:0:0:0:
256,192,12024,1,8,0:0:0:0:
256,192,12182,1,0,0:0:0:0:
256,192,12340,1,2,0:0:0:0:
256,192,12498,1,8,0:0:0:0:
256,192,12656,1,0,0:0:0:0:
256,192,12814,1,8,0:0:0:0:
256,192,13129,1,0,0:0:0:0:
256,192,13287,1,2,0:0:0:0:
256,192,13445,1,0,0:0:0:0:
256,192,13603,1,2,0:0:0:0:
256,192,13761,1,0,0:0:0:0:
256,192,13919,1,2,0:0:0:0:
256,192,14077,1,8,0:0:0:0:
256,192,14235,1,8,0:0:0:0:
256,192,14392,1,0,0:0:0:0:
256,192,14550,1,8,0:0:0:0:
256,192,14708,1,0,0:0:0:0:
256,192,14866,1,2,0:0:0:0:
256,192,15024,1,2,0:0:0:0:
256,192,15182,1,2,0:0:0:0:
256,192,15340,1,8,0:0:0:0:
256,192,15498,1,2,0:0:0:0:
256,192,15656,1,0,0:0:0:0:
256,192,15814,1,2,0:0:0:0:
256,192,15971,1,4,0:0:0:0:
256,192,16287,1,2,0:0:0:0:
256,192,16445,1,2,0:0:0:0:
256,192,16603,1,8,0:0:0:0:
256,192,16761,1,8,0:0:0:0:
256,192,16919,1,0,0:0:0:0:
256,192,17077,1,8,0:0:0:0:
256,192,17235,1,0,0:0:0:0:
256,192,17392,1,2,0:0:0:0:
256,192,17550,1,8,0:0:0:0:
256,192,17708,1,8,0:0:0:0:
256,192,17866,1,8,0:0:0:0:
256,192,18024,1,8,0:0:0:0:
256,192,18182,1,8,0:0:0:0:
256,192,18340,1,8,0:0:0:0:
256,192,18498,1,0,0:0:0:0:
256,192,18656,1,2,0:0:0:0:
256,192,18814,1,2,0:0:0:0:
256,192,18971,1,2,0:0:0:0:
256,192,19129,1,8,0:0:0:0:
256,192,19287,1,8,0:0:0:0:
256,192,19445,1,0,0:0:0:0:
256,192,19603,1,8,0:0:0:0:
256,192,19761,1,0,0:0:0:0:
256,192,19919,1,2,0:0:0:0:
256,192,20077,1,2,0:0:0:0:
256,192,20235,1,2,0:0:0:0:
256,192,20392,1,8,0:0:0:0:
256,192,20550,1,2,0:0:0:0:
256,192,20708,1,8,0:0:0:0:
256,192,20866,1,2,0:0:0:0:
256,192,20945,1,0,0:0:0:0:
256,192,21024,1,4,0:0:0:0:
256,192,21340,1,2,0:0:0:0:
256,192,21498,1,2,0:0:0:0:
256,192,21656,1,8,0:0:0:0:
256,192,21814,1,8,0:0:0:0:
256,192,21971,1,0,0:0:0:0:
256,192,22129,1,8,0:0:0:0:
256,192,22287,1,0,0:0:0:0:
256,192,22445,1,2,0:0:0:0:
256,192,22603,1,8,0:0:0:0:
256,192,22761,1,8,0:0:0:0:
256,192,22919,1,8,0:0:0:0:
256,192,23077,1,2,0:0:0:0:
256,192,23235,1,8,0:0:0:0:
256,192,23392,1,8,0:0:0:0:
256,192,23550,1,0,0:0:0:0:
256,192,23708,1,2,0:0:0:0:
256,192,23866,1,2,0:0:0:0:
256,192,24024,1,2,0:0:0:0:
256,192,24182,1,8,0:0:0:0:
256,192,24340,1,8,0:0:0:0:
256,192,24498,1,0,0:0:0:0:
256,192,24656,1,8,0:0:0:0:
256,192,24814,1,0,0:0:0:0:
256,192,24971,1,2,0:0:0:0:
256,192,25129,1,2,0:0:0:0:
256,192,25287,1,2,0:0:0:0:
256,192,25445,1,8,0:0:0:0:
256,192,25603,1,2,0:0:0:0:
256,192,25761,1,8,0:0:0:0:
256,192,25919,1,2,0:0:0:0:
256,192,26077,1,4,0:0:0:0:
256,192,26392,1,2,0:0:0:0:
256,192,26550,1,2,0:0:0:0:
256,192,26708,1,8,0:0:0:0:
256,192,26866,1,8,0:0:0:0:
256,192,27024,1,0,0:0:0:0:
256,192,27182,1,8,0:0:0:0:
256,192,27340,1,0,0:0:0:0:
256,192,27498,1,2,0:0:0:0:
256,192,27656,1,2,0:0:0:0:
256,192,27814,1,2,0:0:0:0:
256,192,27971,1,8,0:0:0:0:
256,192,28129,1,2,0:0:0:0:
256,192,28287,1,8,0:0:0:0:
256,192,28445,1,8,0:0:0:0:
256,192,28603,1,0,0:0:0:0:
256,192,28761,1,2,0:0:0:0:
256,192,28919,1,2,0:0:0:0:
256,192,29077,1,2,0:0:0:0:
256,192,29235,1,8,0:0:0:0:
256,192,29392,1,8,0:0:0:0:
256,192,29550,1,0,0:0:0:0:
256,192,29708,1,8,0:0:0:0:
256,192,29866,1,0,0:0:0:0:
256,192,30024,1,2,0:0:0:0:
256,192,30182,1,2,0:0:0:0:
256,192,30340,1,0,0:0:0:0:
256,192,30498,1,8,0:0:0:0:
256,192,30656,1,0,0:0:0:0:
256,192,30814,1,0,0:0:0:0:
256,192,30892,1,0,0:0:0:0:
256,192,30971,1,8,0:0:0:0:
256,192,31050,1,0,0:0:0:0:
256,192,31129,1,4,0:0:0:0:
256,192,31445,1,2,0:0:0:0:
256,192,31603,1,2,0:0:0:0:
256,192,31761,1,8,0:0:0:0:
256,192,31919,1,8,0:0:0:0:
256,192,32077,1,0,0:0:0:0:
256,192,32235,1,8,0:0:0:0:
256,192,32392,1,0,0:0:0:0:
256,192,32550,1,2,0:0:0:0:
256,192,32708,1,2,0:0:0:0:
256,192,32866,1,2,0:0:0:0:
256,192,33024,1,8,0:0:0:0:
256,192,33182,1,2,0:0:0:0:
256,192,33340,1,8,0:0:0:0:
256,192,33498,1,8,0:0:0:0:
256,192,33656,1,0,0:0:0:0:
256,192,33814,1,2,0:0:0:0:
256,192,33971,1,2,0:0:0:0:
256,192,34129,1,2,0:0:0:0:
256,192,34287,1,8,0:0:0:0:
256,192,34445,1,8,0:0:0:0:
256,192,34603,1,0,0:0:0:0:
256,192,34761,1,8,0:0:0:0:
256,192,34919,1,0,0:0:0:0:
256,192,35077,1,2,0:0:0:0:
256,192,35235,1,2,0:0:0:0:
256,192,35392,1,2,0:0:0:0:
256,192,35550,1,8,0:0:0:0:
256,192,35708,1,2,0:0:0:0:
256,192,35866,1,8,0:0:0:0:
256,192,36024,1,2,0:0:0:0:
256,192,36182,1,0,0:0:0:0:
256,192,36340,1,2,0:0:0:0:
256,192,36498,1,2,0:0:0:0:
256,192,36656,1,2,0:0:0:0:
256,192,36814,1,8,0:0:0:0:
256,192,36971,1,8,0:0:0:0:
256,192,37129,1,0,0:0:0:0:
256,192,37287,1,8,0:0:0:0:
256,192,37445,1,0,0:0:0:0:
256,192,37603,1,2,0:0:0:0:
256,192,37761,1,2,0:0:0:0:
256,192,37919,1,2,0:0:0:0:
256,192,38077,1,8,0:0:0:0:
256,192,38235,1,2,0:0:0:0:
256,192,38392,1,8,0:0:0:0:
256,192,38550,1,8,0:0:0:0:
256,192,38708,1,0,0:0:0:0:
256,192,38866,1,2,0:0:0:0:
256,192,39024,1,2,0:0:0:0:
256,192,39182,1,2,0:0:0:0:
256,192,39340,1,8,0:0:0:0:
256,192,39498,1,8,0:0:0:0:
256,192,39656,1,0,0:0:0:0:
256,192,39814,1,8,0:0:0:0:
256,192,39971,1,0,0:0:0:0:
256,192,40129,1,2,0:0:0:0:
256,192,40287,1,2,0:0:0:0:
256,192,40445,1,2,0:0:0:0:
256,192,40603,1,8,0:0:0:0:
256,192,40761,1,2,0:0:0:0:
256,192,40919,1,8,0:0:0:0:
256,192,41077,1,2,0:0:0:0:
256,192,41235,1,4,0:0:0:0:
256,192,41550,1,2,0:0:0:0:
256,192,41708,1,2,0:0:0:0:
256,192,41866,1,8,0:0:0:0:
256,192,42024,1,8,0:0:0:0:
256,192,42182,1,0,0:0:0:0:
256,192,42340,1,8,0:0:0:0:
256,192,42498,1,0,0:0:0:0:
256,192,42656,1,2,0:0:0:0:
256,192,42814,1,2,0:0:0:0:
256,192,42971,1,2,0:0:0:0:
256,192,43129,1,8,0:0:0:0:
256,192,43287,1,2,0:0:0:0:
256,192,43445,1,8,0:0:0:0:
256,192,43603,1,8,0:0:0:0:
256,192,43761,1,0,0:0:0:0:
256,192,43919,1,2,0:0:0:0:
256,192,44077,1,2,0:0:0:0:
256,192,44235,1,2,0:0:0:0:
256,192,44392,1,8,0:0:0:0:
256,192,44550,1,8,0:0:0:0:
256,192,44708,1,0,0:0:0:0:
256,192,44866,1,8,0:0:0:0:
256,192,45024,1,0,0:0:0:0:
256,192,45182,1,2,0:0:0:0:
256,192,45340,1,2,0:0:0:0:
256,192,45498,1,2,0:0:0:0:
256,192,45656,1,8,0:0:0:0:
256,192,45814,1,2,0:0:0:0:
256,192,45971,1,8,0:0:0:0:
256,192,46129,1,2,0:0:0:0:
256,192,46287,1,0,0:0:0:0:
256,192,46445,1,2,0:0:0:0:
256,192,46603,1,2,0:0:0:0:
256,192,46761,1,2,0:0:0:0:
256,192,46919,1,8,0:0:0:0:
256,192,47077,1,8,0:0:0:0:
256,192,47235,1,0,0:0:0:0:
256,192,47392,1,8,0:0:0:0:
256,192,47550,1,0,0:0:0:0:
256,192,47708,1,2,0:0:0:0:
256,192,47866,1,2,0:0:0:0:
256,192,48024,1,2,0:0:0:0:
256,192,48182,1,8,0:0:0:0:
256,192,48340,1,2,0:0:0:0:
256,192,48498,1,8,0:0:0:0:
256,192,48656,1,8,0:0:0:0:
256,192,48814,1,0,0:0:0:0:
256,192,48971,1,2,0:0:0:0:
256,192,49129,1,2,0:0:0:0:
256,192,49287,1,2,0:0:0:0:
256,192,49445,1,8,0:0:0:0:
256,192,49603,1,8,0:0:0:0:
256,192,49761,1,0,0:0:0:0:
256,192,49919,1,8,0:0:0:0:
256,192,50077,1,0,0:0:0:0:
256,192,50235,1,2,0:0:0:0:
256,192,50392,1,2,0:0:0:0:
256,192,50550,1,0,0:0:0:0:
256,192,50708,1,8,0:0:0:0:
256,192,50866,1,0,0:0:0:0:
256,192,51024,1,0,0:0:0:0:
256,192,51182,1,0,0:0:0:0:
256,192,51261,1,0,0:0:0:0:
256,192,51340,1,4,0:0:0:0:
256,192,51656,1,0,0:0:0:0:
256,192,51971,1,2,0:0:0:0:
256,192,52287,1,0,0:0:0:0:
256,192,52445,1,8,0:0:0:0:
256,192,52603,1,2,0:0:0:0:
256,192,52919,1,0,0:0:0:0:
256,192,53077,1,8,0:0:0:0:
256,192,53156,1,0,0:0:0:0:
256,192,53235,1,2,0:0:0:0:
256,192,53550,1,0,0:0:0:0:
256,192,53708,1,2,0:0:0:0:
256,192,53866,1,2,0:0:0:0:
256,192,54182,1,2,0:0:0:0:
256,192,54340,1,0,0:0:0:0:
256,192,54498,1,2,0:0:0:0:
256,192,54814,1,2,0:0:0:0:
256,192,54971,1,0,0:0:0:0:
256,192,55129,1,2,0:0:0:0:
256,192,55445,1,2,0:0:0:0:
256,192,55603,1,0,0:0:0:0:
256,192,55761,1,2,0:0:0:0:
256,192,56077,1,2,0:0:0:0:
256,192,56235,1,6,0:0:0:0:
