osu file format v14

[General]
AudioFilename: audio.mp3
AudioLeadIn: 0
PreviewTime: 30182
Countdown: 0
SampleSet: Normal
StackLeniency: 0.7
Mode: 0
LetterboxInBreaks: 0
WidescreenStoryboard: 1

[Editor]
DistanceSpacing: 1.1
BeatDivisor: 4
GridSize: 16
TimelineZoom: 1

[Metadata]
Title:Fallen Angel feat. Aimee B
TitleUnicode:Fallen Angel feat. Aimee B
Artist:Mitsunori Ikeda
ArtistUnicode:Mitsunori Ikeda
Creator:Nightstalker
Version:Hard
Source:Panty & Stocking with Gaterbelt
Tags:Taku Takahashi Skairul SkairulGames Ppus Maegi QuizMaegi
BeatmapID:1124458
BeatmapSetID:529983

[Difficulty]
HPDrainRate:6
CircleSize:4
OverallDifficulty:5
ApproachRate:8
SliderMultiplier:1.99999998092651
SliderTickRate:2

[Events]
//Background and Video events
0,0,"270501.jpg",0,0
Video,709,"ED Compressed.wmv"
//Break Periods
2,51540,53116
//Storyboard Layer 0 (Background)
//Storyboard Layer 1 (Fail)
//Storyboard Layer 2 (Pass)
//Storyboard Layer 3 (Foreground)
//Storyboard Sound Samples

[TimingPoints]
814,631.578947368421,4,1,0,90,1,0
814,-100,4,2,0,20,0,0
4919,-80,4,3,0,50,0,0
5866,-100,4,1,0,35,0,0
10287,-80,4,1,0,40,0,0
10919,-100,4,2,0,35,0,0
30182,-80,4,3,0,50,0,0
31129,-76.9230769230769,4,1,0,50,0,1
50392,-80,4,3,0,60,0,1
51340,-100,4,2,0,35,0,0

[Colours]
Combo1 : 203,86,86
Combo2 : 155,162,40
Combo3 : 69,203,89
Combo4 : 63,171,203
Combo5 : 255,192,0
Combo6 : 213,117,199

[HitObjects]
256,64,814,5,2,0:0:0:0:
160,80,1129,2,0,B|96:96|96:96|64:128,1,99.9999990463255,0|2,0:0|0:0,0:0:0:0:
112,208,1761,1,0,0:0:0:0:
208,176,2077,2,0,B|272:160|272:160|304:128,1,99.9999990463255,2|0,0:0|0:0,0:0:0:0:
352,64,2708,1,2,0:0:0:0:
368,160,3024,2,0,B|352:224|352:224|320:256,1,99.9999990463255,0|2,0:0|0:0,0:0:0:0:
256,176,3656,6,0,B|224:160|208:144|208:144|208:128,1,49.9999995231627
176,128,3971,1,2,0:0:0:0:
80,96,4287,2,0,B|64:128|48:144|48:144|32:144,1,49.9999995231627
32,176,4603,1,2,0:0:0:0:
112,272,4919,2,0,L|176:272,2,62.4999994039534,0|0|2,0:0|0:0|0:0,0:0:0:0:
48,272,5392,2,0,L|48:208,2,62.4999994039534
48,320,5866,1,4,0:0:0:0:
144,288,6182,5,0,0:0:0:0:
176,192,6498,2,0,B|160:128|160:128|192:96,1,99.9999990463255,8|0,0:0|0:0,0:0:0:0:
256,32,7129,1,0,0:0:0:0:
256,128,7445,2,0,L|256:192,1,49.9999995231627,2|0,0:0|0:0,0:0:0:0:
256,224,7761,1,8,0:0:0:0:
176,288,8077,1,0,0:0:0:0:
96,224,8392,2,0,B|80:160|80:160|112:128,1,99.9999990463255
176,64,9023,1,8,0:0:0:0:
272,128,9340,1,0,0:0:0:0:
368,64,9656,1,0,0:0:0:0:
432,144,9971,1,2,0:0:0:0:
256,192,10445,6,8,L|192:192,1,62.4999994039534
128,192,10761,2,0,L|64:192,1,62.4999994039534,8|4,0:0|0:0,0:0:0:0:
224,64,11550,5,8,0:0:0:0:
304,128,11866,2,0,B|336:176|336:176|320:224,1,99.9999990463255
272,304,12498,2,0,L|208:304,1,49.9999995231627,2|0,0:0|0:0,0:0:0:0:
176,304,12814,1,8,0:0:0:0:
128,224,13129,1,2,0:0:0:0:
160,176,13287,1,0,0:0:0:0:
208,160,13445,2,0,B|272:160|272:160|320:192,1,99.9999990463255
352,272,14077,2,0,L|384:320,1,49.9999995231627,8|0,0:0|0:0,0:0:0:0:
432,304,14392,2,0,L|480:288,1,49.9999995231627,2|0,0:0|0:0,0:0:0:0:
480,240,14708,1,0,0:0:0:0:
400,176,15024,2,0,B|352:144|352:112|304:96,1,99.9999990463255,2|8,0:0|0:0,0:0:0:0:
224,96,15656,1,2,0:0:0:0:
176,128,15814,1,0,0:0:0:0:
176,176,15971,2,0,B|192:224|224:240|208:272,1,99.9999990463255,4|2,0:0|0:0,0:0:0:0:
304,272,16603,5,8,0:0:0:0:
384,208,16919,2,0,B|416:256|416:256|400:304,1,99.9999990463255,2|0,0:0|0:0,0:0:0:0:
320,352,17551,2,0,L|256:352,1,49.9999995231627,2|0,0:0|0:0,0:0:0:0:
224,352,17866,1,8,0:0:0:0:
144,304,18182,1,2,0:0:0:0:
96,272,18340,1,0,0:0:0:0:
80,224,18498,2,0,B|80:160|80:160|112:112,1,99.9999990463255,0|2,0:0|0:0,0:0:0:0:
192,160,19129,2,0,L|224:208,1,49.9999995231627,8|0,0:0|0:0,0:0:0:0:
272,192,19445,2,0,L|320:176,1,49.9999995231627,2|0,0:0|0:0,0:0:0:0:
320,128,19761,1,0,0:0:0:0:
272,48,20077,2,0,B|224:80|224:112|176:128,1,99.9999990463255,2|8,0:0|0:0,0:0:0:0:
208,224,20708,1,2,0:0:0:0:
240,272,20867,1,0,0:0:0:0:
288,272,21024,2,0,B|336:256|352:224|384:240,1,99.9999990463255,4|2,0:0|0:0,0:0:0:0:
432,160,21656,5,8,0:0:0:0:
352,112,21971,2,0,B|320:160|320:160|336:208,1,99.9999990463255,2|0,0:0|0:0,0:0:0:0:
352,304,22603,2,0,L|288:304,1,49.9999995231627,2|0,0:0|0:0,0:0:0:0:
256,304,22919,1,8,0:0:0:0:
208,224,23235,1,2,0:0:0:0:
240,176,23393,1,0,0:0:0:0:
288,160,23551,2,0,B|352:160|352:160|400:192,1,99.9999990463255
464,224,24182,2,0,L|512:192,1,49.9999995231627,10|0,0:0|0:0,0:0:0:0:
496,144,24498,2,0,L|480:96,1,49.9999995231627,2|0,0:0|0:0,0:0:0:0:
432,96,24814,1,0,0:0:0:0:
336,128,25129,2,0,B|288:96|288:64|240:48,1,99.9999990463255,2|8,0:0|0:0,0:0:0:0:
160,64,25761,1,2,0:0:0:0:
112,96,25920,1,0,0:0:0:0:
112,144,26077,2,0,B|128:192|160:208|144:240,1,99.9999990463255,4|0,0:0|0:0,0:0:0:0:
192,320,26708,6,0,B|240:336|256:320|320:352|384:320|400:304,1,199.999998092651,8|0,0:0|0:0,0:0:0:0:
400,208,27656,1,2,0:0:0:0:
352,112,27971,2,0,B|320:64|320:64|272:48,1,99.9999990463255,8|2,0:0|0:0,0:0:0:0:
224,64,28445,1,0,0:0:0:0:
176,96,28603,2,0,B|96:144|96:192|0:224,1,199.999998092651,0|8,0:0|0:0,0:0:0:0:
64,304,29550,2,0,B|112:336|144:288|144:288|208:336|240:304,1,199.999998092651,2|2,0:0|0:0,0:0:0:0:
288,272,30340,2,0,L|352:224,1,62.4999994039534,0|8,0:0|0:0,0:0:0:0:
384,192,30656,2,0,L|416:128,1,62.4999994039534,0|2,0:0|0:0,0:0:0:0:
432,80,30971,1,0,0:0:0:0:
400,32,31129,1,4,0:0:0:0:
272,80,31445,5,2,0:0:0:0:
160,160,31761,2,0,B|112:208|112:208|144:272|112:336|112:336|176:352,1,259.999985618592,8|0,0:0|0:0,0:0:0:0:
288,288,32708,1,2,0:0:0:0:
272,160,33024,2,0,B|272:96|272:96|336:48,1,129.999992809296,8|2,0:0|0:0,0:0:0:0:
384,64,33498,1,0,0:0:0:0:
400,128,33656,2,0,B|448:192|448:192|400:240|416:320|464:368,1,259.999985618592,0|8,0:0|0:0,0:0:0:0:
384,352,34445,1,0,0:0:0:0:
320,320,34603,1,2,0:0:0:0:
288,256,34761,1,0,0:0:0:0:
320,192,34919,2,0,B|368:96|368:96|400:96,1,129.999992809296,0|2,0:0|0:0,0:0:0:0:
272,48,35550,1,8,0:0:0:0:
128,64,35866,1,2,0:0:0:0:
64,64,36024,2,0,P|48:112|64:144,1,64.9999964046479,0|4,0:0|0:0,0:0:0:0:
112,256,36498,1,2,0:0:0:0:
240,320,36814,6,0,B|320:304|320:304|320:256|384:304|416:224|416:224|464:240,1,259.999985618592,8|0,0:0|0:0,0:0:0:0:
464,96,37761,1,2,0:0:0:0:
320,64,38077,2,0,B|240:48|224:64|208:64|208:128,1,129.999992809296,8|2,0:0|0:0,0:0:0:0:
208,160,38550,1,0,0:0:0:0:
208,224,38708,2,0,B|272:256|304:224|304:224|336:256,1,129.999992809296,0|2,0:0|0:0,0:0:0:0:
208,320,39340,2,0,B|128:336|128:336|128:288|80:288,1,129.999992809296,8|2,0:0|0:0,0:0:0:0:
64,160,39971,2,0,B|112:112|112:112|160:144|192:96,1,129.999992809296,0|2,0:0|0:0,0:0:0:0:
304,80,40603,2,0,B|384:64|384:64|448:112,1,129.999992809296,8|2,0:0|0:0,0:0:0:0:
432,160,41077,1,0,0:0:0:0:
432,224,41235,2,0,B|400:288|400:288|336:288,1,129.999992809296,4|2,0:0|0:0,0:0:0:0:
336,144,41866,6,0,B|272:176|272:176|192:144,1,129.999992809296,8|2,0:0|0:0,0:0:0:0:
112,64,42498,1,0,0:0:0:0:
256,304,43129,2,0,B|304:320|320:304|320:304|384:304,1,129.999992809296,8|2,0:0|0:0,0:0:0:0:
432,240,43603,1,0,0:0:0:0:
480,176,43761,2,0,B|432:144|432:96|432:96|352:96,1,129.999992809296,0|2,0:0|0:0,0:0:0:0:
256,80,44392,2,0,B|160:96|160:96|144:144|96:144,1,129.999992809296,8|2,0:0|0:0,0:0:0:0:
176,192,44866,1,0,0:0:0:0:
240,160,45024,2,0,B|304:128|320:96|352:112|352:112|384:64,1,129.999992809296,0|2,0:0|0:0,0:0:0:0:
384,256,45656,1,8,0:0:0:0:
240,240,45971,1,2,0:0:0:0:
192,192,46129,1,0,0:0:0:0:
144,144,46287,2,0,B|96:96|96:96|144:48,1,129.999992809296,4|2,0:0|0:0,0:0:0:0:
272,128,46919,6,0,B|336:176|336:176|400:144,1,129.999992809296,8|2,0:0|0:0,0:0:0:0:
480,48,47550,2,0,B|448:112|448:112|480:192,1,129.999992809296,0|2,0:0|0:0,0:0:0:0:
464,304,48182,1,8,0:0:0:0:
320,288,48498,1,2,0:0:0:0:
256,256,48656,1,0,0:0:0:0:
208,192,48814,2,0,B|192:128|192:128|256:80,1,129.999992809296,0|2,0:0|0:0,0:0:0:0:
320,96,49287,1,0,0:0:0:0:
320,176,49445,2,0,B|320:272|320:272|416:272,2,129.999992809296,8|2|0,0:0|0:0|0:0,0:0:0:0:
240,48,50392,6,0,L|160:80,1,62.4999994039534,2|0,0:0|0:0,0:0:0:0:
128,128,50708,2,0,L|96:192,1,62.4999994039534,8|0,0:0|0:0,0:0:0:0:
112,256,51024,2,0,L|128:320,1,62.4999994039534,2|0,0:0|0:0,0:0:0:0:
192,352,51340,1,4,0:0:0:0:
128,64,53866,5,2,0:0:0:0:
224,96,54182,1,8,0:0:0:0:
272,96,54340,2,0,L|336:96,1,49.9999995231627,0|2,0:0|0:0,0:0:0:0:
304,208,54814,1,8,0:0:0:0:
256,208,54971,2,0,L|176:208,1,49.9999995231627,0|2,0:0|0:0,0:0:0:0:
144,128,55445,5,8,0:0:0:0:
192,128,55603,2,0,L|256:128,1,49.9999995231627,0|2,0:0|0:0,0:0:0:0:
336,144,56077,1,8,0:0:0:0:
384,144,56235,1,4,0:0:0:0:
