osu file format v14

[General]
AudioFilename: audio.mp3
AudioLeadIn: 0
PreviewTime: 40467
Countdown: 0
SampleSet: Soft
StackLeniency: 0.2
Mode: 0
LetterboxInBreaks: 0
WidescreenStoryboard: 0

[Editor]
Bookmarks: 242572
DistanceSpacing: 2.1
BeatDivisor: 8
GridSize: 4
TimelineZoom: 1

[Metadata]
Title:Fallen Angel feat. Aimee B
TitleUnicode:Fallen Angel feat. Aimee B
Artist:Mitsunori Ikeda
ArtistUnicode:Mitsunori Ikeda
Creator:Natteke desu
Version:Insane
Source:Panty & Stocking with Garterbelt
Tags:パンティ&ストッキングwithガーターベルト 充徳 — 池田 PanSto and Gainax ending ed anime english anarchy pop ☆Taku Takahashi *Taku m-flo mflo 高橋拓 Jounzan EvilElvis EvilElvisV2
BeatmapID:4449505
BeatmapSetID:2118494

[Difficulty]
HPDrainRate:6
CircleSize:4
OverallDifficulty:7
ApproachRate:8
SliderMultiplier:1.4
SliderTickRate:1

[Events]
//Background and Video events
0,0,"aimebebe.jpg",0,0
//Break Periods
//Storyboard Layer 0 (Background)
//Storyboard Layer 1 (Fail)
//Storyboard Layer 2 (Pass)
//Storyboard Layer 3 (Foreground)
//Storyboard Layer 4 (Overlay)
//Storyboard Sound Samples

[TimingPoints]
46,631.578947368421,4,2,1,40,1,0
10151,-100,4,2,1,50,0,0
20256,-76.9230769230769,4,2,1,60,0,0
60677,-100,4,2,1,60,0,0
80888,-66.6666666666667,4,2,1,60,0,1
95730,-66.6666666666667,4,2,1,30,0,1
95888,-66.6666666666667,4,2,1,60,0,1
100151,-66.6666666666667,4,2,1,30,0,1
100309,-66.6666666666667,4,2,1,60,0,1
100782,-66.6666666666667,4,2,1,30,0,1
100940,-66.6666666666667,4,2,1,60,0,0
101098,-76.9230769230769,4,2,1,60,0,0
141519,-100,4,2,1,60,0,0
161730,-66.6666666666667,4,2,1,60,0,1
166467,-66.6666666666667,4,2,1,30,0,1
166624,-66.6666666666667,4,2,1,60,0,1
176572,-66.6666666666667,4,2,1,30,0,1
176730,-66.6666666666667,4,2,1,60,0,1
178782,-66.6666666666667,4,2,1,60,0,1
180993,-66.6666666666667,4,2,1,30,0,1
181151,-66.6666666666667,4,2,1,60,0,1
181940,-66.6666666666667,4,2,1,60,0,0
182888,-66.6666666666667,4,2,1,40,0,0
185098,-133.333333333333,4,2,1,40,0,0
185651,-133.333333333333,4,2,1,5,0,0
185730,-133.333333333333,4,2,1,40,0,0
185967,-133.333333333333,4,2,1,5,0,0
186046,-133.333333333333,4,2,1,40,0,0
186282,-133.333333333333,4,2,1,5,0,0
186361,-100,4,2,1,40,0,0
186598,-133.333333333333,4,2,1,5,0,0
186677,-133.333333333333,4,2,1,40,0,0
186993,-133.333333333333,4,2,1,40,0,0
190388,-133.333333333333,4,2,1,5,0,0
190467,-133.333333333333,4,2,1,40,0,0
190703,-133.333333333333,4,2,1,5,0,0
190782,-133.333333333333,4,2,1,40,0,0
191019,-133.333333333333,4,2,1,5,0,0
191098,-133.333333333333,4,2,1,40,0,0
191256,-100,4,2,1,40,0,0
191493,-133.333333333333,4,2,1,5,0,0
191572,-100,4,2,1,40,0,0
192046,-76.9230769230769,4,2,1,45,0,0
193546,-76.9230769230769,4,2,1,5,0,0
193624,-76.9230769230769,4,2,1,45,0,0
201361,-76.9230769230769,4,2,1,50,0,0
202151,-66.6666666666667,4,2,1,60,0,1
216993,-66.6666666666667,4,2,1,30,0,1
217151,-66.6666666666667,4,2,1,60,0,1
221414,-66.6666666666667,4,2,1,30,0,1
221572,-66.6666666666667,4,2,1,60,0,1
237203,-66.6666666666667,4,2,1,30,0,1
237361,-66.6666666666667,4,2,1,60,0,1
262624,-66.6666666666667,4,2,1,60,0,0

[Colours]
Combo1 : 255,100,255
Combo2 : 255,255,45
Combo3 : 132,9,255
Combo4 : 245,88,112

[HitObjects]
2,32,46,6,0,P|1:80|2:115,1,70,2|2,0:0|0:3,0:0:0:0:
120,161,677,2,0,P|121:113|120:78,1,70,2|2,0:0|0:3,0:0:0:0:
249,58,1309,2,0,L|326:61,1,70,2|2,0:0|0:3,0:0:0:0:
433,129,1940,2,0,L|502:126,1,70,2|2,0:0|0:3,0:0:0:0:
403,338,2572,6,0,P|400:268|398:197,2,140,0|4|2,3:3|3:3|3:3,0:0:0:0:
276,296,4151,1,2,0:3:0:0:
182,325,4467,1,4,3:3:0:0:
108,308,4782,1,2,3:3:0:0:
63,329,5098,6,0,P|58:307|52:257,1,70,2|2,0:0|0:3,0:0:0:0:
158,179,5730,2,0,P|163:201|169:251,1,70,2|2,0:0|0:3,0:0:0:0:
292,204,6361,2,0,L|368:212,1,70,2|2,0:0|0:3,0:0:0:0:
492,180,6993,2,0,L|504:104,1,70,2|2,0:0|0:3,0:0:0:0:
452,328,7624,6,0,B|384:308|384:348|312:336,2,140,0|4|2,3:3|3:3|3:3,0:0:0:0:
352,240,9203,1,2,0:3:0:0:
416,204,9361,1,8,3:3:0:0:
340,204,9519,2,0,P|328:168|328:160,1,35,4|8,3:3|3:3,0:0:0:0:
344,96,9835,2,0,L|356:56,1,35,2|0,3:3|0:0,0:0:0:0:
256,128,10151,6,0,P|196:132|140:132,1,105,4|0,3:1|0:0,0:0:0:0:
96,180,10782,2,0,P|60:180|12:184,1,70,8|0,3:1|3:0,0:0:0:0:
120,252,11414,1,4,3:0:0:0:
236,320,11730,2,0,L|188:316,1,35,2|0,0:2|0:0,0:0:0:0:
288,260,12045,2,0,P|292:232|288:176,1,70,8|2,3:2|0:2,0:0:0:0:
360,28,12677,6,0,P|360:76|368:180,2,140,6|8|6,3:0|3:1|3:0,0:0:0:0:
444,132,14256,2,0,L|484:128,1,35,2|0,0:2|0:0,0:0:0:0:
496,204,14572,2,0,P|500:240|500:284,1,70,8|8,3:2|3:1,0:0:0:0:
464,364,15045,1,8,3:1:0:0:
512,296,15203,6,0,P|460:292|408:300,1,105,4|0,3:0|0:0,0:0:0:0:
336,268,15835,2,0,P|336:244|324:188,1,70,8|0,3:1|3:0,0:0:0:0:
352,92,16467,1,4,3:0:0:0:
248,136,16782,2,0,L|208:132,1,35,2|0,0:2|0:0,0:0:0:0:
136,196,17098,2,0,P|104:200|64:216,1,70,8|2,3:2|0:2,0:0:0:0:
14,129,17730,6,0,P|3:106|-12:51,1,70,6|2,3:0|0:2,0:0:0:0:
101,47,18361,1,8,3:1:0:0:
0,29,18677,1,6,3:0:0:0:
97,85,18993,1,6,3:0:0:0:
300,152,19782,2,0,P|316:123|316:106,1,35,8|8,1:1|3:1,0:0:0:0:
217,226,20098,1,8,1:1:0:0:
319,228,20256,6,0,P|360:239|411:267,1,90.9999958343508,4|4,1:2|3:0,0:0:0:0:
220,136,20888,2,0,P|206:102|203:90,1,45.4999979171754,8|4,1:1|3:0,0:0:0:0:
273,74,21203,1,0,1:0:0:0:
211,237,21361,2,0,P|175:251|110:266,1,90.9999958343508,0|0,3:0|0:0,0:0:0:0:
53,260,21835,1,2,3:0:0:0:
53,260,21993,1,8,3:0:0:0:
265,349,22151,5,8,1:2:0:0:
265,349,22467,2,0,P|227:346|214:347,1,45.4999979171754,0|0,3:0|0:0,0:0:0:0:
232,136,22782,6,0,P|212:92|202:40,1,90.9999958343508,4|4,3:3|3:0,0:0:0:0:
324,207,23414,2,0,P|341:213|375:236,1,45.4999979171754,8|4,1:1|3:0,0:0:0:0:
421,267,23730,1,0,1:0:0:0:
201,234,23888,2,0,P|160:265|132:302,1,90.9999958343508,0|0,3:0|0:0,0:0:0:0:
252,182,24361,1,2,3:0:0:0:
252,182,24519,1,8,3:0:0:0:
256,27,24677,5,8,1:2:0:0:
256,27,24993,2,0,P|266:64|274:86,1,45.4999979171754,8|4,1:3|1:3,0:0:0:0:
207,237,25309,6,0,P|164:252|107:258,1,90.9999958343508,4|4,1:3|3:0,0:0:0:0:
301,148,25940,2,0,P|317:129|328:111,1,45.4999979171754,8|4,1:1|3:0,0:0:0:0:
310,242,26256,1,0,1:0:0:0:
199,134,26414,1,0,3:0:0:0:
199,134,26730,1,0,0:0:0:0:
157,72,26888,2,0,P|141:53|130:35,1,45.4999979171754,2|8,3:0|3:0,0:0:0:0:
365,160,27203,6,0,P|389:151|411:148,1,45.4999979171754,8|0,1:2|0:0,0:0:0:0:
214,282,27519,1,0,3:0:0:0:
214,282,27677,1,8,3:0:0:0:
259,132,27835,6,0,P|250:72|235:42,1,90.9999958343508,4|4,3:3|3:0,0:0:0:0:
330,269,28467,2,0,P|350:290|376:305,1,45.4999979171754,8|4,1:1|3:0,0:0:0:0:
190,229,28782,1,0,1:0:0:0:
331,173,28940,2,0,P|350:160|374:152,1,45.4999979171754,0|4,3:0|1:3,0:0:0:0:
245,298,29256,1,0,0:0:0:0:
252,163,29414,1,2,3:0:0:0:
252,163,29572,1,8,3:0:0:0:
357,332,29730,5,8,1:2:0:0:
357,332,30046,2,0,P|390:345|410:358,1,45.4999979171754,8|4,1:3|1:3,0:0:0:0:
216,148,30361,6,0,P|189:101|179:49,1,90.9999958343508,4|4,1:3|3:0,0:0:0:0:
326,223,30993,2,0,P|362:235|379:247,1,45.4999979171754,8|4,1:1|3:0,0:0:0:0:
212,286,31309,1,0,1:0:0:0:
368,238,31467,2,0,P|348:228|274:220,1,90.9999958343508,0|0,3:0|0:0,0:0:0:0:
214,181,31940,1,2,3:0:0:0:
214,181,32098,1,8,3:0:0:0:
280,32,32256,5,8,1:2:0:0:
280,32,32572,2,0,P|293:72|302:91,1,45.4999979171754,0|0,3:0|0:0,0:0:0:0:
219,261,32888,6,0,P|198:294|152:337,1,90.9999958343508,4|4,3:3|3:0,0:0:0:0:
324,199,33519,2,0,P|351:205|373:205,1,45.4999979171754,8|4,1:1|3:0,0:0:0:0:
444,213,33835,1,0,1:0:0:0:
208,141,33993,2,0,P|184:115|146:58,1,90.9999958343508,0|0,3:0|0:0,0:0:0:0:
251,211,34467,1,2,3:0:0:0:
251,211,34624,1,8,3:0:0:0:
213,351,34782,5,8,1:2:0:0:
213,351,35098,2,0,P|241:340|265:335,1,45.4999979171754,8|4,1:3|1:3,0:0:0:0:
224,140,35414,6,0,P|197:100|165:62,1,90.9999958343508,4|4,1:3|3:0,0:0:0:0:
348,221,36046,2,0,P|373:232|398:248,1,45.4999979171754,8|4,1:1|3:0,0:0:0:0:
296,170,36361,1,0,1:0:0:0:
217,271,36519,1,0,3:0:0:0:
217,271,36835,1,0,0:0:0:0:
158,315,36993,2,0,P|134:334|122:349,1,45.4999979171754,2|8,3:0|3:0,0:0:0:0:
295,99,37309,6,0,P|310:68|317:45,1,45.4999979171754,8|0,1:2|0:0,0:0:0:0:
317,288,37624,1,0,3:0:0:0:
317,288,37782,1,0,0:0:0:0:
93,129,37940,6,0,P|140:129|189:142,1,90.9999958343508,4|4,3:3|3:0,0:0:0:0:
374,175,38572,2,0,P|350:185|328:200,1,45.4999979171754,8|4,1:1|3:0,0:0:0:0:
215,281,38888,1,0,1:0:0:0:
348,331,39046,2,0,P|333:301|321:288,1,45.4999979171754,0|4,3:0|1:3,0:0:0:0:
222,186,39361,1,0,0:0:0:0:
276,65,39519,1,2,1:3:0:0:
192,63,39677,5,8,3:0:0:0:
297,151,39835,1,8,1:2:0:0:
212,258,39993,1,4,3:3:0:0:
315,176,40151,2,0,P|347:176|374:181,1,45.4999979171754,8|4,1:3|1:3,0:0:0:0:
116,160,40467,5,4,1:2:0:0:
46,192,40624,1,8,3:0:0:0:
27,266,40782,1,8,3:0:0:0:
116,160,41098,5,8,1:1:0:0:
46,192,41255,1,4,0:3:0:0:
27,266,41413,1,8,3:0:0:0:
72,323,41572,1,8,3:0:0:0:
72,323,42046,2,0,P|74:291|71:276,1,45.4999979171754,2|0,0:3|0:0,0:0:0:0:
246,208,42361,1,8,1:2:0:0:
254,50,42677,5,2,3:3:0:0:
254,50,42835,1,8,3:3:0:0:
341,161,42993,5,4,3:0:0:0:
408,196,43151,1,8,3:0:0:0:
479,165,43308,1,10,3:0:0:0:
341,161,43624,5,8,1:1:0:0:
408,196,43782,1,4,0:3:0:0:
479,165,43939,1,10,3:0:0:0:
486,88,44098,1,8,3:0:0:0:
508,160,44256,2,0,P|509:212|514:262,1,90.9999958343508,6|2,3:3|0:3,0:0:0:0:
485,324,44730,1,0,0:0:0:0:
268,275,44888,2,0,P|257:306|253:324,1,45.4999979171754,8|0,1:2|0:0,0:0:0:0:
279,198,45203,1,2,3:3:0:0:
279,198,45361,1,8,3:3:0:0:
244,20,45519,5,4,1:3:0:0:
177,79,45677,1,8,3:0:0:0:
99,112,45835,1,8,3:0:0:0:
244,20,46151,5,8,1:1:0:0:
177,79,46309,1,4,0:3:0:0:
99,112,46467,1,8,3:0:0:0:
14,125,46624,1,8,3:0:0:0:
14,125,47098,2,0,P|43:125|61:126,1,45.4999979171754,2|0,0:3|0:0,0:0:0:0:
258,170,47414,1,8,1:2:0:0:
223,349,47730,5,2,3:3:0:0:
223,349,47888,1,8,3:3:0:0:
344,363,48046,2,0,P|392:355|454:347,1,90.9999958343508,4|10,3:0|3:0,0:0:0:0:
433,349,48677,2,0,P|422:324|416:302,1,45.4999979171754,8|8,1:1|1:0,0:0:0:0:
394,237,48993,1,8,3:1:0:0:
294,185,49151,1,8,3:0:0:0:
364,83,49309,5,6,1:3:0:0:
457,143,49467,1,0,1:3:0:0:
359,128,49624,1,2,0:3:0:0:
465,100,49782,1,0,1:3:0:0:
378,153,49940,1,8,1:2:0:0:
447,67,50098,1,0,1:3:0:0:
345,72,50256,5,2,3:3:0:0:
474,178,50414,1,8,1:0:0:0:
333,257,50572,5,8,1:3:0:0:
269,305,50730,1,0,3:3:0:0:
349,299,50888,1,10,1:3:0:0:
333,257,51203,5,8,1:1:0:0:
269,305,51361,1,6,3:3:0:0:
349,299,51519,1,8,3:1:0:0:
410,248,51677,1,4,3:3:0:0:
410,248,52151,2,0,P|422:216|424:205,1,45.4999979171754,0|8,3:3|3:3,0:0:0:0:
256,38,52467,1,8,1:2:0:0:
222,172,52782,5,2,3:3:0:0:
222,172,52940,1,10,3:3:0:0:
115,275,53098,5,4,1:3:0:0:
9,253,53256,1,8,3:0:0:0:
48,320,53414,1,8,3:0:0:0:
115,275,53730,5,8,1:1:0:0:
9,253,53888,1,4,0:3:0:0:
48,320,54046,1,8,3:0:0:0:
76,210,54203,1,8,3:0:0:0:
147,126,54361,2,0,P|139:104|125:86,1,45.4999979171754,6|0,3:3|0:0,0:0:0:0:
54,170,54677,2,0,P|62:191|76:210,1,45.4999979171754,2|0,0:3|0:0,0:0:0:0:
230,42,54993,1,8,1:2:0:0:
276,197,55309,5,2,3:3:0:0:
276,197,55467,1,8,3:3:0:0:
376,299,55624,5,4,3:0:0:0:
480,275,55782,1,8,3:0:0:0:
370,270,55940,1,10,3:0:0:0:
376,299,56256,5,8,1:1:0:0:
480,275,56414,1,4,0:3:0:0:
370,270,56572,1,10,3:0:0:0:
461,241,56730,1,8,3:0:0:0:
370,270,56888,2,0,P|367:226|359:169,1,90.9999958343508,6|2,3:3|0:3,0:0:0:0:
357,110,57361,1,0,0:0:0:0:
233,336,57519,2,0,P|207:334|182:337,1,45.4999979171754,8|0,1:2|0:0,0:0:0:0:
300,372,57835,1,2,3:3:0:0:
300,372,57993,1,8,3:3:0:0:
146,270,58151,6,0,P|112:275|52:291,1,90.9999958343508,4|10,3:0|3:0,0:0:0:0:
58,289,58782,2,0,P|51:265|42:241,1,45.4999979171754,8|8,1:1|1:0,0:0:0:0:
83,161,59098,1,8,3:1:0:0:
115,64,59256,2,0,P|127:104|146:160,1,90.9999958343508,8|4,3:0|1:3,0:0:0:0:
177,222,59730,1,2,0:3:0:0:
223,157,59888,5,8,1:3:0:0:
98,226,60046,1,8,1:2:0:0:
299,241,60203,5,8,1:3:0:0:
429,300,60361,1,6,3:3:0:0:
341,319,60519,1,8,1:0:0:0:
506,341,60677,6,0,P|504:293|496:231,1,105,4|0,1:2|0:0,0:0:0:0:
492,215,61308,2,0,P|492:184|493:132,1,70,8|2,1:0|3:0,0:0:0:0:
493,37,61940,1,4,3:0:0:0:
351,104,62256,2,0,L|303:100,1,35,2|0,0:3|0:0,0:0:0:0:
282,173,62571,2,0,P|287:211|288:242,1,70,8|2,1:2|0:0,0:0:0:0:
105,357,63203,6,0,P|99:287|98:217,2,140,6|8|6,3:3|1:0|3:0,0:0:0:0:
30,179,64782,2,0,L|27:144,1,35,10|0,0:3|0:0,0:0:0:0:
42,48,65098,2,0,P|43:82|46:128,1,70,8|8,1:2|1:0,0:0:0:0:
98,218,65571,1,8,1:0:0:0:
159,153,65729,6,0,B|207:141|214:167|263:161,1,105,2|0,3:0|0:0,0:0:0:0:
284,194,66361,2,0,P|316:192|355:193,1,70,8|2,1:0|3:0,0:0:0:0:
420,150,66993,1,4,3:0:0:0:
446,273,67308,2,0,L|406:269,1,35,2|0,0:3|0:0,0:0:0:0:
311,313,67624,2,0,P|343:300|378:295,1,70,8|2,1:2|0:0,0:0:0:0:
241,183,68256,6,0,P|237:215|222:258,1,70,6|8,3:3|3:0,0:0:0:0:
374,192,68887,1,8,1:0:0:0:
326,130,69203,1,8,3:0:0:0:
464,81,69519,1,6,3:0:0:0:
420,20,69835,1,10,0:3:0:0:
315,240,70151,1,8,1:2:0:0:
378,282,70467,2,0,L|385:321,1,35,8|8,1:0|1:0,0:0:0:0:
237,345,70782,6,0,P|229:300|226:238,1,105,6|0,3:3|0:0,0:0:0:0:
204,216,71413,2,0,P|165:218|120:220,1,70,8|8,1:0|3:0,0:0:0:0:
49,154,72045,1,6,3:0:0:0:
94,59,72361,2,0,L|128:61,1,35,10|0,0:3|0:0,0:0:0:0:
195,100,72676,2,0,L|276:87,1,70,8|8,1:2|1:0,0:0:0:0:
481,179,73308,6,0,B|412:152|412:200|338:182,2,140,2|8|4,3:0|1:0|3:0,0:0:0:0:
288,240,74887,2,0,L|252:232,1,35,2|0,0:3|0:0,0:0:0:0:
184,244,75203,2,0,P|188:280|188:324,1,70,8|2,1:2|0:0,0:0:0:0:
128,352,75676,1,2,0:0:0:0:
60,238,75835,6,0,P|53:216|52:192,1,35,6|0,3:3|0:0,0:0:0:0:
47,133,76151,1,8,3:0:0:0:
47,133,76309,1,8,3:1:0:0:
132,78,76467,1,8,1:0:0:0:
60,238,76782,6,0,P|53:216|52:192,1,35,8|0,3:0|0:0,0:0:0:0:
47,133,77098,1,6,3:0:0:0:
47,133,77256,1,8,1:0:0:0:
132,78,77414,1,10,0:3:0:0:
346,334,77730,1,8,1:2:0:0:
346,334,78045,2,0,L|382:343,1,35,8|8,1:0|1:0,0:0:0:0:
338,238,78361,6,0,P|343:208|356:162,1,70,4|10,3:3|3:3,0:0:0:0:
252,277,78993,1,8,1:0:0:0:
302,355,79309,1,10,3:3:0:0:
381,314,79624,1,6,3:3:0:0:
250,80,80413,2,0,P|251:57|254:31,1,35,8|8,1:0|1:0,0:0:0:0:
186,117,80729,1,8,1:0:0:0:
359,205,80888,6,0,P|410:233|458:270,1,105.000004005432,4|0,1:0|3:0,0:0:0:0:
359,205,81519,1,8,1:0:0:0:
267,229,81677,1,0,3:0:0:0:
312,325,81835,1,4,3:0:0:0:
395,292,81993,1,0,0:0:0:0:
253,257,82151,2,0,P|226:275|208:298,1,52.5000020027161,2|8,3:0|0:3,0:0:0:0:
418,338,82467,2,0,P|406:308|392:288,1,52.5000020027161,0|10,0:3|0:3,0:0:0:0:
232,164,82782,5,8,1:2:0:0:
232,164,83098,2,0,L|253:114,1,52.5000020027161,6|8,3:0|3:1,0:0:0:0:
141,238,83414,2,0,P|86:239|32:248,1,105.000004005432,12|8,3:3|3:0,0:0:0:0:
248,277,84045,2,0,P|275:302|292:324,1,52.5000020027161,8|0,1:0|3:0,0:0:0:0:
250,147,84361,1,12,3:0:0:0:
171,243,84519,1,0,0:0:0:0:
300,205,84677,2,0,P|330:201|361:203,1,52.5000020027161,2|12,3:0|3:3,0:0:0:0:
176,161,84993,2,0,P|158:140|132:115,1,52.5000020027161,0|10,0:3|0:3,0:0:0:0:
191,334,85309,5,8,1:2:0:0:
191,334,85624,1,6,1:2:0:0:
234,269,85782,1,8,3:1:0:0:
100,246,85940,2,0,P|85:210|39:147,1,105.000004005432,4|0,1:0|3:0,0:0:0:0:
48,156,86572,1,8,1:0:0:0:
20,273,86730,1,0,3:0:0:0:
137,305,86888,1,4,3:0:0:0:
169,195,87045,1,0,0:0:0:0:
112,279,87203,2,0,P|93:324|84:336,1,52.5000020027161,2|8,3:0|0:3,0:0:0:0:
209,260,87519,1,0,0:3:0:0:
97,211,87677,1,10,0:3:0:0:
256,95,87835,5,8,1:2:0:0:
256,95,88151,2,0,P|268:68|271:38,1,52.5000020027161,6|8,3:0|3:1,0:0:0:0:
292,200,88467,2,0,P|327:239|371:272,1,105.000004005432,12|8,3:3|3:0,0:0:0:0:
194,172,88940,1,8,3:0:0:0:
337,128,89098,1,8,1:0:0:0:
253,81,89256,1,0,3:0:0:0:
286,226,89414,1,12,3:0:0:0:
236,283,89572,1,2,3:0:0:0:
278,201,89730,2,0,P|268:178|252:151,1,52.5000020027161,2|12,3:0|3:3,0:0:0:0:
92,94,90045,2,0,P|101:116|120:146,1,52.5000020027161,0|10,0:3|0:3,0:0:0:0:
10,352,90361,6,0,P|33:333|60:319,1,52.5000020027161,8|8,1:2|3:1,0:0:0:0:
128,343,90677,1,8,1:0:0:0:
128,343,90835,1,8,3:1:0:0:
257,203,90993,6,0,P|255:150|240:91,1,105.000004005432,4|0,1:0|3:0,0:0:0:0:
257,203,91624,1,8,1:0:0:0:
340,302,91782,1,0,3:0:0:0:
227,275,91940,1,4,3:0:0:0:
339,215,92098,1,0,0:0:0:0:
247,319,92256,2,0,P|203:317|126:335,1,105.000004005432,2|0,3:0|0:3,0:0:0:0:
314,358,92730,1,10,0:3:0:0:
423,222,92888,5,8,1:2:0:0:
423,222,93203,2,0,P|418:190|416:154,1,52.5000020027161,6|8,3:0|3:1,0:0:0:0:
282,49,93519,2,0,P|329:79|384:102,1,105.000004005432,12|8,3:3|3:0,0:0:0:0:
460,101,93993,1,8,3:0:0:0:
289,182,94151,2,0,P|256:199|239:216,1,52.5000020027161,8|0,1:0|3:0,0:0:0:0:
339,233,94467,1,12,3:0:0:0:
95,147,94624,2,0,P|132:191|159:242,1,105.000004005432,2|12,3:0|3:3,0:0:0:0:
214,351,95098,2,0,P|224:318|229:288,1,52.5000020027161,0|10,0:3|0:3,0:0:0:0:
39,213,95414,5,8,1:2:0:0:
39,213,95730,1,6,1:2:0:0:
115,141,95888,1,8,3:1:0:0:
62,243,96045,6,0,P|116:254|168:281,1,105.000004005432,4|0,1:2|3:0,0:0:0:0:
47,325,96519,1,8,3:0:0:0:
37,167,96677,2,0,P|29:135|13:111,1,52.5000020027161,8|0,1:0|3:0,0:0:0:0:
134,86,96993,1,4,3:0:0:0:
116,18,97151,1,0,0:0:0:0:
262,56,97309,2,0,P|270:88|282:111,1,52.5000020027161,2|8,3:0|0:3,0:0:0:0:
259,210,97624,2,0,P|239:221|217:242,1,52.5000020027161,4|10,1:2|0:3,0:0:0:0:
428,193,97940,5,12,1:2:0:0:
428,193,98256,1,6,3:0:0:0:
479,137,98414,1,8,3:1:0:0:
352,158,98572,6,0,P|296:125|268:89,1,105.000004005432,12|8,3:3|3:0,0:0:0:0:
256,26,99045,1,8,3:0:0:0:
221,189,99203,2,0,P|203:210|177:230,1,52.5000020027161,8|0,1:0|3:0,0:0:0:0:
320,283,99519,1,12,3:0:0:0:
310,210,99677,1,2,3:0:0:0:
204,313,99835,2,0,P|237:319|258:334,1,52.5000020027161,2|12,3:0|3:3,0:0:0:0:
209,148,100151,5,4,1:2:0:0:
188,225,100309,1,8,3:3:0:0:
56,53,100467,1,8,1:2:0:0:
35,130,100625,1,8,3:0:0:0:
174,77,100782,5,4,1:2:0:0:
64,204,100940,1,0,3:1:0:0:
305,195,101098,6,0,P|340:194|399:197,1,90.9999958343508,4|4,1:2|3:0,0:0:0:0:
397,197,101730,2,0,P|356:197|339:198,1,45.4999979171754,8|4,1:1|3:0,0:0:0:0:
470,197,102045,1,0,1:0:0:0:
242,165,102203,2,0,P|247:133|246:58,1,90.9999958343508,0|0,3:0|0:0,0:0:0:0:
141,169,102677,1,2,3:0:0:0:
74,190,102835,1,8,3:0:0:0:
258,293,102993,5,8,1:2:0:0:
258,293,103309,2,0,P|290:301|311:309,1,45.4999979171754,0|0,3:0|0:0,0:0:0:0:
69,185,103624,6,0,P|68:146|65:90,1,90.9999958343508,4|4,3:3|3:0,0:0:0:0:
256,204,104256,2,0,P|257:175|256:148,1,45.4999979171754,8|4,1:1|3:0,0:0:0:0:
252,83,104572,1,0,1:0:0:0:
461,148,104730,2,0,P|459:188|459:238,1,90.9999958343508,0|0,3:0|0:0,0:0:0:0:
368,226,105203,1,2,3:0:0:0:
371,145,105361,1,8,3:0:0:0:
228,22,105519,5,8,1:2:0:0:
228,22,105835,2,0,P|199:31|177:40,1,45.4999979171754,8|4,1:3|1:3,0:0:0:0:
373,188,106151,6,0,P|419:200|474:219,1,90.9999958343508,4|4,1:3|3:0,0:0:0:0:
283,209,106782,2,0,P|250:212|229:216,1,45.4999979171754,8|4,1:1|3:0,0:0:0:0:
126,140,107098,1,0,1:0:0:0:
53,170,107256,1,0,3:0:0:0:
53,170,107572,1,0,0:0:0:0:
123,185,107730,2,0,P|157:190|169:193,1,45.4999979171754,2|8,3:0|3:0,0:0:0:0:
267,328,108045,5,8,1:2:0:0:
326,371,108203,1,0,0:0:0:0:
267,328,108361,2,0,P|246:290|237:281,1,45.4999979171754,0|0,3:0|0:0,0:0:0:0:
411,188,108677,6,0,P|422:148|448:85,1,90.9999958343508,4|4,3:3|3:0,0:0:0:0:
268,182,109309,2,0,P|262:154|256:138,1,45.4999979171754,8|4,1:1|3:0,0:0:0:0:
185,169,109624,1,0,1:0:0:0:
51,211,109782,2,0,P|56:238|63:255,1,45.4999979171754,0|4,3:0|1:3,0:0:0:0:
126,220,110098,1,0,0:0:0:0:
142,136,110256,1,2,3:0:0:0:
211,191,110414,1,8,3:0:0:0:
284,27,110572,5,8,1:2:0:0:
284,27,110888,2,0,P|276:51|262:73,1,45.4999979171754,8|4,1:3|1:3,0:0:0:0:
369,210,111203,6,0,B|417:208|468:237,1,90.9999958343508,4|4,1:3|3:0,0:0:0:0:
457,232,111835,2,0,P|454:208|453:178,1,45.4999979171754,8|4,1:1|3:0,0:0:0:0:
275,215,112151,1,0,1:0:0:0:
269,95,112309,2,0,P|257:139|229:195,1,90.9999958343508,0|0,3:0|0:0,0:0:0:0:
129,219,112782,1,2,3:0:0:0:
63,190,112940,1,8,3:0:0:0:
252,337,113098,5,8,1:2:0:0:
252,337,113414,2,0,P|260:308|261:288,1,45.4999979171754,0|0,3:0|0:0,0:0:0:0:
63,190,113730,6,0,P|48:159|35:102,1,90.9999958343508,4|4,3:3|3:0,0:0:0:0:
229,185,114361,2,0,P|239:165|258:145,1,45.4999979171754,8|4,1:1|3:0,0:0:0:0:
373,235,114677,1,0,1:0:0:0:
482,198,114835,2,0,B|437:190|431:207|386:204,1,90.9999958343508,0|0,3:0|0:0,0:0:0:0:
366,132,115309,1,2,3:0:0:0:
366,132,115467,1,8,3:0:0:0:
223,31,115624,5,8,1:2:0:0:
154,97,115782,1,0,0:0:0:0:
248,125,115940,2,0,P|261:145|268:172,1,45.4999979171754,8|4,1:3|1:3,0:0:0:0:
87,225,116256,6,0,P|49:235|-10:258,1,90.9999958343508,4|4,1:3|3:0,0:0:0:0:
155,129,116888,2,0,P|155:105|151:77,1,45.4999979171754,8|4,1:1|3:0,0:0:0:0:
247,216,117203,1,0,1:0:0:0:
319,182,117361,1,0,3:0:0:0:
319,182,117677,1,0,0:0:0:0:
455,208,117835,2,0,P|423:208|399:215,1,45.4999979171754,2|8,3:0|3:0,0:0:0:0:
228,314,118151,5,8,1:2:0:0:
171,260,118309,1,0,0:0:0:0:
228,314,118467,2,0,P|260:314|284:321,1,45.4999979171754,0|0,3:0|0:0,0:0:0:0:
92,192,118782,6,0,P|89:161|80:97,1,90.9999958343508,4|4,3:3|3:0,0:0:0:0:
284,195,119414,2,0,P|287:171|287:149,1,45.4999979171754,8|4,1:1|3:0,0:0:0:0:
222,237,119730,1,0,1:0:0:0:
291,192,119888,2,0,P|294:154|291:88,1,90.9999958343508,0|0,3:0|0:0,0:0:0:0:
292,30,120361,1,2,1:3:0:0:
387,200,120519,5,8,3:0:0:0:
462,215,120677,1,8,1:2:0:0:
264,282,120835,5,4,3:3:0:0:
189,267,120993,1,8,1:3:0:0:
176,343,121151,1,4,1:3:0:0:
252,357,121309,5,4,1:2:0:0:
189,267,121467,1,8,3:0:0:0:
131,177,121624,1,8,3:0:0:0:
260,27,121940,5,8,1:1:0:0:
323,117,122098,1,4,0:3:0:0:
381,207,122255,1,8,3:0:0:0:
444,284,122414,1,8,3:0:0:0:
444,284,122888,2,0,P|450:259|460:231,1,45.4999979171754,2|0,0:3|0:0,0:0:0:0:
260,347,123203,1,8,1:2:0:0:
249,210,123519,5,2,3:3:0:0:
249,210,123677,1,8,3:3:0:0:
137,108,123835,5,4,3:0:0:0:
68,164,123993,1,8,3:0:0:0:
151,194,124151,1,10,3:0:0:0:
386,165,124467,5,8,1:1:0:0:
455,221,124625,1,4,0:3:0:0:
376,255,124783,1,10,3:0:0:0:
309,202,124940,1,8,3:0:0:0:
386,165,125098,2,0,P|393:138|399:75,1,90.9999958343508,6|2,3:3|0:3,0:0:0:0:
328,30,125572,1,0,0:0:0:0:
240,175,125730,1,8,1:2:0:0:
266,297,126045,5,2,3:3:0:0:
266,297,126203,1,8,3:3:0:0:
148,331,126361,5,4,1:3:0:0:
79,258,126519,1,8,3:0:0:0:
112,175,126677,1,8,3:0:0:0:
364,53,126993,5,8,1:1:0:0:
433,126,127151,1,4,0:3:0:0:
400,209,127309,1,10,3:0:0:0:
315,230,127467,1,8,3:0:0:0:
315,230,127940,2,0,P|316:188|315:178,1,45.4999979171754,0|0,3:3|0:0,0:0:0:0:
243,32,128256,1,8,1:2:0:0:
235,141,128572,5,2,3:3:0:0:
235,141,128730,1,8,3:3:0:0:
302,213,128888,6,0,P|349:217|401:222,1,90.9999958343508,4|10,3:0|3:0,0:0:0:0:
392,221,129519,1,8,1:1:0:0:
351,289,129677,1,8,1:0:0:0:
484,316,129835,5,8,3:1:0:0:
472,239,129993,1,8,3:0:0:0:
409,342,130151,5,6,1:3:0:0:
484,316,130309,1,0,1:3:0:0:
389,263,130467,1,2,0:3:0:0:
271,242,130624,5,0,1:3:0:0:
366,189,130782,1,8,1:2:0:0:
445,170,130940,5,0,1:3:0:0:
344,105,131098,1,2,3:3:0:0:
427,76,131256,1,8,1:0:0:0:
212,188,131414,5,8,1:3:0:0:
192,114,131572,1,0,3:3:0:0:
176,38,131730,1,10,1:3:0:0:
302,344,132046,5,8,1:1:0:0:
322,270,132204,1,6,3:3:0:0:
338,194,132362,1,8,3:1:0:0:
354,119,132519,1,4,3:3:0:0:
354,119,132993,2,0,P|343:91|335:75,1,45.4999979171754,0|8,3:3|3:3,0:0:0:0:
493,185,133309,1,8,1:2:0:0:
365,256,133624,5,2,3:3:0:0:
365,256,133782,1,10,3:3:0:0:
420,365,133940,5,4,1:3:0:0:
511,298,134098,1,8,3:0:0:0:
463,195,134256,1,8,3:0:0:0:
215,219,134572,1,8,1:1:0:0:
167,116,134730,1,4,0:3:0:0:
258,49,134888,1,8,3:0:0:0:
318,145,135046,1,8,3:0:0:0:
215,219,135203,2,0,P|155:204|105:203,1,90.9999958343508,6|2,3:3|0:3,0:0:0:0:
71,152,135677,1,0,0:0:0:0:
156,355,135835,1,8,1:2:0:0:
305,266,136151,5,2,3:3:0:0:
305,266,136309,1,8,3:3:0:0:
274,166,136467,5,4,3:0:0:0:
346,108,136624,1,8,3:0:0:0:
443,126,136782,1,10,3:0:0:0:
233,307,137098,1,8,1:1:0:0:
161,365,137255,1,4,0:3:0:0:
64,347,137413,1,10,3:0:0:0:
23,268,137572,1,8,3:0:0:0:
47,181,137730,1,6,3:3:0:0:
47,181,138046,2,0,P|42:154|31:126,1,45.4999979171754,2|0,0:3|0:0,0:0:0:0:
196,30,138361,1,8,1:2:0:0:
265,144,138677,5,2,3:3:0:0:
265,144,138835,1,8,3:3:0:0:
199,238,138993,5,4,3:0:0:0:
465,362,139309,2,0,P|474:332|476:269,1,90.9999958343508,10|8,3:0|1:1,0:0:0:0:
369,209,139782,1,8,1:0:0:0:
279,280,139940,1,8,3:1:0:0:
321,354,140098,1,8,3:0:0:0:
363,294,140256,5,6,1:3:0:0:
273,208,140414,1,4,1:3:0:0:
182,202,140572,5,2,0:3:0:0:
295,118,140730,1,8,1:3:0:0:
164,39,140888,5,8,1:2:0:0:
164,25,141046,1,8,1:3:0:0:
348,205,141203,1,6,3:3:0:0:
348,191,141361,1,8,1:0:0:0:
192,369,141519,6,0,P|198:334|217:263,1,105,4|0,1:2|0:0,0:0:0:0:
223,227,142151,2,0,L|149:207,1,70,8|2,1:0|3:0,0:0:0:0:
38,169,142782,1,4,3:0:0:0:
156,209,143098,2,0,P|171:199|180:180,1,35,2|0,0:3|0:0,0:0:0:0:
181,38,143414,2,0,P|184:73|190:108,1,70,8|2,1:2|0:0,0:0:0:0:
378,161,144046,6,0,P|383:202|389:309,2,140,6|8|6,3:3|1:0|3:0,0:0:0:0:
467,69,145624,2,0,L|422:54,1,35,10|0,0:3|0:0,0:0:0:0:
378,161,145940,2,0,P|388:191|412:229,1,70,8|8,1:2|1:0,0:0:0:0:
305,310,146414,1,8,1:0:0:0:
252,239,146572,6,0,B|199:248|213:296|170:317,1,105,2|0,3:0|0:0,0:0:0:0:
157,336,147203,2,0,P|127:330|83:336,1,70,8|2,1:0|3:0,0:0:0:0:
13,287,147835,1,4,3:0:0:0:
27,191,148151,2,0,P|32:159|31:146,1,35,2|0,0:3|0:0,0:0:0:0:
41,43,148467,2,0,L|110:20,1,70,8|2,1:2|0:0,0:0:0:0:
261,72,149098,6,0,P|271:96|313:126,1,70,6|8,3:3|3:0,0:0:0:0:
490,200,149730,1,8,1:0:0:0:
415,228,150046,1,8,3:0:0:0:
328,317,150361,1,6,3:0:0:0:
256,294,150677,1,10,0:3:0:0:
31,362,150993,1,8,1:2:0:0:
21,285,151309,2,0,P|13:270|13:247,1,35,8|8,1:0|1:0,0:0:0:0:
92,312,151624,6,0,P|122:309|164:320,1,70,6|0,3:3|3:0,0:0:0:0:
243,153,152256,2,0,L|250:79,1,70,8|8,1:0|3:0,0:0:0:0:
252,10,152730,1,0,0:0:0:0:
317,53,152888,2,0,P|350:59|393:44,1,70,6|10,3:0|0:3,0:0:0:0:
478,232,153519,2,0,L|471:306,1,70,8|8,1:2|1:0,0:0:0:0:
398,290,153993,1,8,1:0:0:0:
404,213,154151,5,2,3:0:0:0:
330,189,154467,1,2,3:0:0:0:
231,277,154782,1,8,1:0:0:0:
161,249,155098,1,2,3:0:0:0:
183,177,155414,2,0,P|187:148|191:58,1,105,4|0,3:0|0:0,0:0:0:0:
198,33,156046,2,0,L|157:29,1,35,8|0,1:2|0:0,0:0:0:0:
108,87,156361,1,2,0:0:0:0:
41,44,156519,1,2,0:0:0:0:
25,142,156677,6,0,L|18:180,1,35,6|0,3:3|0:0,0:0:0:0:
74,227,156993,1,8,3:0:0:0:
74,227,157151,1,8,3:1:0:0:
148,310,157309,1,8,1:0:0:0:
184,124,157624,6,0,L|177:162,1,35,8|0,3:0|0:0,0:0:0:0:
233,209,157940,1,6,3:0:0:0:
233,209,158098,1,8,1:0:0:0:
291,262,158256,1,10,0:3:0:0:
351,308,158414,1,8,1:0:0:0:
467,198,158572,2,0,P|469:156|475:115,1,70,8|8,1:2|1:0,0:0:0:0:
501,62,159046,1,8,1:0:0:0:
426,71,159203,5,4,3:3:0:0:
341,12,159519,1,10,3:3:0:0:
256,167,159835,1,8,1:0:0:0:
190,124,160151,1,10,3:3:0:0:
229,202,160467,2,0,P|238:253|206:295,1,105,6|0,3:3|0:0,0:0:0:0:
208,294,161256,1,8,1:0:0:0:
71,205,161414,1,8,1:0:0:0:
83,65,161572,1,8,1:0:0:0:
40,131,161730,6,0,P|6:119|2:40,1,105.000004005432,4|0,1:0|3:0,0:0:0:0:
40,131,162361,1,8,1:0:0:0:
156,77,162519,1,0,3:0:0:0:
212,192,162677,1,4,3:0:0:0:
92,241,162835,1,0,0:0:0:0:
220,160,162993,2,0,P|233:133|230:101,1,52.5000020027161,2|8,3:0|0:3,0:0:0:0:
288,0,163309,2,0,P|288:26|300:49,1,52.5000020027161,0|10,0:3|0:3,0:0:0:0:
476,154,163624,5,8,1:2:0:0:
476,154,163940,1,6,3:0:0:0:
392,107,164098,1,8,3:1:0:0:
427,222,164256,2,0,P|419:263|412:335,1,105.000004005432,12|8,3:3|3:0,0:0:0:0:
427,222,164888,1,8,1:0:0:0:
356,187,165046,1,0,3:0:0:0:
191,110,165203,1,12,3:0:0:0:
262,75,165361,1,0,0:0:0:0:
256,153,165519,2,0,P|252:187|251:219,1,52.5000020027161,2|12,3:0|3:3,0:0:0:0:
166,246,165835,2,0,P|170:212|171:180,1,52.5000020027161,0|10,0:3|0:3,0:0:0:0:
13,13,166151,5,8,1:2:0:0:
13,13,166467,1,6,1:2:0:0:
107,57,166624,1,8,3:1:0:0:
95,155,166782,2,0,P|84:204|36:231,1,105.000004005432,4|0,1:0|3:0,0:0:0:0:
95,155,167414,1,8,1:0:0:0:
13,99,167572,1,0,3:0:0:0:
103,54,167730,1,4,3:0:0:0:
187,120,167888,1,0,0:0:0:0:
289,93,168046,2,0,P|292:62|291:34,1,52.5000020027161,2|8,3:0|0:3,0:0:0:0:
356,6,168361,1,0,0:3:0:0:
408,59,168519,1,10,0:3:0:0:
508,300,168677,6,0,P|505:269|505:187,1,105.000004005432,8|6,1:2|3:0,0:0:0:0:
504,195,169151,1,8,3:1:0:0:
410,318,169309,2,0,P|366:317|357:291,1,52.5000020027161,12|0,3:3|0:0,0:0:0:0:
306,256,169624,1,8,3:0:0:0:
306,256,169782,1,8,3:0:0:0:
256,97,169940,2,0,P|288:120|288:143,1,52.5000020027161,8|0,1:0|3:0,0:0:0:0:
306,256,170256,1,12,3:0:0:0:
306,256,170414,1,2,3:0:0:0:
258,317,170572,2,0,L|193:308,1,52.5000020027161,2|12,3:0|3:3,0:0:0:0:
147,266,170888,2,0,L|82:257,1,52.5000020027161,0|10,0:3|0:3,0:0:0:0:
43,100,171203,1,8,1:2:0:0:
43,100,171519,1,8,1:0:0:0:
108,145,171677,1,8,3:1:0:0:
229,126,171835,6,0,P|230:87|226:11,1,105.000004005432,4|0,1:0|3:0,0:0:0:0:
153,60,172309,1,8,3:0:0:0:
310,125,172467,1,8,1:0:0:0:
415,43,172624,1,0,3:0:0:0:
345,12,172782,1,4,3:0:0:0:
384,153,172940,1,0,0:0:0:0:
482,129,173098,2,0,P|496:102|493:73,1,52.5000020027161,2|8,3:0|0:3,0:0:0:0:
453,196,173414,1,0,0:3:0:0:
493,258,173572,1,10,0:3:0:0:
330,334,173730,1,8,1:2:0:0:
330,334,174046,1,6,3:0:0:0:
243,264,174203,1,8,3:1:0:0:
328,223,174361,6,0,P|338:192|340:109,1,105.000004005432,12|8,3:3|3:0,0:0:0:0:
270,155,174835,1,8,3:0:0:0:
166,55,174993,1,8,1:0:0:0:
297,8,175151,1,0,3:0:0:0:
409,102,175309,1,12,3:0:0:0:
270,155,175467,1,0,0:0:0:0:
194,125,175624,2,0,P|134:142|101:187,1,105.000004005432,2|0,3:0|0:3,0:0:0:0:
81,245,176098,1,10,0:3:0:0:
24,27,176256,6,0,P|29:62|29:98,1,52.5000020027161,8|8,1:2|3:1,0:0:0:0:
102,2,176572,1,6,1:2:0:0:
157,62,176730,1,8,3:1:0:0:
5,216,176888,6,0,P|0:181|0:145,1,52.5000020027161,4|4,1:2|3:0,0:0:0:0:
74,157,177203,1,0,3:0:0:0:
74,157,177361,1,8,3:0:0:0:
192,317,177519,6,0,P|187:282|187:246,1,52.5000020027161,8|0,1:0|3:0,0:0:0:0:
271,175,177835,1,4,3:0:0:0:
371,235,177993,1,0,0:0:0:0:
489,68,178151,5,2,3:0:0:0:
438,16,178467,1,4,1:2:0:0:
257,104,178782,1,12,1:2:0:0:
183,11,178940,1,8,3:1:0:0:
254,30,179098,1,6,3:0:0:0:
146,76,179256,1,8,3:1:0:0:
257,205,179414,6,0,P|320:198|343:162,1,105.000004005432,12|8,3:3|3:0,0:0:0:0:
146,76,179888,1,8,3:0:0:0:
104,231,180046,1,8,1:0:0:0:
52,165,180203,1,0,3:0:0:0:
106,223,180361,1,12,3:0:0:0:
176,148,180519,1,2,3:0:0:0:
111,230,180677,2,0,P|119:263|111:296,1,52.5000020027161,2|12,3:0|3:3,0:0:0:0:
5,349,180993,1,4,1:2:0:0:
5,349,181151,1,8,3:3:0:0:
77,356,181309,5,8,1:2:0:0:
108,153,181467,1,8,3:0:0:0:
247,41,181624,5,4,1:2:0:0:
269,175,181782,1,0,3:1:0:0:
393,50,181940,5,4,1:2:0:0:
393,50,182888,1,0,3:2:0:0:
469,33,183046,1,0,3:2:0:0:
416,126,184151,1,8,3:0:0:0:
492,109,184309,1,0,3:2:0:0:
492,109,184624,1,0,3:2:0:0:
416,126,184782,1,8,3:0:0:0:
393,50,184940,1,0,3:2:0:0:
469,33,185098,1,2,3:0:0:0:
415,207,185414,6,0,P|381:208|374:211,1,39.3750015020371,4|0,3:0|0:0,0:0:0:0:
346,225,185730,2,0,P|312:226|305:229,1,39.3750015020371,2|0,3:2|0:0,0:0:0:0:
279,245,186046,2,0,P|245:246|238:249,1,39.3750015020371,4|0,3:0|0:0,0:0:0:0:
130,173,186361,6,0,P|161:173|187:176,1,52.5,6|0,3:0|0:0,0:0:0:0:
216,162,186677,1,12,3:0:0:0:
217,86,186835,1,0,0:0:0:0:
104,22,186993,5,2,3:0:0:0:
104,22,187940,1,0,3:2:0:0:
95,96,188098,1,0,3:2:0:0:
26,10,189203,1,8,3:0:0:0:
17,84,189361,1,0,3:2:0:0:
17,84,189677,1,0,3:2:0:0:
26,10,189835,1,8,3:0:0:0:
104,22,189993,1,0,3:2:0:0:
95,96,190151,2,0,P|118:105|141:102,1,39.3750015020371,2|0,3:0|0:0,0:0:0:0:
190,162,190467,2,0,P|183:138|167:121,1,39.3750015020371,4|0,3:0|0:0,0:0:0:0:
193,43,190782,2,0,P|175:60|168:82,1,39.3750015020371,2|0,3:2|0:0,0:0:0:0:
95,96,191098,5,6,3:0:0:0:
253,117,191256,2,0,P|279:120|308:100,1,52.5,8|0,3:0|0:0,0:0:0:0:
320,72,191572,1,8,3:0:0:0:
171,74,191730,1,6,3:0:0:0:
121,183,191888,1,4,3:0:0:0:
366,263,192046,6,0,B|315:252|323:312|266:296,2,90.9999958343508,4|4|0,3:2|3:2|0:0,0:0:0:0:
457,253,192993,1,4,3:0:0:0:
399,171,193309,2,0,P|389:143|394:103,1,68.2499968757631,8|0,3:0|0:0,0:0:0:0:
408,65,193624,1,0,0:0:0:0:
302,14,193782,2,0,P|311:65|308:118,1,90.9999958343508,0|0,3:0|3:0,0:0:0:0:
280,174,194256,1,4,3:0:0:0:
77,46,194572,6,0,B|128:35|120:95|177:79,2,90.9999958343508,8|8|6,3:0|3:0|3:0,0:0:0:0:
13,131,195519,1,8,3:0:0:0:
111,164,195835,2,0,P|112:202|110:241,1,68.2499968757631,6|0,3:0|3:0,0:0:0:0:
90,258,196151,1,12,3:0:0:0:
233,281,196309,1,0,3:0:0:0:
222,255,196624,1,0,3:0:0:0:
100,299,196782,1,8,3:0:0:0:
173,328,196940,1,0,3:0:0:0:
309,183,197098,6,0,B|355:178|352:217|409:216,4,90.9999958343508,14|8|2|4|2,3:0|3:0|3:0|3:0|3:0,0:0:0:0:
232,65,198677,1,2,3:0:0:0:
167,112,198835,2,0,P|144:88|151:48,1,68.2499968757631,6|0,3:0|3:0,0:0:0:0:
167,16,199151,1,0,3:0:0:0:
232,65,199309,1,8,3:0:0:0:
302,25,199467,5,8,3:0:0:0:
431,147,199782,1,8,3:0:0:0:
496,62,200098,1,8,3:0:0:0:
394,131,200256,2,0,P|354:137|319:118,1,68.2499968757631,6|0,3:0|3:0,0:0:0:0:
293,99,200572,1,8,3:0:0:0:
216,150,200730,1,0,3:0:0:0:
69,57,201046,1,4,3:0:0:0:
4,100,201203,1,4,3:0:0:0:
73,134,201361,5,4,1:3:0:0:
73,134,201519,1,8,1:0:0:0:
190,76,201677,1,8,1:0:0:0:
287,134,201835,1,8,3:1:0:0:
366,102,201993,1,8,3:1:0:0:
512,317,202151,5,4,1:0:0:0:
397,226,202309,1,0,0:0:0:0:
370,360,202467,1,0,3:0:0:0:
370,360,202624,1,8,3:0:0:0:
423,302,202782,5,8,1:0:0:0:
297,187,202940,1,0,3:0:0:0:
244,318,203098,1,4,3:0:0:0:
321,268,203256,1,0,0:0:0:0:
297,187,203414,2,0,P|288:127|290:74,1,105.000004005432,2|0,3:0|0:3,0:0:0:0:
311,11,203888,1,10,0:3:0:0:
227,245,204046,5,8,1:2:0:0:
227,245,204361,1,6,3:0:0:0:
86,153,204519,1,8,3:1:0:0:
209,167,204677,1,12,3:3:0:0:
209,167,204835,1,0,0:0:0:0:
86,268,204993,1,8,3:0:0:0:
160,296,205309,5,8,1:0:0:0:
146,105,205467,1,0,3:0:0:0:
73,188,205624,1,12,3:0:0:0:
254,220,205782,2,0,P|308:219|346:174,1,105.000004005432,8|12,3:1|3:3,0:0:0:0:
375,117,206256,1,0,0:3:0:0:
375,117,206414,1,10,0:3:0:0:
176,296,206572,5,8,1:2:0:0:
162,105,206730,1,8,3:1:0:0:
89,188,206887,1,6,1:2:0:0:
268,228,207046,2,0,P|322:227|360:182,1,105.000004005432,8|4,3:1|3:0,0:0:0:0:
371,119,207519,1,0,3:0:0:0:
441,106,207677,1,8,3:0:0:0:
492,267,207835,1,8,1:0:0:0:
408,346,207993,1,0,3:0:0:0:
319,304,208151,1,4,3:0:0:0:
248,282,208309,1,0,0:0:0:0:
184,322,208467,2,0,P|163:302|160:271,1,52.5000020027161,2|8,3:0|0:3,0:0:0:0:
215,154,208782,2,0,P|171:166|161:176,1,52.5000020027161,0|10,0:3|0:3,0:0:0:0:
35,355,209098,5,8,1:2:0:0:
35,355,209414,1,6,3:0:0:0:
73,248,209572,1,8,3:1:0:0:
33,145,209730,2,0,P|40:88|44:36,1,105.000004005432,12|8,3:3|3:0,0:0:0:0:
111,9,210203,1,8,3:0:0:0:
179,275,210361,2,0,P|209:275|231:243,1,52.5000020027161,8|0,1:0|3:0,0:0:0:0:
50,255,210677,1,12,3:0:0:0:
122,355,210835,1,2,3:0:0:0:
129,215,210993,5,2,3:0:0:0:
234,145,211151,1,12,3:3:0:0:
279,20,211309,5,0,0:3:0:0:
384,90,211467,1,10,0:3:0:0:
488,246,211624,5,8,1:2:0:0:
512,176,211782,1,8,3:1:0:0:
436,149,211940,1,8,1:0:0:0:
412,219,212098,1,8,3:1:0:0:
296,333,212256,5,4,1:0:0:0:
140,252,212414,1,2,3:0:0:0:
222,282,212572,1,0,3:0:0:0:
222,282,212730,1,8,3:0:0:0:
421,310,212888,6,0,P|460:298|467:281,1,52.5000020027161,8|0,1:0|3:0,0:0:0:0:
342,272,213203,1,4,3:0:0:0:
345,198,213361,1,0,0:0:0:0:
428,153,213519,2,0,P|453:154|471:172,1,52.5000020027161,2|8,3:0|0:3,0:0:0:0:
510,236,213835,1,0,0:3:0:0:
510,236,213993,1,10,0:3:0:0:
291,363,214151,1,8,1:2:0:0:
291,363,214467,1,6,3:0:0:0:
234,309,214624,1,8,3:1:0:0:
325,214,214782,5,12,3:3:0:0:
252,239,214940,1,0,0:0:0:0:
369,341,215098,1,8,3:0:0:0:
401,111,215414,2,0,P|408:74|409:55,1,52.5000020027161,8|0,1:0|3:0,0:0:0:0:
485,57,215730,1,12,3:0:0:0:
283,24,215888,2,0,P|276:83|273:136,1,105.000004005432,4|12,3:0|3:3,0:0:0:0:
248,201,216361,2,0,L|196:182,1,52.5000020027161,0|10,3:3|0:3,0:0:0:0:
3,105,216677,1,8,1:2:0:0:
3,105,216993,5,6,1:2:0:0:
87,34,217151,1,8,3:1:0:0:
34,154,217309,2,0,P|32:193|34:217,1,52.5000020027161,4|4,1:2|3:0,0:0:0:0:
13,32,217624,1,0,3:0:0:0:
110,113,217782,1,8,3:0:0:0:
335,8,217940,2,0,P|333:47|335:71,1,52.5000020027161,8|0,1:0|3:0,0:0:0:0:
373,123,218256,1,4,3:0:0:0:
301,123,218414,1,0,0:0:0:0:
451,196,218572,2,0,P|450:258|454:300,1,105.000004005432,2|4,3:0|1:2,0:0:0:0:
382,306,219046,1,10,0:3:0:0:
373,123,219203,2,0,P|369:167|364:187,1,52.5000020027161,12|8,1:2|3:1,0:0:0:0:
335,44,219519,1,6,3:0:0:0:
437,66,219677,1,8,3:1:0:0:
241,98,219835,5,12,3:3:0:0:
241,98,220151,1,8,3:0:0:0:
236,179,220309,1,8,3:0:0:0:
395,238,220467,2,0,P|370:245|351:268,1,52.5000020027161,8|0,1:0|3:0,0:0:0:0:
495,223,220782,1,12,3:0:0:0:
495,223,220940,1,2,3:0:0:0:
444,148,221098,5,2,3:0:0:0:
455,14,221256,1,12,3:3:0:0:
250,202,221414,5,4,1:2:0:0:
261,68,221572,1,8,3:3:0:0:
14,157,221730,5,8,1:2:0:0:
22,152,221888,1,8,3:0:0:0:
30,147,222046,1,4,1:2:0:0:
39,140,222203,1,0,3:1:0:0:
238,219,222361,5,4,1:0:0:0:
177,269,222519,1,2,3:0:0:0:
101,260,222677,1,0,3:0:0:0:
177,269,222993,1,8,1:0:0:0:
101,260,223151,1,0,3:0:0:0:
46,207,223309,1,4,3:0:0:0:
37,132,223467,1,0,0:0:0:0:
78,67,223624,1,2,3:0:0:0:
78,67,223940,1,0,0:3:0:0:
37,132,224098,1,10,0:3:0:0:
258,202,224256,2,0,P|290:193|363:188,1,105.000004005432,8|6,1:2|3:0,0:0:0:0:
433,204,224730,1,8,3:1:0:0:
278,91,224888,5,12,3:3:0:0:
199,91,225046,1,8,3:0:0:0:
146,147,225204,1,8,3:0:0:0:
199,91,225520,1,8,1:0:0:0:
146,147,225678,1,0,3:0:0:0:
138,223,225836,1,12,3:0:0:0:
179,286,225994,1,0,0:0:0:0:
253,310,226151,2,0,P|286:300|358:297,1,105.000004005432,2|0,3:0|0:3,0:0:0:0:
426,328,226624,1,10,0:3:0:0:
161,146,226782,2,0,P|134:152|88:156,1,52.5000020027161,8|8,1:2|3:1,0:0:0:0:
39,167,227098,1,6,1:2:0:0:
253,310,227256,6,0,P|286:300|358:297,1,105.000004005432,8|4,3:1|3:0,0:0:0:0:
431,261,227730,1,0,3:0:0:0:
415,345,227888,1,8,3:0:0:0:
505,163,228046,5,8,1:0:0:0:
415,85,228203,1,0,3:0:0:0:
329,92,228361,1,4,3:0:0:0:
288,163,228519,1,0,0:0:0:0:
231,205,228677,2,0,P|197:203|178:178,1,52.5000020027161,2|8,3:0|0:3,0:0:0:0:
163,120,228993,1,0,0:3:0:0:
163,120,229151,1,10,0:3:0:0:
98,361,229309,2,0,P|101:321|100:239,1,105.000004005432,8|6,1:2|3:0,0:0:0:0:
29,234,229782,1,8,3:1:0:0:
33,73,229940,6,0,L|29:19,1,52.5000020027161,12|0,3:3|0:0,0:0:0:0:
80,135,230256,1,8,3:0:0:0:
138,84,230414,1,8,3:0:0:0:
306,208,230572,2,0,L|335:157,1,52.5000020027161,8|0,1:0|3:0,0:0:0:0:
229,205,230888,1,12,3:0:0:0:
214,131,231046,1,2,3:0:0:0:
283,103,231203,1,2,3:0:0:0:
331,162,231361,1,12,3:3:0:0:
265,270,231519,1,0,0:3:0:0:
133,233,231677,1,10,0:3:0:0:
0,108,231835,5,8,1:2:0:0:
66,0,231993,1,8,3:1:0:0:
198,37,232151,1,8,1:0:0:0:
155,101,232309,1,8,3:1:0:0:
84,77,232467,5,4,1:0:0:0:
192,167,232624,1,0,0:0:0:0:
297,90,232782,1,0,3:0:0:0:
512,349,233098,1,8,1:0:0:0:
404,259,233255,1,0,3:0:0:0:
299,336,233413,1,4,3:0:0:0:
237,290,233572,1,0,0:0:0:0:
185,350,233730,2,0,P|164:320|168:243,1,105.000004005432,2|0,3:0|0:3,0:0:0:0:
188,180,234203,1,10,0:3:0:0:
64,11,234361,2,0,P|61:43|50:67,1,52.5000020027161,8|8,1:2|3:1,0:0:0:0:
7,119,234677,1,6,3:0:0:0:
7,119,234835,1,8,3:1:0:0:
216,43,234993,5,12,3:3:0:0:
127,108,235151,1,0,0:0:0:0:
188,199,235309,1,8,3:0:0:0:
419,71,235624,1,8,1:0:0:0:
508,136,235782,1,0,3:0:0:0:
447,227,235940,1,12,3:0:0:0:
355,166,236098,2,0,P|321:168|266:227,1,105.000004005432,6|12,3:0|3:3,0:0:0:0:
262,291,236572,1,0,0:3:0:0:
336,327,236730,1,10,0:3:0:0:
464,18,236888,5,8,1:2:0:0:
464,18,237203,1,6,1:2:0:0:
512,77,237361,1,8,3:1:0:0:
442,92,237519,2,0,P|418:89|381:88,1,52.5000020027161,4|4,1:2|3:0,0:0:0:0:
401,228,237835,1,0,3:0:0:0:
449,287,237993,1,8,3:0:0:0:
379,302,238151,2,0,P|355:299|318:298,1,52.5000020027161,8|0,1:0|3:0,0:0:0:0:
251,101,238467,1,4,3:0:0:0:
299,160,238625,1,0,0:0:0:0:
229,175,238783,2,0,P|205:172|168:171,1,52.5000020027161,2|8,3:0|0:3,0:0:0:0:
202,249,239098,2,0,P|178:246|141:245,1,52.5000020027161,4|10,1:2|0:3,0:0:0:0:
35,26,239414,2,0,P|37:72|37:147,1,105.000004005432,12|6,1:2|3:0,0:0:0:0:
37,130,239888,1,8,3:1:0:0:
32,303,240046,6,0,P|34:273|33:238,1,52.5000020027161,12|0,3:3|0:0,0:0:0:0:
95,347,240361,1,8,3:0:0:0:
163,314,240519,1,8,3:0:0:0:
242,132,240677,1,8,1:0:0:0:
302,67,240835,1,0,3:0:0:0:
380,109,240993,1,12,3:0:0:0:
445,50,241151,1,2,3:0:0:0:
242,132,241309,5,2,3:0:0:0:
282,201,241467,1,12,3:3:0:0:
358,191,241624,1,4,1:2:0:0:
494,106,241782,5,8,3:3:0:0:
299,28,241940,1,8,1:2:0:0:
406,2,242098,1,8,3:0:0:0:
358,191,242256,1,4,1:2:0:0:
435,207,242414,1,0,3:1:0:0:
285,273,242572,5,4,1:2:0:0:
147,169,242730,1,2,3:0:0:0:
304,103,242888,1,4,3:0:0:0:
463,363,243203,6,0,P|437:358|424:334,1,52.5000020027161,8|4,1:1|3:0,0:0:0:0:
220,88,243519,1,0,1:0:0:0:
196,260,243677,2,0,P|169:295|92:302,1,105.000004005432,0|2,3:0|3:0,0:0:0:0:
233,179,244151,1,2,3:0:0:0:
233,179,244309,1,8,3:0:0:0:
276,17,244467,2,0,P|291:47|325:65,1,52.5000020027161,8|0,1:2|0:0,0:0:0:0:
376,80,244782,1,0,3:0:0:0:
436,36,244940,1,0,0:0:0:0:
202,106,245098,5,4,3:3:0:0:
291,257,245256,1,2,3:0:0:0:
333,171,245414,1,4,3:0:0:0:
94,206,245730,2,0,P|121:207|163:186,1,52.5000020027161,8|4,1:1|3:0,0:0:0:0:
288,93,246046,1,0,1:0:0:0:
318,270,246203,2,0,P|346:309|407:326,1,105.000004005432,0|2,3:0|3:0,0:0:0:0:
251,184,246677,1,2,3:0:0:0:
251,184,246835,1,8,3:0:0:0:
441,82,246993,2,0,P|428:117|396:122,1,52.5000020027161,8|2,1:2|3:0,0:0:0:0:
451,5,247309,1,8,1:3:0:0:
512,57,247467,1,4,1:3:0:0:
341,211,247624,5,4,1:3:0:0:
251,184,247782,1,2,3:0:0:0:
238,96,247940,1,4,3:0:0:0:
23,253,248256,2,0,L|80:232,1,52.5000020027161,8|4,1:1|3:0,0:0:0:0:
238,96,248572,1,0,1:0:0:0:
311,125,248730,2,0,P|320:175|338:240,1,105.000004005432,0|6,3:0|3:0,0:0:0:0:
411,242,249203,1,2,3:0:0:0:
468,190,249361,1,8,3:0:0:0:
180,246,249519,2,0,P|174:282|166:300,1,52.5000020027161,8|10,1:2|3:0,0:0:0:0:
108,336,249835,1,0,3:0:0:0:
42,308,249993,1,6,3:0:0:0:
210,72,250151,5,4,3:3:0:0:
339,135,250309,1,6,3:0:0:0:
286,68,250467,1,4,3:0:0:0:
237,371,250782,2,0,P|241:346|250:313,1,52.5000020027161,8|4,1:1|3:0,0:0:0:0:
317,354,251098,1,0,1:0:0:0:
179,247,251256,2,0,P|175:272|166:305,1,52.5000020027161,0|4,3:0|1:3,0:0:0:0:
28,172,251572,5,8,3:0:0:0:
110,117,251730,1,2,1:3:0:0:
327,127,251888,5,8,3:0:0:0:
184,45,252046,1,8,1:2:0:0:
254,22,252203,1,4,3:3:0:0:
192,171,252361,1,8,1:3:0:0:
254,22,252519,1,4,1:3:0:0:
285,245,252677,5,4,1:2:0:0:
356,283,252835,1,2,3:0:0:0:
426,249,252993,1,4,3:0:0:0:
76,137,253309,1,8,1:1:0:0:
146,103,253467,1,4,3:0:0:0:
217,141,253625,1,0,1:0:0:0:
292,156,253782,2,0,P|291:102|280:20,1,105.000004005432,2|2,3:0|3:0,0:0:0:0:
355,15,254256,1,2,3:0:0:0:
364,87,254414,1,8,3:0:0:0:
147,201,254572,1,8,1:2:0:0:
147,201,254888,1,0,3:0:0:0:
160,279,255046,1,8,3:0:0:0:
366,160,255203,5,4,3:3:0:0:
355,15,255361,1,2,3:0:0:0:
364,87,255519,1,4,3:0:0:0:
447,353,255835,2,0,P|441:313|440:272,1,52.5000020027161,8|4,1:1|3:0,0:0:0:0:
436,227,256151,1,0,1:0:0:0:
373,274,256309,2,0,P|297:279|240:292,1,105.000004005432,2|2,3:0|3:0,0:0:0:0:
268,284,256940,1,10,3:0:0:0:
242,19,257098,2,0,P|248:59|249:100,1,52.5000020027161,8|2,1:2|3:0,0:0:0:0:
316,10,257414,1,8,1:3:0:0:
316,10,257572,1,4,1:3:0:0:
174,132,257730,5,4,1:3:0:0:
319,246,257888,1,2,3:0:0:0:
174,132,258046,1,4,3:0:0:0:
431,191,258361,5,8,1:1:0:0:
362,177,258519,1,4,3:0:0:0:
162,207,258677,1,0,1:0:0:0:
93,221,258835,2,0,P|80:158|79:99,1,105.000004005432,2|6,3:0|3:0,0:0:0:0:
108,50,259309,1,2,3:0:0:0:
34,58,259467,1,8,3:0:0:0:
304,85,259624,2,0,P|300:42|296:20,1,52.5000020027161,8|10,1:2|3:0,0:0:0:0:
231,14,259940,1,0,3:0:0:0:
231,14,260098,1,6,3:0:0:0:
254,298,260256,6,0,P|322:291|387:297,1,105.000004005432,4|4,3:3|3:0,0:0:0:0:
52,189,260888,2,0,P|88:187|114:176,1,52.5000020027161,8|4,1:1|3:0,0:0:0:0:
206,133,261203,1,0,1:0:0:0:
316,181,261361,2,0,P|322:120|320:90,1,52.5000020027161,0|4,3:0|1:3,0:0:0:0:
317,57,261677,5,8,3:0:0:0:
388,20,261835,5,2,1:3:0:0:
482,57,261993,5,8,3:0:0:0:
487,196,262151,5,8,1:2:0:0:
360,295,262309,5,4,3:3:0:0:
246,238,262467,5,8,1:3:0:0:
245,161,262624,5,4,1:3:0:0:
