osu file format v14

[General]
AudioFilename: 08 - .mp3
AudioLeadIn: 0
PreviewTime: 20510
Countdown: 1
SampleSet: None
StackLeniency: 0.7
Mode: 1
LetterboxInBreaks: 1
WidescreenStoryboard: 0

[Editor]
DistanceSpacing: 1.2
BeatDivisor: 4
GridSize: 32
TimelineZoom: 3.999998

[Metadata]
Title:Louise
TitleUnicode:ルイズ
Artist:Mitsumune Shinkichi
ArtistUnicode:光宗信吉
Creator:TKS
Version:Oni
Source:ゼロの使い魔
Tags:zero no tsukaima
BeatmapID:2420946
BeatmapSetID:1160315

[Difficulty]
HPDrainRate:6
CircleSize:5
OverallDifficulty:6.5
ApproachRate:5
SliderMultiplier:1.4
SliderTickRate:1

[Events]
//Background and Video events
0,0,"img_0.jpg",0,80
//Break Periods
//Storyboard Layer 0 (Background)
//Storyboard Layer 1 (Fail)
//Storyboard Layer 2 (Pass)
//Storyboard Layer 3 (Foreground)
//Storyboard Layer 4 (Overlay)
//Storyboard Sound Samples

[TimingPoints]
5210,240,4,1,0,50,1,0
5210,-125,4,1,0,50,0,0
20510,-100,4,1,0,85,0,0
112730,-111.111111111111,4,1,0,85,0,0

[HitObjects]
256,192,5210,5,0,0:0:0:0:
256,192,5450,1,0,0:0:0:0:
256,192,5690,1,8,0:0:0:0:
256,192,5930,1,0,0:0:0:0:
256,192,6050,1,8,0:0:0:0:
256,192,6290,1,0,0:0:0:0:
256,192,6410,1,0,0:0:0:0:
256,192,6650,1,8,0:0:0:0:
256,192,6890,1,0,0:0:0:0:
256,192,7010,1,8,0:0:0:0:
256,192,7130,1,0,0:0:0:0:
256,192,7370,1,0,0:0:0:0:
256,192,7610,1,8,0:0:0:0:
256,192,7850,1,8,0:0:0:0:
256,192,7970,1,8,0:0:0:0:
256,192,8210,1,0,0:0:0:0:
256,192,8330,1,0,0:0:0:0:
256,192,8570,1,8,0:0:0:0:
256,192,8690,1,0,0:0:0:0:
256,192,8810,1,8,0:0:0:0:
256,192,8930,1,8,0:0:0:0:
256,192,9050,1,0,0:0:0:0:
256,192,9290,1,0,0:0:0:0:
256,192,9530,1,8,0:0:0:0:
256,192,9770,1,0,0:0:0:0:
256,192,9890,1,8,0:0:0:0:
256,192,10130,1,0,0:0:0:0:
256,192,10250,1,0,0:0:0:0:
256,192,10490,1,8,0:0:0:0:
256,192,10730,1,0,0:0:0:0:
256,192,10850,1,8,0:0:0:0:
256,192,10970,1,0,0:0:0:0:
256,192,11210,1,0,0:0:0:0:
256,192,11450,1,8,0:0:0:0:
256,192,11690,1,8,0:0:0:0:
256,192,11810,1,8,0:0:0:0:
256,192,11930,1,0,0:0:0:0:
256,192,12050,1,0,0:0:0:0:
256,192,12290,1,0,0:0:0:0:
256,192,12410,1,8,0:0:0:0:
256,192,12530,1,0,0:0:0:0:
256,192,12650,1,8,0:0:0:0:
256,192,12770,1,8,0:0:0:0:
256,192,12890,1,4,0:0:0:0:
256,192,13130,1,0,0:0:0:0:
256,192,13370,1,8,0:0:0:0:
256,192,13490,1,0,0:0:0:0:
256,192,13610,1,0,0:0:0:0:
256,192,13730,1,8,0:0:0:0:
256,192,13970,1,0,0:0:0:0:
256,192,14090,1,0,0:0:0:0:
256,192,14330,1,8,0:0:0:0:
256,192,14570,1,0,0:0:0:0:
256,192,14690,1,8,0:0:0:0:
256,192,14810,1,0,0:0:0:0:
256,192,14930,1,0,0:0:0:0:
256,192,15050,1,0,0:0:0:0:
256,192,15290,1,8,0:0:0:0:
256,192,15410,1,0,0:0:0:0:
256,192,15530,1,8,0:0:0:0:
256,192,15650,1,8,0:0:0:0:
256,192,15890,1,0,0:0:0:0:
256,192,16010,1,0,0:0:0:0:
256,192,16250,1,8,0:0:0:0:
256,192,16370,1,0,0:0:0:0:
256,192,16490,1,8,0:0:0:0:
256,192,16610,1,8,0:0:0:0:
256,192,16730,1,0,0:0:0:0:
256,192,16970,1,0,0:0:0:0:
256,192,17210,1,8,0:0:0:0:
256,192,17330,1,0,0:0:0:0:
256,192,17450,1,0,0:0:0:0:
256,192,17570,1,8,0:0:0:0:
256,192,17810,1,0,0:0:0:0:
256,192,17930,1,0,0:0:0:0:
256,192,18170,1,8,0:0:0:0:
256,192,18410,1,0,0:0:0:0:
256,192,18530,1,8,0:0:0:0:
256,192,18650,1,0,0:0:0:0:
256,192,18770,1,0,0:0:0:0:
256,192,18890,1,0,0:0:0:0:
256,192,19130,1,8,0:0:0:0:
256,192,19370,1,8,0:0:0:0:
256,192,19490,1,8,0:0:0:0:
256,192,19610,12,0,20450,0:0:0:0:
256,192,20570,5,12,0:0:0:0:
256,192,20690,1,0,0:0:0:0:
256,192,20750,1,0,0:0:0:0:
256,192,20810,1,8,0:0:0:0:
256,192,20930,1,0,0:0:0:0:
256,192,21050,1,8,0:0:0:0:
256,192,21170,1,0,0:0:0:0:
256,192,21290,1,0,0:0:0:0:
256,192,21410,1,8,0:0:0:0:
256,192,21530,1,0,0:0:0:0:
256,192,21590,1,0,0:0:0:0:
256,192,21650,1,0,0:0:0:0:
256,192,21770,1,8,0:0:0:0:
256,192,21890,1,8,0:0:0:0:
256,192,22010,1,0,0:0:0:0:
256,192,22250,1,8,0:0:0:0:
256,192,22490,1,8,0:0:0:0:
256,192,22610,1,0,0:0:0:0:
256,192,22670,1,0,0:0:0:0:
256,192,22730,1,8,0:0:0:0:
256,192,22850,1,8,0:0:0:0:
256,192,22970,1,0,0:0:0:0:
256,192,23030,1,0,0:0:0:0:
256,192,23090,1,0,0:0:0:0:
256,192,23210,1,8,0:0:0:0:
256,192,23330,1,0,0:0:0:0:
256,192,23450,1,8,0:0:0:0:
256,192,23570,1,8,0:0:0:0:
256,192,23690,1,0,0:0:0:0:
256,192,23810,1,8,0:0:0:0:
256,192,23930,1,0,0:0:0:0:
256,192,24170,1,8,0:0:0:0:
256,192,24410,1,0,0:0:0:0:
256,192,24530,1,0,0:0:0:0:
256,192,24650,1,8,0:0:0:0:
256,192,24710,1,8,0:0:0:0:
256,192,24770,1,0,0:0:0:0:
256,192,24890,1,8,0:0:0:0:
256,192,25010,1,0,0:0:0:0:
256,192,25130,1,8,0:0:0:0:
256,192,25250,1,8,0:0:0:0:
256,192,25370,1,0,0:0:0:0:
256,192,25430,1,0,0:0:0:0:
256,192,25490,1,0,0:0:0:0:
256,192,25610,1,8,0:0:0:0:
256,192,25730,1,0,0:0:0:0:
256,192,25850,1,0,0:0:0:0:
256,192,26090,1,8,0:0:0:0:
256,192,26330,1,4,0:0:0:0:
256,192,26450,1,8,0:0:0:0:
256,192,26510,1,8,0:0:0:0:
256,192,26570,1,8,0:0:0:0:
256,192,26690,1,0,0:0:0:0:
256,192,26810,1,12,0:0:0:0:
256,192,26930,1,0,0:0:0:0:
256,192,26990,1,0,0:0:0:0:
256,192,27050,1,0,0:0:0:0:
256,192,27170,1,8,0:0:0:0:
256,192,27290,1,8,0:0:0:0:
256,192,27350,1,8,0:0:0:0:
256,192,27410,1,8,0:0:0:0:
256,192,27470,1,8,0:0:0:0:
256,192,27530,1,0,0:0:0:0:
256,192,27650,1,0,0:0:0:0:
256,192,27770,1,8,0:0:0:0:
256,192,27890,1,0,0:0:0:0:
256,192,28010,1,8,0:0:0:0:
256,192,28250,1,12,0:0:0:0:
256,192,28370,1,0,0:0:0:0:
256,192,28430,1,0,0:0:0:0:
256,192,28490,1,8,0:0:0:0:
256,192,28610,1,8,0:0:0:0:
256,192,28730,1,8,0:0:0:0:
256,192,28850,1,0,0:0:0:0:
256,192,28970,1,0,0:0:0:0:
256,192,29090,1,8,0:0:0:0:
256,192,29210,1,0,0:0:0:0:
256,192,29270,1,0,0:0:0:0:
256,192,29330,1,0,0:0:0:0:
256,192,29450,1,8,0:0:0:0:
256,192,29570,1,8,0:0:0:0:
256,192,29690,1,0,0:0:0:0:
256,192,29930,1,8,0:0:0:0:
256,192,30170,1,8,0:0:0:0:
256,192,30290,1,0,0:0:0:0:
256,192,30350,1,0,0:0:0:0:
256,192,30410,1,8,0:0:0:0:
256,192,30530,1,8,0:0:0:0:
256,192,30650,1,0,0:0:0:0:
256,192,30710,1,0,0:0:0:0:
256,192,30770,1,0,0:0:0:0:
256,192,30890,1,8,0:0:0:0:
256,192,31010,1,0,0:0:0:0:
256,192,31130,1,8,0:0:0:0:
256,192,31250,1,8,0:0:0:0:
256,192,31370,1,0,0:0:0:0:
256,192,31490,1,8,0:0:0:0:
256,192,31610,1,0,0:0:0:0:
256,192,31850,1,8,0:0:0:0:
256,192,32090,1,0,0:0:0:0:
256,192,32210,1,0,0:0:0:0:
256,192,32330,1,8,0:0:0:0:
256,192,32390,1,8,0:0:0:0:
256,192,32450,1,0,0:0:0:0:
256,192,32570,1,8,0:0:0:0:
256,192,32690,1,0,0:0:0:0:
256,192,32810,1,8,0:0:0:0:
256,192,32930,1,8,0:0:0:0:
256,192,33050,1,0,0:0:0:0:
256,192,33110,1,0,0:0:0:0:
256,192,33170,1,0,0:0:0:0:
256,192,33290,1,8,0:0:0:0:
256,192,33410,1,0,0:0:0:0:
256,192,33530,1,0,0:0:0:0:
256,192,33770,1,8,0:0:0:0:
256,192,34010,1,12,0:0:0:0:
256,192,34130,1,0,0:0:0:0:
256,192,34190,1,0,0:0:0:0:
256,192,34250,1,0,0:0:0:0:
256,192,34370,1,8,0:0:0:0:
256,192,34490,1,4,0:0:0:0:
256,192,34610,1,8,0:0:0:0:
256,192,34670,1,8,0:0:0:0:
256,192,34730,1,8,0:0:0:0:
256,192,34850,1,0,0:0:0:0:
256,192,34970,1,0,0:0:0:0:
256,192,35030,1,0,0:0:0:0:
256,192,35090,1,8,0:0:0:0:
256,192,35150,1,0,0:0:0:0:
256,192,35210,1,8,0:0:0:0:
256,192,35330,1,8,0:0:0:0:
256,192,35450,1,0,0:0:0:0:
256,192,35570,1,0,0:0:0:0:
256,192,35690,1,8,0:0:0:0:
256,192,35930,1,0,0:0:0:0:
256,192,36050,1,0,0:0:0:0:
256,192,36170,1,8,0:0:0:0:
256,192,36290,1,0,0:0:0:0:
256,192,36410,1,12,0:0:0:0:
256,192,36650,1,0,0:0:0:0:
256,192,36770,1,8,0:0:0:0:
256,192,36890,1,0,0:0:0:0:
256,192,37010,1,0,0:0:0:0:
256,192,37130,1,8,0:0:0:0:
256,192,37250,1,0,0:0:0:0:
256,192,37370,1,12,0:0:0:0:
256,192,37610,1,8,0:0:0:0:
256,192,37730,1,8,0:0:0:0:
256,192,37850,1,0,0:0:0:0:
256,192,37910,1,0,0:0:0:0:
256,192,37970,1,0,0:0:0:0:
256,192,38090,1,8,0:0:0:0:
256,192,38210,1,0,0:0:0:0:
256,192,38330,1,12,0:0:0:0:
256,192,38570,1,0,0:0:0:0:
256,192,38690,1,0,0:0:0:0:
256,192,38810,1,8,0:0:0:0:
256,192,38870,1,8,0:0:0:0:
256,192,38930,1,8,0:0:0:0:
256,192,39050,1,8,0:0:0:0:
256,192,39170,1,0,0:0:0:0:
256,192,39290,1,12,0:0:0:0:
256,192,39530,1,0,0:0:0:0:
256,192,39770,1,8,0:0:0:0:
256,192,39890,1,0,0:0:0:0:
256,192,39950,1,0,0:0:0:0:
256,192,40010,1,8,0:0:0:0:
256,192,40130,1,0,0:0:0:0:
256,192,40250,1,12,0:0:0:0:
256,192,40370,1,0,0:0:0:0:
256,192,40490,1,8,0:0:0:0:
256,192,40610,1,8,0:0:0:0:
256,192,40730,1,0,0:0:0:0:
256,192,40790,1,0,0:0:0:0:
256,192,40850,1,0,0:0:0:0:
256,192,40970,1,8,0:0:0:0:
256,192,41090,1,0,0:0:0:0:
256,192,41210,1,12,0:0:0:0:
256,192,41450,1,8,0:0:0:0:
256,192,41570,1,8,0:0:0:0:
256,192,41690,1,0,0:0:0:0:
256,192,41810,1,0,0:0:0:0:
256,192,41930,1,8,0:0:0:0:
256,192,42050,1,0,0:0:0:0:
256,192,42170,1,12,0:0:0:0:
256,192,42410,1,0,0:0:0:0:
256,192,42530,1,8,0:0:0:0:
256,192,42650,1,8,0:0:0:0:
256,192,42710,1,8,0:0:0:0:
256,192,42770,1,0,0:0:0:0:
256,192,42890,1,0,0:0:0:0:
256,192,43010,1,0,0:0:0:0:
256,192,43130,1,12,0:0:0:0:
256,192,43610,1,0,0:0:0:0:
256,192,43730,1,0,0:0:0:0:
256,192,43850,1,8,0:0:0:0:
256,192,43970,1,0,0:0:0:0:
256,192,44090,1,12,0:0:0:0:
256,192,44330,1,0,0:0:0:0:
256,192,44450,1,8,0:0:0:0:
256,192,44570,1,0,0:0:0:0:
256,192,44690,1,0,0:0:0:0:
256,192,44810,1,8,0:0:0:0:
256,192,44930,1,0,0:0:0:0:
256,192,45050,1,12,0:0:0:0:
256,192,45290,1,0,0:0:0:0:
256,192,45410,1,0,0:0:0:0:
256,192,45530,1,8,0:0:0:0:
256,192,45590,1,8,0:0:0:0:
256,192,45650,1,8,0:0:0:0:
256,192,45770,1,8,0:0:0:0:
256,192,45890,1,0,0:0:0:0:
256,192,46010,1,12,0:0:0:0:
256,192,46250,1,8,0:0:0:0:
256,192,46370,1,8,0:0:0:0:
256,192,46490,1,0,0:0:0:0:
256,192,46550,1,0,0:0:0:0:
256,192,46610,1,0,0:0:0:0:
256,192,46730,1,8,0:0:0:0:
256,192,46850,1,0,0:0:0:0:
256,192,46970,1,12,0:0:0:0:
256,192,47210,1,0,0:0:0:0:
256,192,47450,1,8,0:0:0:0:
256,192,47570,1,0,0:0:0:0:
256,192,47690,1,8,0:0:0:0:
256,192,47750,1,8,0:0:0:0:
256,192,47810,1,0,0:0:0:0:
256,192,47930,1,12,0:0:0:0:
256,192,48050,1,0,0:0:0:0:
256,192,48170,1,8,0:0:0:0:
256,192,48290,1,8,0:0:0:0:
256,192,48410,1,0,0:0:0:0:
256,192,48470,1,0,0:0:0:0:
256,192,48530,1,0,0:0:0:0:
256,192,48650,1,8,0:0:0:0:
256,192,48770,1,0,0:0:0:0:
256,192,48890,1,12,0:0:0:0:
256,192,49130,1,8,0:0:0:0:
256,192,49250,1,8,0:0:0:0:
256,192,49370,1,0,0:0:0:0:
256,192,49490,1,0,0:0:0:0:
256,192,49610,1,8,0:0:0:0:
256,192,49730,1,0,0:0:0:0:
256,192,49850,1,12,0:0:0:0:
256,192,50090,1,0,0:0:0:0:
256,192,50210,1,8,0:0:0:0:
256,192,50330,1,8,0:0:0:0:
256,192,50390,1,8,0:0:0:0:
256,192,50450,1,0,0:0:0:0:
256,192,50570,1,0,0:0:0:0:
256,192,50690,1,0,0:0:0:0:
256,192,50810,1,12,0:0:0:0:
256,192,51290,1,0,0:0:0:0:
256,192,51530,1,0,0:0:0:0:
256,192,51650,1,0,0:0:0:0:
256,192,51770,1,8,0:0:0:0:
256,192,51890,1,0,0:0:0:0:
256,192,52130,1,8,0:0:0:0:
256,192,52250,1,0,0:0:0:0:
256,192,52490,1,0,0:0:0:0:
256,192,52610,1,8,0:0:0:0:
256,192,52730,1,0,0:0:0:0:
256,192,52850,1,0,0:0:0:0:
256,192,52970,1,8,0:0:0:0:
256,192,53210,1,0,0:0:0:0:
256,192,53450,1,0,0:0:0:0:
256,192,53570,1,0,0:0:0:0:
256,192,53690,1,8,0:0:0:0:
256,192,53930,1,8,0:0:0:0:
256,192,54170,1,0,0:0:0:0:
256,192,54290,1,0,0:0:0:0:
256,192,54410,1,0,0:0:0:0:
256,192,54650,1,8,0:0:0:0:
256,192,54770,1,0,0:0:0:0:
256,192,54890,1,8,0:0:0:0:
256,192,55010,1,8,0:0:0:0:
256,192,55130,1,0,0:0:0:0:
256,192,55490,1,0,0:0:0:0:
256,192,55610,1,8,0:0:0:0:
256,192,55670,1,0,0:0:0:0:
256,192,55730,1,8,0:0:0:0:
256,192,55850,1,0,0:0:0:0:
256,192,55970,1,8,0:0:0:0:
256,192,56090,1,0,0:0:0:0:
256,192,56210,1,8,0:0:0:0:
256,192,56270,1,8,0:0:0:0:
256,192,56330,1,8,0:0:0:0:
256,192,56450,1,0,0:0:0:0:
256,192,56570,1,8,0:0:0:0:
256,192,56690,1,8,0:0:0:0:
256,192,56750,1,8,0:0:0:0:
256,192,56810,1,0,0:0:0:0:
256,192,56930,1,0,0:0:0:0:
256,192,57050,1,8,0:0:0:0:
256,192,57290,1,0,0:0:0:0:
256,192,57410,1,0,0:0:0:0:
256,192,57530,1,8,0:0:0:0:
256,192,57770,1,8,0:0:0:0:
256,192,58010,1,0,0:0:0:0:
256,192,58130,1,0,0:0:0:0:
256,192,58250,1,8,0:0:0:0:
256,192,58370,1,0,0:0:0:0:
256,192,58490,1,8,0:0:0:0:
256,192,58610,1,8,0:0:0:0:
256,192,58730,1,0,0:0:0:0:
256,192,58850,1,8,0:0:0:0:
256,192,58970,1,4,0:0:0:0:
256,192,59210,1,0,0:0:0:0:
256,192,59450,1,8,0:0:0:0:
256,192,59570,1,0,0:0:0:0:
256,192,59690,1,0,0:0:0:0:
256,192,59810,1,8,0:0:0:0:
256,192,60050,1,0,0:0:0:0:
256,192,60170,1,8,0:0:0:0:
256,192,60410,1,0,0:0:0:0:
256,192,60530,1,8,0:0:0:0:
256,192,60650,1,0,0:0:0:0:
256,192,60770,1,0,0:0:0:0:
256,192,60890,1,8,0:0:0:0:
256,192,61130,1,8,0:0:0:0:
256,192,61210,1,0,0:0:0:0:
256,192,61290,1,8,0:0:0:0:
256,192,61370,1,0,0:0:0:0:
256,192,61490,1,0,0:0:0:0:
256,192,61610,1,8,0:0:0:0:
256,192,61730,1,0,0:0:0:0:
256,192,61850,1,8,0:0:0:0:
256,192,61970,1,0,0:0:0:0:
256,192,62030,1,0,0:0:0:0:
256,192,62090,1,8,0:0:0:0:
256,192,62210,1,0,0:0:0:0:
256,192,62330,1,8,0:0:0:0:
256,192,62450,1,0,0:0:0:0:
256,192,62510,1,0,0:0:0:0:
256,192,62570,1,0,0:0:0:0:
256,192,62690,1,8,0:0:0:0:
256,192,62810,1,0,0:0:0:0:
256,192,63050,1,0,0:0:0:0:
256,192,63170,1,0,0:0:0:0:
256,192,63290,1,8,0:0:0:0:
256,192,63410,1,8,0:0:0:0:
256,192,63470,1,8,0:0:0:0:
256,192,63530,1,0,0:0:0:0:
256,192,63650,1,0,0:0:0:0:
256,192,63770,1,8,0:0:0:0:
256,192,63890,1,0,0:0:0:0:
256,192,63950,1,0,0:0:0:0:
256,192,64010,1,0,0:0:0:0:
256,192,64130,1,0,0:0:0:0:
256,192,64250,1,8,0:0:0:0:
256,192,64370,1,0,0:0:0:0:
256,192,64490,1,8,0:0:0:0:
256,192,64610,1,8,0:0:0:0:
256,192,64730,1,0,0:0:0:0:
256,192,64970,1,8,0:0:0:0:
256,192,65090,1,0,0:0:0:0:
256,192,65210,1,8,0:0:0:0:
256,192,65270,1,8,0:0:0:0:
256,192,65330,1,8,0:0:0:0:
256,192,65390,1,8,0:0:0:0:
256,192,65450,1,0,0:0:0:0:
256,192,65510,1,0,0:0:0:0:
256,192,65570,1,0,0:0:0:0:
256,192,65630,1,0,0:0:0:0:
256,192,65690,1,8,0:0:0:0:
256,192,65810,1,0,0:0:0:0:
256,192,65930,1,8,0:0:0:0:
256,192,66050,1,8,0:0:0:0:
256,192,66170,1,0,0:0:0:0:
256,192,66290,1,0,0:0:0:0:
256,192,66350,1,0,0:0:0:0:
256,192,66410,1,8,0:0:0:0:
256,192,66530,1,8,0:0:0:0:
256,192,66650,1,4,0:0:0:0:
256,192,66890,1,0,0:0:0:0:
256,192,67130,1,12,0:0:0:0:
256,192,67370,1,0,0:0:0:0:
256,192,67490,1,0,0:0:0:0:
256,192,67610,1,0,0:0:0:0:
256,192,67850,1,0,0:0:0:0:
256,192,68090,1,12,0:0:0:0:
256,192,68330,1,0,0:0:0:0:
256,192,68570,1,0,0:0:0:0:
256,192,68810,1,0,0:0:0:0:
256,192,69050,1,12,0:0:0:0:
256,192,69290,1,0,0:0:0:0:
256,192,69410,1,0,0:0:0:0:
256,192,69530,1,0,0:0:0:0:
256,192,69650,1,8,0:0:0:0:
256,192,69770,1,0,0:0:0:0:
256,192,69890,1,0,0:0:0:0:
256,192,69950,1,0,0:0:0:0:
256,192,70010,1,8,0:0:0:0:
256,192,70130,1,0,0:0:0:0:
256,192,70250,1,8,0:0:0:0:
256,192,70370,1,8,0:0:0:0:
256,192,70490,1,0,0:0:0:0:
256,192,70730,1,0,0:0:0:0:
256,192,70970,1,12,0:0:0:0:
256,192,71210,1,0,0:0:0:0:
256,192,71330,1,0,0:0:0:0:
256,192,71450,1,0,0:0:0:0:
256,192,71690,1,0,0:0:0:0:
256,192,71930,1,12,0:0:0:0:
256,192,72170,1,0,0:0:0:0:
256,192,72410,1,0,0:0:0:0:
256,192,72650,1,0,0:0:0:0:
256,192,72890,1,12,0:0:0:0:
256,192,73130,1,0,0:0:0:0:
256,192,73250,1,0,0:0:0:0:
256,192,73370,1,8,0:0:0:0:
256,192,73430,1,8,0:0:0:0:
256,192,73490,1,8,0:0:0:0:
256,192,73610,1,0,0:0:0:0:
256,192,73730,1,0,0:0:0:0:
256,192,73850,1,12,0:0:0:0:
256,192,74330,1,4,0:0:0:0:
256,192,74570,1,0,0:0:0:0:
256,192,74690,1,0,0:0:0:0:
256,192,74810,1,12,0:0:0:0:
256,192,75050,1,0,0:0:0:0:
256,192,75170,1,0,0:0:0:0:
256,192,75290,1,0,0:0:0:0:
256,192,75530,1,0,0:0:0:0:
256,192,75650,1,0,0:0:0:0:
256,192,75770,1,12,0:0:0:0:
256,192,76010,1,0,0:0:0:0:
256,192,76130,1,8,0:0:0:0:
256,192,76250,1,0,0:0:0:0:
256,192,76490,1,0,0:0:0:0:
256,192,76610,1,0,0:0:0:0:
256,192,76730,1,12,0:0:0:0:
256,192,76970,1,0,0:0:0:0:
256,192,77090,1,0,0:0:0:0:
256,192,77210,1,0,0:0:0:0:
256,192,77270,1,0,0:0:0:0:
256,192,77330,1,8,0:0:0:0:
256,192,77450,1,0,0:0:0:0:
256,192,77570,1,0,0:0:0:0:
256,192,77690,1,8,0:0:0:0:
256,192,77810,1,0,0:0:0:0:
256,192,77930,1,8,0:0:0:0:
256,192,78050,1,8,0:0:0:0:
256,192,78170,1,0,0:0:0:0:
256,192,78410,1,0,0:0:0:0:
256,192,78530,1,0,0:0:0:0:
256,192,78650,1,12,0:0:0:0:
256,192,78890,1,0,0:0:0:0:
256,192,79010,1,0,0:0:0:0:
256,192,79130,1,0,0:0:0:0:
256,192,79370,1,0,0:0:0:0:
256,192,79610,1,12,0:0:0:0:
256,192,79850,1,0,0:0:0:0:
256,192,79970,1,8,0:0:0:0:
256,192,80090,1,0,0:0:0:0:
256,192,80330,1,0,0:0:0:0:
256,192,80450,1,0,0:0:0:0:
256,192,80570,1,12,0:0:0:0:
256,192,80810,1,0,0:0:0:0:
256,192,80930,1,0,0:0:0:0:
256,192,81050,1,0,0:0:0:0:
256,192,81410,1,0,0:0:0:0:
256,192,81470,1,0,0:0:0:0:
256,192,81530,1,8,0:0:0:0:
256,192,81650,1,8,0:0:0:0:
256,192,81770,1,8,0:0:0:0:
256,192,81890,1,8,0:0:0:0:
256,192,82010,1,12,0:0:0:0:
256,192,82130,1,0,0:0:0:0:
256,192,82190,1,0,0:0:0:0:
256,192,82250,1,8,0:0:0:0:
256,192,82370,1,8,0:0:0:0:
256,192,82490,1,8,0:0:0:0:
256,192,82610,1,0,0:0:0:0:
256,192,82670,1,0,0:0:0:0:
256,192,82730,1,8,0:0:0:0:
256,192,82850,1,8,0:0:0:0:
256,192,82970,1,0,0:0:0:0:
256,192,83030,1,0,0:0:0:0:
256,192,83090,1,0,0:0:0:0:
256,192,83210,1,8,0:0:0:0:
256,192,83330,1,8,0:0:0:0:
256,192,83450,1,0,0:0:0:0:
256,192,83690,1,8,0:0:0:0:
256,192,83930,1,8,0:0:0:0:
256,192,84050,1,0,0:0:0:0:
256,192,84110,1,0,0:0:0:0:
256,192,84170,1,8,0:0:0:0:
256,192,84290,1,8,0:0:0:0:
256,192,84410,1,0,0:0:0:0:
256,192,84470,1,0,0:0:0:0:
256,192,84530,1,0,0:0:0:0:
256,192,84650,1,8,0:0:0:0:
256,192,84770,1,8,0:0:0:0:
256,192,84890,1,0,0:0:0:0:
256,192,85010,1,0,0:0:0:0:
256,192,85070,1,8,0:0:0:0:
256,192,85130,1,8,0:0:0:0:
256,192,85250,1,0,0:0:0:0:
256,192,85370,1,0,0:0:0:0:
256,192,85610,1,8,0:0:0:0:
256,192,85850,1,0,0:0:0:0:
256,192,85970,1,0,0:0:0:0:
256,192,86090,1,8,0:0:0:0:
256,192,86150,1,8,0:0:0:0:
256,192,86210,1,0,0:0:0:0:
256,192,86330,1,8,0:0:0:0:
256,192,86450,1,0,0:0:0:0:
256,192,86510,1,0,0:0:0:0:
256,192,86570,1,8,0:0:0:0:
256,192,86690,1,8,0:0:0:0:
256,192,86810,1,0,0:0:0:0:
256,192,86930,1,0,0:0:0:0:
256,192,87050,1,8,0:0:0:0:
256,192,87170,1,0,0:0:0:0:
256,192,87290,1,0,0:0:0:0:
256,192,87530,1,8,0:0:0:0:
256,192,87770,1,4,0:0:0:0:
256,192,87890,1,8,0:0:0:0:
256,192,87950,1,8,0:0:0:0:
256,192,88010,1,0,0:0:0:0:
256,192,88130,1,0,0:0:0:0:
256,192,88250,1,12,0:0:0:0:
256,192,88370,1,0,0:0:0:0:
256,192,88430,1,0,0:0:0:0:
256,192,88490,1,8,0:0:0:0:
256,192,88610,1,0,0:0:0:0:
256,192,88730,1,8,0:0:0:0:
256,192,88790,1,8,0:0:0:0:
256,192,88850,1,0,0:0:0:0:
256,192,88910,1,0,0:0:0:0:
256,192,88970,1,8,0:0:0:0:
256,192,89090,1,8,0:0:0:0:
256,192,89210,1,0,0:0:0:0:
256,192,89330,1,0,0:0:0:0:
256,192,89450,1,8,0:0:0:0:
256,192,89690,1,12,0:0:0:0:
256,192,89810,1,0,0:0:0:0:
256,192,89870,1,0,0:0:0:0:
256,192,89930,1,8,0:0:0:0:
256,192,90050,1,8,0:0:0:0:
256,192,90170,1,8,0:0:0:0:
256,192,90230,1,0,0:0:0:0:
256,192,90290,1,0,0:0:0:0:
256,192,90410,1,8,0:0:0:0:
256,192,90530,1,8,0:0:0:0:
256,192,90650,1,8,0:0:0:0:
256,192,90710,1,8,0:0:0:0:
256,192,90770,1,0,0:0:0:0:
256,192,90890,1,0,0:0:0:0:
256,192,91010,1,8,0:0:0:0:
256,192,91130,1,0,0:0:0:0:
256,192,91370,1,8,0:0:0:0:
256,192,91610,1,8,0:0:0:0:
256,192,91730,1,0,0:0:0:0:
256,192,91790,1,0,0:0:0:0:
256,192,91850,1,8,0:0:0:0:
256,192,91970,1,8,0:0:0:0:
256,192,92090,1,0,0:0:0:0:
256,192,92150,1,0,0:0:0:0:
256,192,92210,1,0,0:0:0:0:
256,192,92330,1,8,0:0:0:0:
256,192,92450,1,8,0:0:0:0:
256,192,92570,1,0,0:0:0:0:
256,192,92690,1,8,0:0:0:0:
256,192,92750,1,8,0:0:0:0:
256,192,92810,1,0,0:0:0:0:
256,192,92930,1,8,0:0:0:0:
256,192,93050,1,0,0:0:0:0:
256,192,93290,1,8,0:0:0:0:
256,192,93530,1,0,0:0:0:0:
256,192,93650,1,0,0:0:0:0:
256,192,93770,1,8,0:0:0:0:
256,192,93830,1,8,0:0:0:0:
256,192,93890,1,0,0:0:0:0:
256,192,94010,1,8,0:0:0:0:
256,192,94130,1,0,0:0:0:0:
256,192,94190,1,0,0:0:0:0:
256,192,94250,1,8,0:0:0:0:
256,192,94370,1,8,0:0:0:0:
256,192,94490,1,0,0:0:0:0:
256,192,94610,1,0,0:0:0:0:
256,192,94730,1,8,0:0:0:0:
256,192,94790,1,8,0:0:0:0:
256,192,94850,1,0,0:0:0:0:
256,192,94970,1,0,0:0:0:0:
256,192,95210,1,8,0:0:0:0:
256,192,95450,1,12,0:0:0:0:
256,192,95570,1,0,0:0:0:0:
256,192,95630,1,0,0:0:0:0:
256,192,95690,1,8,0:0:0:0:
256,192,95810,1,8,0:0:0:0:
256,192,95930,1,4,0:0:0:0:
256,192,96050,1,8,0:0:0:0:
256,192,96110,1,8,0:0:0:0:
256,192,96170,1,0,0:0:0:0:
256,192,96290,1,8,0:0:0:0:
256,192,96410,1,0,0:0:0:0:
256,192,96470,1,0,0:0:0:0:
256,192,96530,1,8,0:0:0:0:
256,192,96590,1,8,0:0:0:0:
256,192,96650,1,8,0:0:0:0:
256,192,96770,1,8,0:0:0:0:
256,192,96890,1,0,0:0:0:0:
256,192,97010,1,0,0:0:0:0:
256,192,97130,1,8,0:0:0:0:
256,192,97370,1,4,0:0:0:0:
256,192,97490,1,0,0:0:0:0:
256,192,97610,1,8,0:0:0:0:
256,192,97730,1,0,0:0:0:0:
256,192,97850,1,8,0:0:0:0:
256,192,98090,1,0,0:0:0:0:
256,192,98210,1,8,0:0:0:0:
256,192,98330,1,0,0:0:0:0:
256,192,98450,1,0,0:0:0:0:
256,192,98570,1,8,0:0:0:0:
256,192,98690,1,8,0:0:0:0:
256,192,98810,1,0,0:0:0:0:
256,192,99050,1,8,0:0:0:0:
256,192,99170,1,8,0:0:0:0:
256,192,99290,1,0,0:0:0:0:
256,192,99410,1,0,0:0:0:0:
256,192,99530,1,8,0:0:0:0:
256,192,99650,1,0,0:0:0:0:
256,192,99770,1,8,0:0:0:0:
256,192,100010,1,0,0:0:0:0:
256,192,100130,1,8,0:0:0:0:
256,192,100250,1,0,0:0:0:0:
256,192,100370,1,0,0:0:0:0:
256,192,100490,1,8,0:0:0:0:
256,192,100610,1,8,0:0:0:0:
256,192,100730,1,0,0:0:0:0:
256,192,100970,1,0,0:0:0:0:
256,192,101210,1,8,0:0:0:0:
256,192,101330,1,0,0:0:0:0:
256,192,101450,1,8,0:0:0:0:
256,192,101570,1,8,0:0:0:0:
256,192,101690,1,0,0:0:0:0:
256,192,101810,1,0,0:0:0:0:
256,192,101930,1,8,0:0:0:0:
256,192,102050,1,0,0:0:0:0:
256,192,102170,1,8,0:0:0:0:
256,192,102290,1,0,0:0:0:0:
256,192,102410,1,8,0:0:0:0:
256,192,102530,1,8,0:0:0:0:
256,192,102650,1,0,0:0:0:0:
256,192,102890,1,8,0:0:0:0:
256,192,103130,1,0,0:0:0:0:
256,192,103250,1,0,0:0:0:0:
256,192,103310,1,0,0:0:0:0:
256,192,103370,1,8,0:0:0:0:
256,192,103490,1,0,0:0:0:0:
256,192,103610,1,8,0:0:0:0:
256,192,103670,1,8,0:0:0:0:
256,192,103730,1,0,0:0:0:0:
256,192,103850,1,8,0:0:0:0:
256,192,103970,1,8,0:0:0:0:
256,192,104090,1,0,0:0:0:0:
256,192,104330,1,0,0:0:0:0:
256,192,104570,1,12,0:0:0:0:
256,192,105050,1,12,0:0:0:0:
256,192,105170,1,0,0:0:0:0:
256,192,105230,1,0,0:0:0:0:
256,192,105290,1,8,0:0:0:0:
256,192,105410,1,0,0:0:0:0:
256,192,105530,1,8,0:0:0:0:
256,192,105650,1,0,0:0:0:0:
256,192,105770,1,0,0:0:0:0:
256,192,105890,1,8,0:0:0:0:
256,192,106010,1,0,0:0:0:0:
256,192,106070,1,0,0:0:0:0:
256,192,106130,1,0,0:0:0:0:
256,192,106250,1,8,0:0:0:0:
256,192,106370,1,8,0:0:0:0:
256,192,106490,1,0,0:0:0:0:
256,192,106730,1,8,0:0:0:0:
256,192,106970,1,8,0:0:0:0:
256,192,107090,1,0,0:0:0:0:
256,192,107150,1,0,0:0:0:0:
256,192,107210,1,8,0:0:0:0:
256,192,107330,1,8,0:0:0:0:
256,192,107450,1,0,0:0:0:0:
256,192,107510,1,0,0:0:0:0:
256,192,107570,1,0,0:0:0:0:
256,192,107690,1,8,0:0:0:0:
256,192,107810,1,0,0:0:0:0:
256,192,107930,1,8,0:0:0:0:
256,192,108050,1,8,0:0:0:0:
256,192,108170,1,0,0:0:0:0:
256,192,108290,1,8,0:0:0:0:
256,192,108410,1,0,0:0:0:0:
256,192,108650,1,8,0:0:0:0:
256,192,108890,1,0,0:0:0:0:
256,192,109010,1,0,0:0:0:0:
256,192,109130,1,8,0:0:0:0:
256,192,109190,1,8,0:0:0:0:
256,192,109250,1,0,0:0:0:0:
256,192,109370,1,8,0:0:0:0:
256,192,109490,1,0,0:0:0:0:
256,192,109610,1,8,0:0:0:0:
256,192,109730,1,8,0:0:0:0:
256,192,109850,1,0,0:0:0:0:
256,192,109910,1,0,0:0:0:0:
256,192,109970,1,0,0:0:0:0:
256,192,110090,1,8,0:0:0:0:
256,192,110210,1,0,0:0:0:0:
256,192,110330,1,0,0:0:0:0:
256,192,110570,1,8,0:0:0:0:
256,192,110810,1,4,0:0:0:0:
256,192,110930,1,8,0:0:0:0:
256,192,110990,1,8,0:0:0:0:
256,192,111050,1,8,0:0:0:0:
256,192,111170,1,0,0:0:0:0:
256,192,111290,1,12,0:0:0:0:
256,192,111410,1,0,0:0:0:0:
256,192,111470,1,0,0:0:0:0:
256,192,111530,1,0,0:0:0:0:
256,192,111650,1,8,0:0:0:0:
256,192,111770,1,8,0:0:0:0:
256,192,111830,1,8,0:0:0:0:
256,192,111890,1,8,0:0:0:0:
256,192,111950,1,8,0:0:0:0:
256,192,112010,1,0,0:0:0:0:
256,192,112130,1,0,0:0:0:0:
256,192,112250,1,8,0:0:0:0:
256,192,112370,1,0,0:0:0:0:
256,192,112490,1,8,0:0:0:0:
256,192,112730,1,4,0:0:0:0:
256,192,113210,1,8,0:0:0:0:
256,192,113450,1,0,0:0:0:0:
256,192,113570,1,0,0:0:0:0:
256,192,113690,1,0,0:0:0:0:
256,192,113930,1,0,0:0:0:0:
256,192,114170,1,8,0:0:0:0:
256,192,114530,1,8,0:0:0:0:
256,192,114650,1,4,0:0:0:0:
256,192,115130,1,8,0:0:0:0:
256,192,115370,1,0,0:0:0:0:
256,192,115610,1,12,0:0:0:0:
256,192,115850,1,0,0:0:0:0:
256,192,116090,1,8,0:0:0:0:
256,192,116330,1,8,0:0:0:0:
256,192,116450,1,8,0:0:0:0:
256,192,116570,12,8,120410,0:0:0:0:
