osu file format v14

[General]
AudioFilename: audio.mp3
AudioLeadIn: 0
PreviewTime: 10067
Countdown: 0
SampleSet: Normal
StackLeniency: 0.7
Mode: 1
LetterboxInBreaks: 0
WidescreenStoryboard: 0

[Editor]
DistanceSpacing: 1.7
BeatDivisor: 12
GridSize: 4
TimelineZoom: 2.5

[Metadata]
Title:Unwelcome School (t+pazolite Remix)
TitleUnicode:Unwelcome School (t+pazolite Remix)
Artist:Mitsukiyo
ArtistUnicode:ミツキヨ
Creator:komasy
Version:Oni!!!
Source:ブルーアーカイブ -Blue Archive-
Tags:Instrumental Electronic Video Game ブルアカ BuruAka NET Games NEXON Yostar Original Soundtrack OST とぱぞらいと
BeatmapID:3762029
BeatmapSetID:1832621

[Difficulty]
HPDrainRate:5.5
CircleSize:7
OverallDifficulty:5.7
ApproachRate:10
SliderMultiplier:1.4
SliderTickRate:1

[Events]
//Background and Video events
Video,0,"output.mp4"
0,0,"Fag8g7iaIAAg-Xs.jpg",0,100
//Break Periods
//Storyboard Layer 0 (Background)
//Storyboard Layer 1 (Fail)
//Storyboard Layer 2 (Pass)
//Storyboard Layer 3 (Foreground)
//Storyboard Layer 4 (Overlay)
//Storyboard Sound Samples

[TimingPoints]
2,315.789473684211,4,1,0,20,1,0
2,-133.333333333333,4,1,0,20,0,0
7554,-125,4,1,0,40,0,0
7877,-121.210667689946,4,1,0,44,0,0
8034,-119.400869400869,4,1,0,46,0,0
8192,-117.644320297952,4,1,0,48,0,0
8508,-114.281837916064,4,1,0,51,0,0
8824,-111.106225817798,4,1,0,55,0,0
8982,-109.583694709454,4,1,0,57,0,0
9140,-108.111576965859,4,1,0,59,0,0
9298,-106.669480793584,4,1,0,61,0,0
9455,-105.265350329084,4,1,0,62,0,0
9534,-104.577056778679,4,1,0,63,0,0
9613,-103.897705780775,4,1,0,64,0,0
9771,-102.565143274616,4,1,0,66,0,0
10087,-100,4,1,0,90,0,0
10107,-100,4,1,0,90,0,1
30317,-100,4,1,0,80,0,0
48298,-102.557856272838,4,1,0,60,0,0
48455,-103.890762523649,4,1,0,60,0,0
48613,-105.258771564297,4,1,0,60,0,0
48692,-105.956375838926,4,1,0,60,0,0
48771,-106.6632885736,4,1,0,60,0,0
48929,-108.105794744501,4,1,0,60,0,0
49087,-109.587852494577,4,1,0,60,0,0
49166,-110.344225056788,4,1,0,60,0,0
49245,-111.111111111111,4,1,0,60,0,0
49403,-112.677312873584,4,1,0,60,0,0
49561,-114.277958740499,4,1,0,60,0,0
49640,-115.10070172241,4,1,0,60,0,0
49719,-115.935377271893,4,1,0,60,0,0
50034,-119.398752127056,4,1,0,60,0,0
50113,-120.297171159158,4,1,0,60,0,0
50192,-121.209213051823,4,1,0,60,0,0
50350,-123.075423893978,4,1,0,60,0,0
50508,-125,4,1,0,30,0,0
60554,-111.111111111111,4,1,0,70,0,0
65982,-109.089338669277,4,1,0,72,0,0
66140,-108.111963934146,4,1,0,72,0,0
66298,-107.145886943981,4,1,0,73,0,0
66534,-105.728716131373,4,1,0,75,0,0
66613,-105.264620086123,4,1,0,75,0,0
66771,-104.34854451819,4,1,0,76,0,0
66929,-103.448275862069,4,1,0,77,0,0
67245,-101.693550551545,4,1,0,78,0,0
67403,-100.838323353293,4,1,0,79,0,0
67561,-100.002639288448,4,1,0,80,0,0
67719,-99.175500588928,4,1,0,81,0,0
67798,-98.76704115945,4,1,0,81,0,0
67877,-98.361932452429,4,1,0,82,0,0
68192,-96.774193548387,4,1,0,83,0,0
68350,-95.999391927842,4,1,0,84,0,0
68508,-95.236898328516,4,1,0,85,0,0
68587,-94.860175750444,4,1,0,85,0,0
68666,-94.486421784993,4,1,0,86,0,0
68824,-93.747680431502,4,1,0,87,0,0
68982,-93.020401148946,4,1,0,88,0,0
69140,-92.308816722294,4,1,0,88,0,0
69219,-91.954859847106,4,1,0,89,0,0
69298,-91.603607088461,4,1,0,89,0,0
69455,-90.909090909091,4,1,0,90,0,0
69554,-83.333333333333,4,1,0,60,0,0
70028,-100,4,1,0,80,0,0
70659,-90.9090909090909,4,1,0,90,0,0
70738,-90.9090909090909,4,1,0,90,0,1
89824,-91.954859847106,4,1,0,90,0,1
89903,-92.486818980668,4,1,0,90,0,1
89982,-93.024968697061,4,1,0,90,0,1
90140,-94.113263785395,4,1,0,90,0,1
90298,-95.234504599608,4,1,0,90,0,1
90377,-95.805203671395,4,1,0,90,0,1
90455,-96.382783882784,4,1,0,90,0,1
90534,-96.967370441459,4,1,0,90,0,1
90613,-97.559091611309,4,1,0,90,0,1
90929,-100,4,1,0,80,0,1
90949,-100,4,1,0,80,0,0
108929,-102.566184830274,4,1,0,60,0,0
109087,-103.899308983218,4,1,0,60,0,0
109245,-105.267544590765,4,1,0,60,0,0
109324,-105.965265542411,4,1,0,60,0,0
109403,-106.672297297297,4,1,0,60,0,0
109561,-108.105794744501,4,1,0,60,0,0
109719,-109.587852494577,4,1,0,60,0,0
109798,-110.344225056788,4,1,0,60,0,0
109877,-111.111111111111,4,1,0,60,0,0
110034,-112.677312873584,4,1,0,60,0,0
110192,-114.288299701384,4,1,0,60,0,0
110271,-115.11119212541,4,1,0,60,0,0
110350,-115.946020380061,4,1,0,60,0,0
110666,-119.41004065425,4,1,0,60,0,0
110745,-120.308630215279,4,1,0,60,0,0
110824,-121.220846530377,4,1,0,60,0,0
110982,-123.087418380275,4,1,0,60,0,0
111140,-125,4,1,0,60,0,0
111199,-125,4,1,0,30,0,0

[HitObjects]
352,96,7580,5,8,0:0:0:0:
160,96,7896,5,0,0:0:0:0:
352,96,8054,5,8,0:0:0:0:
160,96,8212,5,0,0:0:0:0:
352,96,8528,5,8,0:0:0:0:
160,96,8844,5,0,0:0:0:0:
352,96,9002,5,8,0:0:0:0:
160,96,9159,5,0,0:0:0:0:
160,96,9317,5,0,0:0:0:0:
352,96,9475,5,8,0:0:0:0:
352,96,9554,5,8,0:0:0:0:
160,96,9633,5,0,0:0:0:0:
352,96,9791,5,8,0:0:0:0:
160,288,10107,5,4,0:0:0:0:
352,96,10423,5,8,0:0:0:0:
160,96,10580,5,0,0:0:0:0:
352,96,10738,5,8,0:0:0:0:
352,96,10975,5,8,0:0:0:0:
160,96,11054,5,0,0:0:0:0:
352,96,11212,5,8,0:0:0:0:
160,96,11370,5,0,0:0:0:0:
160,96,11528,5,0,0:0:0:0:
160,96,11607,5,0,0:0:0:0:
352,96,11686,5,8,0:0:0:0:
160,96,11844,5,0,0:0:0:0:
352,96,12002,5,8,0:0:0:0:
160,96,12159,5,0,0:0:0:0:
352,96,12238,5,8,0:0:0:0:
352,96,12633,5,8,0:0:0:0:
160,96,12791,5,0,0:0:0:0:
160,96,12870,5,0,0:0:0:0:
352,96,12949,5,8,0:0:0:0:
160,96,13107,5,0,0:0:0:0:
352,96,13265,5,8,0:0:0:0:
352,96,13423,5,8,0:0:0:0:
160,96,13580,5,0,0:0:0:0:
160,96,13738,5,0,0:0:0:0:
352,96,13896,5,8,0:0:0:0:
160,96,14054,5,0,0:0:0:0:
160,96,14133,5,0,0:0:0:0:
352,96,14212,5,8,0:0:0:0:
160,96,14370,5,0,0:0:0:0:
352,288,14528,5,12,0:0:0:0:
160,288,14844,5,4,0:0:0:0:
160,288,15159,5,4,0:0:0:0:
352,96,15475,5,8,0:0:0:0:
160,96,15633,5,0,0:0:0:0:
352,96,15791,5,8,0:0:0:0:
352,96,16028,5,8,0:0:0:0:
160,96,16107,5,0,0:0:0:0:
352,96,16265,5,8,0:0:0:0:
160,96,16423,5,0,0:0:0:0:
160,96,16580,5,0,0:0:0:0:
160,96,16659,5,0,0:0:0:0:
352,96,16738,5,8,0:0:0:0:
160,96,16896,5,0,0:0:0:0:
352,96,17054,5,8,0:0:0:0:
160,96,17212,5,0,0:0:0:0:
352,96,17291,5,8,0:0:0:0:
352,96,17686,5,8,0:0:0:0:
160,96,17844,5,0,0:0:0:0:
160,96,17923,5,0,0:0:0:0:
352,96,18002,5,8,0:0:0:0:
160,96,18159,5,0,0:0:0:0:
352,288,18317,5,12,0:0:0:0:
160,96,18475,5,0,0:0:0:0:
160,96,18633,5,0,0:0:0:0:
160,96,18791,5,0,0:0:0:0:
352,288,18949,5,12,0:0:0:0:
352,288,19265,5,12,0:0:0:0:
160,96,19423,5,0,0:0:0:0:
352,288,19580,5,12,0:0:0:0:
160,96,19738,5,0,0:0:0:0:
352,96,19896,5,8,0:0:0:0:
352,96,20054,5,8,0:0:0:0:
352,96,20133,5,8,0:0:0:0:
160,96,20212,5,0,0:0:0:0:
352,96,20528,5,8,0:0:0:0:
160,96,20686,5,0,0:0:0:0:
352,96,20844,5,8,0:0:0:0:
352,96,21080,5,8,0:0:0:0:
160,96,21159,5,0,0:0:0:0:
352,96,21317,5,8,0:0:0:0:
160,96,21475,5,0,0:0:0:0:
160,96,21633,5,0,0:0:0:0:
160,96,21712,5,0,0:0:0:0:
352,96,21791,5,8,0:0:0:0:
160,96,21949,5,0,0:0:0:0:
352,96,22107,5,8,0:0:0:0:
160,96,22265,5,0,0:0:0:0:
352,96,22344,5,8,0:0:0:0:
160,96,22423,5,0,0:0:0:0:
352,96,22738,5,8,0:0:0:0:
160,96,22896,5,0,0:0:0:0:
160,96,22975,5,0,0:0:0:0:
352,96,23054,5,8,0:0:0:0:
160,96,23212,5,0,0:0:0:0:
352,96,23370,5,8,0:0:0:0:
352,96,23528,5,8,0:0:0:0:
160,96,23686,5,0,0:0:0:0:
160,96,23844,5,0,0:0:0:0:
352,96,24002,5,8,0:0:0:0:
160,96,24159,5,0,0:0:0:0:
160,96,24238,5,0,0:0:0:0:
352,96,24317,5,8,0:0:0:0:
160,96,24475,5,0,0:0:0:0:
352,288,24633,5,12,0:0:0:0:
160,96,24791,5,0,0:0:0:0:
352,288,24949,5,12,0:0:0:0:
160,96,25107,5,0,0:0:0:0:
160,288,25265,5,4,0:0:0:0:
352,96,25580,5,8,0:0:0:0:
160,96,25738,5,0,0:0:0:0:
352,96,25896,5,8,0:0:0:0:
352,96,26133,5,8,0:0:0:0:
160,96,26212,5,0,0:0:0:0:
352,96,26370,5,8,0:0:0:0:
160,288,26528,5,4,0:0:0:0:
160,96,26686,5,0,0:0:0:0:
160,96,26765,5,0,0:0:0:0:
352,96,26844,5,8,0:0:0:0:
160,96,27002,5,0,0:0:0:0:
352,96,27159,5,8,0:0:0:0:
160,96,27317,5,0,0:0:0:0:
352,96,27396,5,8,0:0:0:0:
160,96,27475,5,0,0:0:0:0:
352,96,27791,5,8,0:0:0:0:
160,96,27949,5,0,0:0:0:0:
160,96,28028,5,0,0:0:0:0:
352,96,28107,5,8,0:0:0:0:
160,96,28265,5,0,0:0:0:0:
352,288,28423,5,12,0:0:0:0:
160,96,28580,5,0,0:0:0:0:
160,96,28738,5,0,0:0:0:0:
160,96,28896,5,0,0:0:0:0:
352,288,29054,5,12,0:0:0:0:
160,96,29212,5,0,0:0:0:0:
160,96,29291,5,0,0:0:0:0:
352,96,29370,5,8,0:0:0:0:
160,96,29528,5,0,0:0:0:0:
352,96,29686,5,8,0:0:0:0:
160,96,29765,5,0,0:0:0:0:
160,96,29844,5,0,0:0:0:0:
160,96,29923,5,0,0:0:0:0:
352,96,30002,5,8,0:0:0:0:
160,288,30317,5,4,0:0:0:0:
352,96,30633,5,8,0:0:0:0:
352,96,30791,5,8,0:0:0:0:
160,96,30949,5,0,0:0:0:0:
352,96,31107,5,8,0:0:0:0:
352,96,31186,5,8,0:0:0:0:
160,96,31265,5,0,0:0:0:0:
352,96,31423,5,8,0:0:0:0:
160,96,31580,5,0,0:0:0:0:
352,96,31896,5,8,0:0:0:0:
352,96,32054,5,8,0:0:0:0:
160,96,32212,5,0,0:0:0:0:
352,96,32370,5,8,0:0:0:0:
160,96,32449,5,0,0:0:0:0:
160,96,32528,5,0,0:0:0:0:
352,96,32686,5,8,0:0:0:0:
160,96,32844,5,0,0:0:0:0:
352,96,33159,5,8,0:0:0:0:
160,96,33317,5,0,0:0:0:0:
352,96,33475,5,8,0:0:0:0:
160,96,33633,5,0,0:0:0:0:
160,96,33712,5,0,0:0:0:0:
352,96,33791,5,8,0:0:0:0:
160,96,33949,5,0,0:0:0:0:
352,96,34107,5,8,0:0:0:0:
352,96,34423,5,8,0:0:0:0:
160,96,34580,5,0,0:0:0:0:
352,96,34738,5,8,0:0:0:0:
352,96,34817,5,8,0:0:0:0:
160,96,34896,5,0,0:0:0:0:
352,96,35054,5,8,0:0:0:0:
160,288,35370,5,4,0:0:0:0:
352,96,35686,5,8,0:0:0:0:
352,96,35844,5,8,0:0:0:0:
160,96,36002,5,0,0:0:0:0:
352,96,36159,5,8,0:0:0:0:
352,96,36238,5,8,0:0:0:0:
160,96,36317,5,0,0:0:0:0:
352,96,36475,5,8,0:0:0:0:
160,96,36633,5,0,0:0:0:0:
352,96,36949,5,8,0:0:0:0:
352,96,37107,5,8,0:0:0:0:
160,96,37265,5,0,0:0:0:0:
352,96,37423,5,8,0:0:0:0:
160,96,37502,5,0,0:0:0:0:
352,96,37580,5,8,0:0:0:0:
160,96,37738,5,0,0:0:0:0:
352,96,37896,5,8,0:0:0:0:
160,96,38212,5,0,0:0:0:0:
352,96,38370,5,8,0:0:0:0:
160,96,38528,5,0,0:0:0:0:
352,96,38686,5,8,0:0:0:0:
352,96,38765,5,8,0:0:0:0:
160,96,38844,5,0,0:0:0:0:
352,96,39002,5,8,0:0:0:0:
160,96,39159,5,0,0:0:0:0:
160,96,39475,5,0,0:0:0:0:
352,96,39633,5,8,0:0:0:0:
160,96,39791,5,0,0:0:0:0:
352,96,39870,5,8,0:0:0:0:
352,96,40028,5,8,0:0:0:0:
160,96,40107,5,0,0:0:0:0:
160,288,40423,5,4,0:0:0:0:
352,96,40738,5,8,0:0:0:0:
352,96,40896,5,8,0:0:0:0:
160,96,41054,5,0,0:0:0:0:
352,96,41212,5,8,0:0:0:0:
352,96,41291,5,8,0:0:0:0:
160,96,41370,5,0,0:0:0:0:
352,96,41528,5,8,0:0:0:0:
160,96,41686,5,0,0:0:0:0:
352,96,42002,5,8,0:0:0:0:
352,96,42159,5,8,0:0:0:0:
160,96,42317,5,0,0:0:0:0:
352,96,42475,5,8,0:0:0:0:
160,96,42554,5,0,0:0:0:0:
160,96,42633,5,0,0:0:0:0:
352,96,42791,5,8,0:0:0:0:
160,96,42949,5,0,0:0:0:0:
352,96,43265,5,8,0:0:0:0:
160,96,43423,5,0,0:0:0:0:
352,96,43580,5,8,0:0:0:0:
160,96,43738,5,0,0:0:0:0:
160,96,43817,5,0,0:0:0:0:
352,96,43896,5,8,0:0:0:0:
160,96,44054,5,0,0:0:0:0:
352,96,44212,5,8,0:0:0:0:
160,96,44449,5,0,0:0:0:0:
352,96,44528,5,8,0:0:0:0:
160,96,44686,5,0,0:0:0:0:
352,96,44844,5,8,0:0:0:0:
352,96,44923,5,8,0:0:0:0:
160,96,45002,5,0,0:0:0:0:
352,96,45159,5,8,0:0:0:0:
352,96,45317,5,8,0:0:0:0:
160,288,45475,5,4,0:0:0:0:
352,96,45791,5,8,0:0:0:0:
352,96,45949,5,8,0:0:0:0:
160,96,46107,5,0,0:0:0:0:
352,96,46265,5,8,0:0:0:0:
352,96,46344,5,8,0:0:0:0:
160,96,46423,5,0,0:0:0:0:
352,96,46580,5,8,0:0:0:0:
160,96,46738,5,0,0:0:0:0:
352,96,47054,5,8,0:0:0:0:
352,96,47212,5,8,0:0:0:0:
160,96,47370,5,0,0:0:0:0:
352,96,47528,5,8,0:0:0:0:
160,96,47607,5,0,0:0:0:0:
160,96,47686,5,0,0:0:0:0:
352,96,47844,5,8,0:0:0:0:
160,96,48002,5,0,0:0:0:0:
352,96,48317,5,8,0:0:0:0:
160,96,48475,5,0,0:0:0:0:
352,96,48633,5,8,0:0:0:0:
352,96,48712,5,8,0:0:0:0:
160,96,48791,5,0,0:0:0:0:
160,96,48949,5,0,0:0:0:0:
160,96,49107,5,0,0:0:0:0:
352,96,49186,5,8,0:0:0:0:
352,96,49265,5,8,0:0:0:0:
160,96,49423,5,0,0:0:0:0:
352,96,49580,5,8,0:0:0:0:
160,96,49659,5,0,0:0:0:0:
160,96,49738,5,0,0:0:0:0:
160,96,50054,5,0,0:0:0:0:
160,96,50133,5,0,0:0:0:0:
352,96,50212,5,8,0:0:0:0:
352,96,50370,5,8,0:0:0:0:
160,288,50528,5,4,0:0:0:0:
160,96,50686,5,0,0:0:0:0:
160,96,51002,5,0,0:0:0:0:
160,96,51317,5,0,0:0:0:0:
160,96,51396,5,0,0:0:0:0:
160,96,51633,5,0,0:0:0:0:
160,96,51949,5,0,0:0:0:0:
160,96,52265,5,0,0:0:0:0:
160,96,52580,5,0,0:0:0:0:
352,96,52659,5,8,0:0:0:0:
160,96,52738,5,0,0:0:0:0:
160,96,53054,5,0,0:0:0:0:
352,96,53212,5,8,0:0:0:0:
352,96,53528,5,8,0:0:0:0:
352,96,53844,5,8,0:0:0:0:
352,96,54159,5,8,0:0:0:0:
352,96,54475,5,8,0:0:0:0:
352,96,54791,5,8,0:0:0:0:
352,96,54949,5,8,0:0:0:0:
352,96,55265,5,8,0:0:0:0:
352,96,55344,5,8,0:0:0:0:
352,96,55423,5,8,0:0:0:0:
160,96,55580,5,0,0:0:0:0:
160,96,55738,5,0,0:0:0:0:
160,96,56054,5,0,0:0:0:0:
160,96,56370,5,0,0:0:0:0:
160,96,56449,5,0,0:0:0:0:
160,96,56686,5,0,0:0:0:0:
160,96,57002,5,0,0:0:0:0:
160,96,57317,5,0,0:0:0:0:
160,96,57633,5,0,0:0:0:0:
352,96,57712,5,8,0:0:0:0:
160,96,57791,5,0,0:0:0:0:
160,96,58107,5,0,0:0:0:0:
352,96,58265,5,8,0:0:0:0:
352,96,58580,5,8,0:0:0:0:
352,96,58896,5,8,0:0:0:0:
352,96,59212,5,8,0:0:0:0:
352,96,59528,5,8,0:0:0:0:
352,96,59844,5,8,0:0:0:0:
352,96,60002,5,8,0:0:0:0:
352,288,60633,5,12,0:0:0:0:
352,96,60949,5,8,0:0:0:0:
352,96,61265,5,8,0:0:0:0:
352,96,61580,5,8,0:0:0:0:
160,96,61738,5,0,0:0:0:0:
352,96,61896,5,8,0:0:0:0:
352,96,62212,5,8,0:0:0:0:
352,96,62528,5,8,0:0:0:0:
160,96,62686,5,0,0:0:0:0:
352,96,62765,5,8,0:0:0:0:
352,96,62844,5,8,0:0:0:0:
352,96,63159,5,8,0:0:0:0:
352,96,63475,5,8,0:0:0:0:
160,96,63633,5,0,0:0:0:0:
352,96,63791,5,8,0:0:0:0:
352,96,64107,5,8,0:0:0:0:
352,96,64423,5,8,0:0:0:0:
160,96,64580,5,0,0:0:0:0:
352,96,64738,5,8,0:0:0:0:
160,96,64896,5,0,0:0:0:0:
352,96,65054,5,8,0:0:0:0:
160,96,65370,5,0,0:0:0:0:
352,96,65686,5,8,0:0:0:0:
352,96,66002,5,8,0:0:0:0:
160,96,66159,5,0,0:0:0:0:
352,96,66317,5,8,0:0:0:0:
160,96,66554,5,0,0:0:0:0:
352,96,66633,5,8,0:0:0:0:
160,96,66791,5,0,0:0:0:0:
352,96,66949,5,8,0:0:0:0:
352,96,67265,5,8,0:0:0:0:
160,96,67423,5,0,0:0:0:0:
352,96,67580,5,8,0:0:0:0:
160,96,67738,5,0,0:0:0:0:
352,96,67817,5,8,0:0:0:0:
352,96,67896,5,8,0:0:0:0:
352,96,68212,5,8,0:0:0:0:
160,96,68370,5,0,0:0:0:0:
352,96,68528,5,8,0:0:0:0:
352,96,68607,5,8,0:0:0:0:
160,96,68686,5,0,0:0:0:0:
352,96,68844,5,8,0:0:0:0:
160,96,69002,5,0,0:0:0:0:
352,96,69159,5,8,0:0:0:0:
160,96,69238,5,0,0:0:0:0:
352,96,69317,5,8,0:0:0:0:
160,96,69475,5,0,0:0:0:0:
352,96,70107,5,8,0:0:0:0:
352,96,70186,5,8,0:0:0:0:
160,96,70265,5,0,0:0:0:0:
352,288,70423,5,12,0:0:0:0:
160,96,70738,5,0,0:0:0:0:
160,96,70817,5,0,0:0:0:0:
352,96,70896,5,8,0:0:0:0:
352,96,70975,5,8,0:0:0:0:
160,96,71054,5,0,0:0:0:0:
352,96,71212,5,8,0:0:0:0:
160,96,71370,5,0,0:0:0:0:
160,96,71449,5,0,0:0:0:0:
352,96,71528,5,8,0:0:0:0:
352,96,71607,5,8,0:0:0:0:
160,96,71686,5,0,0:0:0:0:
352,96,71844,5,8,0:0:0:0:
160,96,72002,5,0,0:0:0:0:
160,96,72080,5,0,0:0:0:0:
352,96,72159,5,8,0:0:0:0:
352,96,72238,5,8,0:0:0:0:
160,96,72317,5,0,0:0:0:0:
160,96,72475,5,0,0:0:0:0:
352,96,72554,5,8,0:0:0:0:
160,96,72633,5,0,0:0:0:0:
160,96,72712,5,0,0:0:0:0:
160,96,72791,5,0,0:0:0:0:
352,96,72949,5,8,0:0:0:0:
160,96,73107,5,0,0:0:0:0:
160,96,73186,5,0,0:0:0:0:
160,96,73265,5,0,0:0:0:0:
160,96,73423,5,0,0:0:0:0:
160,96,73502,5,0,0:0:0:0:
352,96,73580,5,8,0:0:0:0:
352,96,73738,5,8,0:0:0:0:
352,96,73817,5,8,0:0:0:0:
160,96,73896,5,0,0:0:0:0:
160,96,74054,5,0,0:0:0:0:
352,96,74133,5,8,0:0:0:0:
160,96,74212,5,0,0:0:0:0:
352,96,74370,5,8,0:0:0:0:
160,96,74449,5,0,0:0:0:0:
352,96,74528,5,8,0:0:0:0:
160,96,74686,5,0,0:0:0:0:
160,96,74844,5,0,0:0:0:0:
160,96,75002,5,0,0:0:0:0:
352,288,75159,5,12,0:0:0:0:
160,288,75475,5,4,0:0:0:0:
352,96,75633,5,8,0:0:0:0:
160,96,75712,5,0,0:0:0:0:
352,96,75791,5,8,0:0:0:0:
160,96,75949,5,0,0:0:0:0:
352,96,76028,5,8,0:0:0:0:
160,96,76186,5,0,0:0:0:0:
352,96,76265,5,8,0:0:0:0:
160,96,76423,5,0,0:0:0:0:
352,96,76502,5,8,0:0:0:0:
160,96,76659,5,0,0:0:0:0:
352,96,76738,5,8,0:0:0:0:
160,96,76896,5,0,0:0:0:0:
160,96,77054,5,0,0:0:0:0:
352,96,77212,5,8,0:0:0:0:
352,96,77291,5,8,0:0:0:0:
160,96,77370,5,0,0:0:0:0:
352,96,77528,5,8,0:0:0:0:
160,96,77607,5,0,0:0:0:0:
160,96,77686,5,0,0:0:0:0:
160,96,77844,5,0,0:0:0:0:
160,96,77923,5,0,0:0:0:0:
160,96,78002,5,0,0:0:0:0:
352,96,78159,5,8,0:0:0:0:
160,96,78317,5,0,0:0:0:0:
352,96,78633,5,8,0:0:0:0:
160,96,78791,5,0,0:0:0:0:
352,288,78949,5,12,0:0:0:0:
160,96,79107,5,0,0:0:0:0:
160,96,79186,5,0,0:0:0:0:
352,96,79265,5,8,0:0:0:0:
160,96,79423,5,0,0:0:0:0:
352,288,79580,5,12,0:0:0:0:
352,288,79896,5,12,0:0:0:0:
160,96,80054,5,0,0:0:0:0:
352,288,80212,5,12,0:0:0:0:
160,96,80370,5,0,0:0:0:0:
160,96,80449,5,0,0:0:0:0:
352,96,80528,5,8,0:0:0:0:
160,96,80686,5,0,0:0:0:0:
352,96,80844,5,8,0:0:0:0:
160,96,80923,5,0,0:0:0:0:
160,96,81080,5,0,0:0:0:0:
352,96,81159,5,8,0:0:0:0:
160,96,81317,5,0,0:0:0:0:
352,96,81475,5,8,0:0:0:0:
352,96,81791,5,8,0:0:0:0:
352,96,81949,5,8,0:0:0:0:
160,96,82107,5,0,0:0:0:0:
352,96,82265,5,8,0:0:0:0:
160,96,82344,5,0,0:0:0:0:
352,96,82502,5,8,0:0:0:0:
160,96,82580,5,0,0:0:0:0:
352,96,82738,5,8,0:0:0:0:
160,96,82817,5,0,0:0:0:0:
352,96,82975,5,8,0:0:0:0:
160,96,83054,5,0,0:0:0:0:
352,96,83212,5,8,0:0:0:0:
160,96,83291,5,0,0:0:0:0:
352,96,83370,5,8,0:0:0:0:
352,96,83528,5,8,0:0:0:0:
352,96,83607,5,8,0:0:0:0:
160,96,83686,5,0,0:0:0:0:
352,96,83844,5,8,0:0:0:0:
160,96,84002,5,0,0:0:0:0:
160,96,84080,5,0,0:0:0:0:
352,96,84159,5,8,0:0:0:0:
160,96,84238,5,0,0:0:0:0:
160,96,84317,5,0,0:0:0:0:
352,96,84475,5,8,0:0:0:0:
160,96,84633,5,0,0:0:0:0:
160,96,84712,5,0,0:0:0:0:
352,96,84791,5,8,0:0:0:0:
160,96,84870,5,0,0:0:0:0:
352,96,84949,5,8,0:0:0:0:
160,96,85107,5,0,0:0:0:0:
352,96,85265,5,8,0:0:0:0:
352,96,85344,5,8,0:0:0:0:
160,96,85423,5,0,0:0:0:0:
160,96,85502,5,0,0:0:0:0:
352,96,85580,5,8,0:0:0:0:
160,96,85896,5,0,0:0:0:0:
160,96,85975,5,0,0:0:0:0:
160,96,86133,5,0,0:0:0:0:
352,96,86212,5,8,0:0:0:0:
160,96,86370,5,0,0:0:0:0:
352,96,86528,5,8,0:0:0:0:
352,96,86607,5,8,0:0:0:0:
352,96,86765,5,8,0:0:0:0:
160,96,86844,5,0,0:0:0:0:
160,96,87002,5,0,0:0:0:0:
352,288,87159,5,8,0:0:0:0:
160,96,87317,5,0,0:0:0:0:
160,96,87396,5,0,0:0:0:0:
352,96,87475,5,8,0:0:0:0:
160,96,87633,5,0,0:0:0:0:
160,96,87712,5,0,0:0:0:0:
352,96,87791,5,8,0:0:0:0:
352,96,87949,5,8,0:0:0:0:
160,96,88107,5,0,0:0:0:0:
352,96,88265,5,8,0:0:0:0:
160,96,88423,5,0,0:0:0:0:
352,96,88738,5,8,0:0:0:0:
160,96,88896,5,0,0:0:0:0:
352,288,89054,5,12,0:0:0:0:
160,96,89212,5,0,0:0:0:0:
160,96,89291,5,0,0:0:0:0:
352,96,89370,5,8,0:0:0:0:
160,96,89528,5,0,0:0:0:0:
352,288,89686,5,12,0:0:0:0:
352,96,89844,5,8,0:0:0:0:
352,96,89923,5,8,0:0:0:0:
160,96,90002,5,0,0:0:0:0:
352,96,90159,5,8,0:0:0:0:
160,96,90317,5,0,0:0:0:0:
160,96,90396,5,0,0:0:0:0:
160,96,90475,5,0,0:0:0:0:
160,96,90554,5,0,0:0:0:0:
352,96,90633,5,8,0:0:0:0:
160,288,90949,5,4,0:0:0:0:
352,96,91265,5,8,0:0:0:0:
352,96,91423,5,8,0:0:0:0:
160,96,91580,5,0,0:0:0:0:
352,96,91738,5,8,0:0:0:0:
352,96,91817,5,8,0:0:0:0:
160,96,91896,5,0,0:0:0:0:
352,96,92054,5,8,0:0:0:0:
160,96,92212,5,0,0:0:0:0:
352,96,92528,5,8,0:0:0:0:
352,96,92686,5,8,0:0:0:0:
160,96,92844,5,0,0:0:0:0:
352,96,93002,5,8,0:0:0:0:
160,96,93080,5,0,0:0:0:0:
160,96,93159,5,0,0:0:0:0:
352,96,93317,5,8,0:0:0:0:
160,96,93475,5,0,0:0:0:0:
352,96,93791,5,8,0:0:0:0:
160,96,93949,5,0,0:0:0:0:
352,96,94107,5,8,0:0:0:0:
160,96,94265,5,0,0:0:0:0:
160,96,94344,5,0,0:0:0:0:
352,96,94423,5,8,0:0:0:0:
160,96,94580,5,0,0:0:0:0:
352,96,94738,5,8,0:0:0:0:
352,96,95054,5,8,0:0:0:0:
160,96,95212,5,0,0:0:0:0:
352,96,95370,5,8,0:0:0:0:
352,96,95449,5,8,0:0:0:0:
160,96,95528,5,0,0:0:0:0:
352,96,95686,5,8,0:0:0:0:
160,288,96002,5,4,0:0:0:0:
352,96,96317,5,8,0:0:0:0:
352,96,96475,5,8,0:0:0:0:
160,96,96633,5,0,0:0:0:0:
352,96,96791,5,8,0:0:0:0:
352,96,96870,5,8,0:0:0:0:
160,96,96949,5,0,0:0:0:0:
352,96,97107,5,8,0:0:0:0:
160,96,97265,5,0,0:0:0:0:
352,96,97580,5,8,0:0:0:0:
352,96,97738,5,8,0:0:0:0:
160,96,97896,5,0,0:0:0:0:
352,96,98054,5,8,0:0:0:0:
160,96,98133,5,0,0:0:0:0:
352,96,98212,5,8,0:0:0:0:
160,96,98370,5,0,0:0:0:0:
352,96,98528,5,8,0:0:0:0:
160,96,98844,5,0,0:0:0:0:
352,96,99002,5,8,0:0:0:0:
160,96,99159,5,0,0:0:0:0:
352,96,99317,5,8,0:0:0:0:
352,96,99396,5,8,0:0:0:0:
160,96,99475,5,0,0:0:0:0:
352,96,99633,5,8,0:0:0:0:
160,96,99791,5,0,0:0:0:0:
160,96,100107,5,0,0:0:0:0:
352,96,100265,5,8,0:0:0:0:
160,96,100423,5,0,0:0:0:0:
352,96,100502,5,8,0:0:0:0:
352,96,100659,5,8,0:0:0:0:
160,96,100738,5,0,0:0:0:0:
160,288,101054,5,4,0:0:0:0:
352,96,101370,5,8,0:0:0:0:
352,96,101528,5,8,0:0:0:0:
160,96,101686,5,0,0:0:0:0:
352,96,101844,5,8,0:0:0:0:
352,96,101923,5,8,0:0:0:0:
160,96,102002,5,0,0:0:0:0:
352,96,102159,5,8,0:0:0:0:
160,96,102317,5,0,0:0:0:0:
352,96,102633,5,8,0:0:0:0:
352,96,102791,5,8,0:0:0:0:
160,96,102949,5,0,0:0:0:0:
352,96,103107,5,8,0:0:0:0:
160,96,103186,5,0,0:0:0:0:
160,96,103265,5,0,0:0:0:0:
352,96,103423,5,8,0:0:0:0:
160,96,103580,5,0,0:0:0:0:
352,96,103896,5,8,0:0:0:0:
160,96,104054,5,0,0:0:0:0:
352,96,104212,5,8,0:0:0:0:
160,96,104370,5,0,0:0:0:0:
160,96,104449,5,0,0:0:0:0:
352,96,104528,5,8,0:0:0:0:
160,96,104686,5,0,0:0:0:0:
352,96,104844,5,8,0:0:0:0:
160,96,105080,5,0,0:0:0:0:
352,96,105159,5,8,0:0:0:0:
160,96,105317,5,0,0:0:0:0:
352,96,105475,5,8,0:0:0:0:
352,96,105554,5,8,0:0:0:0:
160,96,105633,5,0,0:0:0:0:
352,96,105791,5,8,0:0:0:0:
352,96,105949,5,8,0:0:0:0:
160,288,106107,5,4,0:0:0:0:
352,96,106423,5,8,0:0:0:0:
352,96,106580,5,8,0:0:0:0:
160,96,106738,5,0,0:0:0:0:
352,96,106896,5,8,0:0:0:0:
352,96,106975,5,8,0:0:0:0:
160,96,107054,5,0,0:0:0:0:
352,96,107212,5,8,0:0:0:0:
160,96,107370,5,0,0:0:0:0:
352,96,107686,5,8,0:0:0:0:
352,96,107844,5,8,0:0:0:0:
160,96,108002,5,0,0:0:0:0:
352,96,108159,5,8,0:0:0:0:
160,96,108238,5,0,0:0:0:0:
160,96,108317,5,0,0:0:0:0:
352,96,108475,5,8,0:0:0:0:
160,96,108633,5,0,0:0:0:0:
352,96,108949,5,8,0:0:0:0:
160,96,109107,5,0,0:0:0:0:
352,96,109265,5,8,0:0:0:0:
352,96,109344,5,8,0:0:0:0:
160,96,109423,5,0,0:0:0:0:
160,96,109580,5,0,0:0:0:0:
160,96,109738,5,0,0:0:0:0:
352,96,109817,5,8,0:0:0:0:
352,96,109896,5,8,0:0:0:0:
160,96,110054,5,0,0:0:0:0:
352,96,110212,5,8,0:0:0:0:
160,96,110291,5,0,0:0:0:0:
160,96,110370,5,0,0:0:0:0:
160,96,110686,5,0,0:0:0:0:
160,96,110765,5,0,0:0:0:0:
352,96,110844,5,8,0:0:0:0:
352,96,111002,5,8,0:0:0:0:
160,288,111159,5,4,0:0:0:0:
352,96,111475,5,8,0:0:0:0:
352,96,111633,5,8,0:0:0:0:
352,96,111791,5,8,0:0:0:0:
352,96,111949,5,8,0:0:0:0:
352,96,112107,5,8,0:0:0:0:
352,96,112423,5,8,0:0:0:0:
352,96,112580,5,8,0:0:0:0:
352,96,112738,5,8,0:0:0:0:
352,96,112896,5,8,0:0:0:0:
