osu file format v14

[General]
AudioFilename: audio.mp3
AudioLeadIn: 0
PreviewTime: 10067
Countdown: 0
SampleSet: Normal
StackLeniency: 0.7
Mode: 1
LetterboxInBreaks: 0
WidescreenStoryboard: 0

[Editor]
DistanceSpacing: 1.7
BeatDivisor: 4
GridSize: 4
TimelineZoom: 0.7999998

[Metadata]
Title:Unwelcome School (t+pazolite Remix)
TitleUnicode:Unwelcome School (t+pazolite Remix)
Artist:Mitsukiyo
ArtistUnicode:ミツキヨ
Creator:komasy
Version:Kantan!!!
Source:ブルーアーカイブ -Blue Archive-
Tags:Instrumental Electronic Video Game ブルアカ BuruAka NET Games NEXON Yostar Original Soundtrack OST とぱぞらいと
BeatmapID:3763247
BeatmapSetID:1832621

[Difficulty]
HPDrainRate:8
CircleSize:7
OverallDifficulty:3
ApproachRate:10
SliderMultiplier:1.4
SliderTickRate:1

[Events]
//Background and Video events
Video,0,"output.mp4"
0,0,"Fag8g7iaIAAg-Xs.jpg",0,100
//Break Periods
//Storyboard Layer 0 (Background)
//Storyboard Layer 1 (Fail)
//Storyboard Layer 2 (Pass)
//Storyboard Layer 3 (Foreground)
//Storyboard Layer 4 (Overlay)
//Storyboard Sound Samples

[TimingPoints]
2,315.789473684211,4,1,0,20,1,0
2,-133.333333333333,4,1,0,20,0,0
7554,-111.111111111111,4,1,0,40,0,0
8034,-108.842658396864,4,1,0,46,0,0
8192,-108.106951871658,4,1,0,48,0,0
8508,-106.664978261787,4,1,0,51,0,0
8824,-105.260965551714,4,1,0,55,0,0
9140,-103.897705780775,4,1,0,59,0,0
9455,-102.565143274616,4,1,0,62,0,0
9613,-101.911598644943,4,1,0,64,0,0
9771,-101.266330047287,4,1,0,66,0,0
10087,-100,4,1,0,90,0,0
10107,-100,4,1,0,90,0,1
30317,-100,4,1,0,80,0,0
48298,-101.262778111846,4,1,0,60,0,0
48613,-102.562020382476,4,1,0,60,0,0
49245,-105.263157894737,4,1,0,60,0,0
49561,-106.6632885736,4,1,0,60,0,0
50508,-111.111111111111,4,1,0,30,0,0
60554,-105.263157894737,4,1,0,70,0,0
66613,-102.564796643432,4,1,0,75,0,0
66929,-101.694915254237,4,1,0,77,0,0
67561,-100.00131962681,4,1,0,80,0,0
68192,-98.360655737705,4,1,0,83,0,0
68508,-97.560347602189,4,1,0,85,0,0
68824,-96.772957717701,4,1,0,87,0,0
69140,-96.000608079861,4,1,0,88,0,0
69455,-95.238095238095,4,1,0,90,0,0
69554,-83.333333333333,4,1,0,60,0,0
70028,-100,4,1,0,80,0,0
70659,-95.238095238095,4,1,0,90,0,0
70738,-95.238095238095,4,1,0,90,0,1
89666,-96.153846153846,4,1,0,90,0,1
89982,-97.087378640777,4,1,0,90,0,1
90298,-98.039215686275,4,1,0,90,0,1
90929,-100,4,1,0,80,0,1
90949,-100,4,1,0,80,0,0
108929,-101.266837716485,4,1,0,60,0,0
109245,-102.566184830274,4,1,0,60,0,0
109877,-105.263157894737,4,1,0,60,0,0
110192,-106.667792745239,4,1,0,60,0,0
111140,-111.111111111111,4,1,0,60,0,0
111199,-111.111111111111,4,1,0,30,0,0

[HitObjects]
352,96,7580,5,8,0:0:0:0:
352,96,8212,5,8,0:0:0:0:
160,96,8844,5,0,0:0:0:0:
160,96,9159,5,8,0:0:0:0:
352,96,9475,5,8,0:0:0:0:
160,288,10107,5,4,0:0:0:0:
352,96,10738,5,8,0:0:0:0:
160,96,11370,5,0,0:0:0:0:
160,96,11686,5,0,0:0:0:0:
352,96,12002,5,8,0:0:0:0:
352,96,12633,5,8,0:0:0:0:
160,96,13580,5,0,0:0:0:0:
352,96,13896,5,8,0:0:0:0:
352,96,14528,5,8,0:0:0:0:
160,96,14844,5,0,0:0:0:0:
160,96,15159,5,0,0:0:0:0:
352,96,15791,5,8,0:0:0:0:
160,96,16423,5,0,0:0:0:0:
160,96,16738,5,0,0:0:0:0:
352,96,17054,5,8,0:0:0:0:
352,96,17686,5,8,0:0:0:0:
160,96,18317,5,0,0:0:0:0:
352,96,18949,5,8,0:0:0:0:
352,96,19265,5,8,0:0:0:0:
352,96,19580,5,8,0:0:0:0:
160,288,20212,5,4,0:0:0:0:
352,96,21159,5,8,0:0:0:0:
160,96,21475,5,0,0:0:0:0:
160,96,21791,5,0,0:0:0:0:
352,96,22107,5,8,0:0:0:0:
352,96,22738,5,8,0:0:0:0:
160,96,23370,5,0,0:0:0:0:
160,96,24002,5,0,0:0:0:0:
160,96,24317,5,0,0:0:0:0:
352,96,24633,5,8,0:0:0:0:
160,96,24949,5,0,0:0:0:0:
160,96,25265,5,0,0:0:0:0:
352,96,26212,5,8,0:0:0:0:
160,96,26528,5,0,0:0:0:0:
160,96,27159,5,0,0:0:0:0:
160,96,27475,5,0,0:0:0:0:
352,96,27791,5,8,0:0:0:0:
160,96,28423,5,0,0:0:0:0:
352,96,29054,5,8,0:0:0:0:
352,96,29370,5,8,0:0:0:0:
352,96,29686,5,8,0:0:0:0:
160,288,30317,5,4,0:0:0:0:
160,96,31265,5,0,0:0:0:0:
352,96,31580,5,8,0:0:0:0:
352,96,32212,5,8,0:0:0:0:
160,96,32844,5,0,0:0:0:0:
352,96,33159,5,8,0:0:0:0:
352,96,33475,5,8,0:0:0:0:
160,96,34107,5,0,0:0:0:0:
352,96,34738,5,8,0:0:0:0:
352,96,35054,5,8,0:0:0:0:
160,288,35370,5,4,0:0:0:0:
160,96,36317,5,0,0:0:0:0:
352,96,36633,5,8,0:0:0:0:
160,96,37265,5,0,0:0:0:0:
160,96,37580,5,0,0:0:0:0:
352,96,37896,5,8,0:0:0:0:
160,96,38528,5,0,0:0:0:0:
352,96,39159,5,8,0:0:0:0:
352,96,39791,5,8,0:0:0:0:
352,96,40107,5,8,0:0:0:0:
160,288,40423,5,4,0:0:0:0:
352,96,41370,5,8,0:0:0:0:
160,96,41686,5,0,0:0:0:0:
352,96,42317,5,8,0:0:0:0:
160,96,42949,5,0,0:0:0:0:
352,96,43265,5,8,0:0:0:0:
352,96,43896,5,8,0:0:0:0:
160,96,44212,5,0,0:0:0:0:
352,96,44844,5,8,0:0:0:0:
160,288,45475,5,4,0:0:0:0:
352,96,46423,5,8,0:0:0:0:
160,96,46738,5,0,0:0:0:0:
352,96,47370,5,8,0:0:0:0:
160,96,48002,5,0,0:0:0:0:
352,96,48317,5,8,0:0:0:0:
352,96,48633,5,8,0:0:0:0:
352,96,49265,5,8,0:0:0:0:
352,96,49580,5,8,0:0:0:0:
160,288,50528,5,4,0:0:0:0:
160,96,51791,5,0,0:0:0:0:
160,96,52423,5,0,0:0:0:0:
160,96,52738,5,0,0:0:0:0:
352,96,53054,5,8,0:0:0:0:
352,96,54317,5,8,0:0:0:0:
352,96,54949,5,8,0:0:0:0:
352,96,55265,5,8,0:0:0:0:
160,96,55580,5,0,0:0:0:0:
160,96,56844,5,0,0:0:0:0:
160,96,57475,5,0,0:0:0:0:
160,96,57791,5,0,0:0:0:0:
352,96,58107,5,8,0:0:0:0:
352,96,59370,5,8,0:0:0:0:
352,96,59686,5,8,0:0:0:0:
352,96,60002,5,8,0:0:0:0:
160,288,60633,5,4,0:0:0:0:
352,96,61896,5,8,0:0:0:0:
352,96,62528,5,8,0:0:0:0:
352,96,62844,5,8,0:0:0:0:
352,96,63159,5,8,0:0:0:0:
352,96,64107,5,8,0:0:0:0:
352,96,64423,5,8,0:0:0:0:
352,96,65054,5,8,0:0:0:0:
352,96,65686,5,0,0:0:0:0:
352,96,66633,5,8,0:0:0:0:
160,96,66949,5,0,0:0:0:0:
352,96,67580,5,8,0:0:0:0:
352,96,68212,5,8,0:0:0:0:
160,96,68528,5,0,0:0:0:0:
352,96,68844,5,8,0:0:0:0:
352,96,69159,5,8,0:0:0:0:
160,96,69475,5,0,0:0:0:0:
352,96,70423,5,8,0:0:0:0:
160,288,70738,5,4,0:0:0:0:
160,96,71370,5,0,0:0:0:0:
352,96,71686,5,8,0:0:0:0:
160,96,72002,5,0,0:0:0:0:
352,96,72317,5,8,0:0:0:0:
160,96,72633,5,0,0:0:0:0:
160,96,73265,5,0,0:0:0:0:
352,96,73896,5,8,0:0:0:0:
160,96,74212,5,0,0:0:0:0:
352,96,74528,5,8,0:0:0:0:
352,96,74844,5,8,0:0:0:0:
352,96,75159,5,8,0:0:0:0:
160,288,75791,5,4,0:0:0:0:
352,96,76738,5,8,0:0:0:0:
160,96,77054,5,0,0:0:0:0:
352,96,77370,5,8,0:0:0:0:
160,96,77686,5,0,0:0:0:0:
160,96,78317,5,0,0:0:0:0:
352,96,78633,5,8,0:0:0:0:
160,96,78949,5,0,0:0:0:0:
352,96,79580,5,8,0:0:0:0:
160,96,79896,5,0,0:0:0:0:
352,96,80212,5,8,0:0:0:0:
352,96,80528,5,8,0:0:0:0:
160,288,80844,5,4,0:0:0:0:
352,96,81791,5,8,0:0:0:0:
160,96,82107,5,0,0:0:0:0:
352,96,82423,5,8,0:0:0:0:
352,96,82738,5,8,0:0:0:0:
352,96,83370,5,8,0:0:0:0:
352,96,83686,5,8,0:0:0:0:
160,96,84002,5,0,0:0:0:0:
160,96,84633,5,0,0:0:0:0:
160,96,84949,5,0,0:0:0:0:
352,96,85265,5,8,0:0:0:0:
352,96,85580,5,8,0:0:0:0:
160,288,85896,5,4,0:0:0:0:
160,96,86844,5,0,0:0:0:0:
352,96,87159,5,8,0:0:0:0:
352,96,87791,5,8,0:0:0:0:
352,96,88107,5,8,0:0:0:0:
160,96,88423,5,0,0:0:0:0:
160,96,88738,5,0,0:0:0:0:
352,96,89054,5,8,0:0:0:0:
352,96,89686,5,8,0:0:0:0:
352,96,90002,5,8,0:0:0:0:
352,96,90317,5,8,0:0:0:0:
160,288,90949,5,4,0:0:0:0:
160,96,91896,5,0,0:0:0:0:
352,96,92212,5,8,0:0:0:0:
352,96,92844,5,8,0:0:0:0:
160,96,93475,5,0,0:0:0:0:
352,96,93791,5,8,0:0:0:0:
352,96,94107,5,8,0:0:0:0:
160,96,94738,5,0,0:0:0:0:
352,96,95370,5,8,0:0:0:0:
352,96,95686,5,8,0:0:0:0:
160,288,96002,5,4,0:0:0:0:
160,96,96949,5,0,0:0:0:0:
352,96,97265,5,8,0:0:0:0:
160,96,97896,5,0,0:0:0:0:
160,96,98212,5,0,0:0:0:0:
352,96,98528,5,8,0:0:0:0:
160,96,99159,5,0,0:0:0:0:
352,96,99791,5,8,0:0:0:0:
352,96,100423,5,8,0:0:0:0:
352,96,100738,5,8,0:0:0:0:
160,288,101054,5,4,0:0:0:0:
352,96,102002,5,8,0:0:0:0:
160,96,102317,5,0,0:0:0:0:
352,96,102949,5,8,0:0:0:0:
160,96,103580,5,0,0:0:0:0:
352,96,103896,5,8,0:0:0:0:
352,96,104528,5,8,0:0:0:0:
160,96,104844,5,0,0:0:0:0:
352,96,105475,5,8,0:0:0:0:
160,288,106107,5,4,0:0:0:0:
352,96,107054,5,8,0:0:0:0:
160,96,107370,5,0,0:0:0:0:
352,96,108002,5,8,0:0:0:0:
160,96,108633,5,0,0:0:0:0:
352,96,108949,5,8,0:0:0:0:
352,96,109265,5,8,0:0:0:0:
352,96,109896,5,8,0:0:0:0:
352,96,110212,5,8,0:0:0:0:
160,288,111159,5,4,0:0:0:0:
352,96,111791,5,8,0:0:0:0:
352,96,112423,5,8,0:0:0:0:
352,96,112738,5,8,0:0:0:0:
