osu file format v14

[General]
AudioFilename: audio.mp3
AudioLeadIn: 0
PreviewTime: 10067
Countdown: 0
SampleSet: Normal
StackLeniency: 0.7
Mode: 1
LetterboxInBreaks: 0
WidescreenStoryboard: 0

[Editor]
DistanceSpacing: 1.7
BeatDivisor: 4
GridSize: 4
TimelineZoom: 1.5

[Metadata]
Title:Unwelcome School (t+pazolite Remix)
TitleUnicode:Unwelcome School (t+pazolite Remix)
Artist:Mitsukiyo
ArtistUnicode:ミツキヨ
Creator:komasy
Version:Futsuu!!!
Source:ブルーアーカイブ -Blue Archive-
Tags:Instrumental Electronic Video Game ブルアカ BuruAka NET Games NEXON Yostar Original Soundtrack OST とぱぞらいと
BeatmapID:3763147
BeatmapSetID:1832621

[Difficulty]
HPDrainRate:7
CircleSize:7
OverallDifficulty:3.9
ApproachRate:10
SliderMultiplier:1.4
SliderTickRate:1

[Events]
//Background and Video events
Video,0,"output.mp4"
0,0,"Fag8g7iaIAAg-Xs.jpg",0,100
//Break Periods
//Storyboard Layer 0 (Background)
//Storyboard Layer 1 (Fail)
//Storyboard Layer 2 (Pass)
//Storyboard Layer 3 (Foreground)
//Storyboard Layer 4 (Overlay)
//Storyboard Sound Samples

[TimingPoints]
2,315.789473684211,4,1,0,20,1,0
2,-133.333333333333,4,1,0,20,0,0
7554,-111.111111111111,4,1,0,40,0,0
8034,-108.842658396864,4,1,0,46,0,0
8192,-108.106951871658,4,1,0,48,0,0
8508,-106.664978261787,4,1,0,51,0,0
8824,-105.260965551714,4,1,0,55,0,0
9140,-103.897705780775,4,1,0,59,0,0
9455,-102.565143274616,4,1,0,62,0,0
9613,-101.911598644943,4,1,0,64,0,0
9771,-101.266330047287,4,1,0,66,0,0
10087,-100,4,1,0,90,0,0
10107,-100,4,1,0,90,0,1
30317,-100,4,1,0,80,0,0
48298,-101.262778111846,4,1,0,60,0,0
48613,-102.562020382476,4,1,0,60,0,0
48771,-103.224224592375,4,1,0,60,0,0
49087,-104.574622231422,4,1,0,60,0,0
49245,-105.263157894737,4,1,0,60,0,0
49561,-106.6632885736,4,1,0,60,0,0
49719,-107.379697330386,4,1,0,60,0,0
50508,-111.111111111111,4,1,0,30,0,0
60554,-105.263157894737,4,1,0,70,0,0
65982,-104.347107665616,4,1,0,72,0,0
66298,-103.449688067383,4,1,0,73,0,0
66929,-101.694915254237,4,1,0,77,0,0
67245,-100.839665198472,4,1,0,78,0,0
67403,-100.417412045319,4,1,0,79,0,0
67561,-100.00131962681,4,1,0,80,0,0
67877,-99.174202667155,4,1,0,82,0,0
68192,-98.360655737705,4,1,0,83,0,0
68508,-97.560347602189,4,1,0,85,0,0
68824,-96.772957717701,4,1,0,87,0,0
68982,-96.384009768134,4,1,0,88,0,0
69140,-96.000608079861,4,1,0,88,0,0
69455,-95.238095238095,4,1,0,90,0,0
69554,-100,4,1,0,60,0,0
70028,-100,4,1,0,80,0,0
70659,-95.238095238095,4,1,0,90,0,0
70738,-95.238095238095,4,1,0,90,0,1
89982,-96.386461632388,4,1,0,90,0,1
90298,-97.559091611309,4,1,0,90,0,1
90613,-98.76446668752,4,1,0,90,0,1
90929,-100,4,1,0,80,0,1
90949,-100,4,1,0,80,0,0
108929,-101.266837716485,4,1,0,60,0,0
109245,-102.566184830274,4,1,0,60,0,0
109403,-103.228442991418,4,1,0,60,0,0
109719,-104.574622231422,4,1,0,60,0,0
109877,-105.263157894737,4,1,0,60,0,0
110192,-106.667792745239,4,1,0,60,0,0
110350,-107.384262211453,4,1,0,60,0,0
111140,-111.111111111111,4,1,0,60,0,0
111199,-111.111111111111,4,1,0,30,0,0

[HitObjects]
352,96,7580,5,8,0:0:0:0:
352,96,8054,5,8,0:0:0:0:
160,96,8212,5,0,0:0:0:0:
352,96,8528,5,8,0:0:0:0:
160,96,8844,5,0,0:0:0:0:
160,96,9159,5,0,0:0:0:0:
352,96,9475,5,8,0:0:0:0:
160,96,9633,5,0,0:0:0:0:
352,96,9791,5,8,0:0:0:0:
160,288,10107,5,4,0:0:0:0:
352,96,10738,5,8,0:0:0:0:
352,96,11054,5,8,0:0:0:0:
352,96,11212,5,8,0:0:0:0:
160,96,11370,5,0,0:0:0:0:
160,96,11686,5,0,0:0:0:0:
352,96,12002,5,8,0:0:0:0:
160,96,12159,5,0,0:0:0:0:
352,96,12317,5,8,0:0:0:0:
352,96,12633,5,8,0:0:0:0:
352,96,13107,5,8,0:0:0:0:
160,96,13265,5,0,0:0:0:0:
352,96,13580,5,8,0:0:0:0:
160,96,13896,5,0,0:0:0:0:
160,96,14212,5,0,0:0:0:0:
160,96,14370,5,0,0:0:0:0:
352,96,14528,5,8,0:0:0:0:
160,96,14844,5,0,0:0:0:0:
160,288,15159,5,4,0:0:0:0:
352,96,15791,5,8,0:0:0:0:
352,96,16107,5,8,0:0:0:0:
352,96,16265,5,8,0:0:0:0:
160,96,16423,5,0,0:0:0:0:
160,96,16738,5,0,0:0:0:0:
352,96,17054,5,8,0:0:0:0:
160,96,17212,5,0,0:0:0:0:
352,96,17370,5,8,0:0:0:0:
352,96,17686,5,8,0:0:0:0:
352,96,18159,5,8,0:0:0:0:
160,96,18317,5,0,0:0:0:0:
160,96,18633,5,0,0:0:0:0:
352,96,18949,5,8,0:0:0:0:
160,96,19107,5,0,0:0:0:0:
352,96,19265,5,8,0:0:0:0:
352,96,19580,5,8,0:0:0:0:
352,96,19896,5,8,0:0:0:0:
352,96,20054,5,8,0:0:0:0:
160,288,20212,5,4,0:0:0:0:
352,96,20844,5,8,0:0:0:0:
352,96,21080,5,8,0:0:0:0:
352,96,21317,5,8,0:0:0:0:
160,96,21475,5,0,0:0:0:0:
160,96,21791,5,0,0:0:0:0:
352,96,22107,5,8,0:0:0:0:
160,96,22265,5,0,0:0:0:0:
352,96,22423,5,8,0:0:0:0:
352,96,22738,5,8,0:0:0:0:
352,96,23054,5,8,0:0:0:0:
352,96,23212,5,8,0:0:0:0:
160,96,23370,5,0,0:0:0:0:
352,96,23686,5,8,0:0:0:0:
160,96,24002,5,0,0:0:0:0:
160,96,24317,5,0,0:0:0:0:
160,96,24475,5,0,0:0:0:0:
352,96,24633,5,8,0:0:0:0:
160,96,24791,5,0,0:0:0:0:
160,96,24949,5,0,0:0:0:0:
160,288,25265,5,4,0:0:0:0:
352,96,25896,5,8,0:0:0:0:
352,96,26133,5,8,0:0:0:0:
352,96,26370,5,8,0:0:0:0:
160,96,26528,5,0,0:0:0:0:
160,96,26844,5,0,0:0:0:0:
352,96,27159,5,8,0:0:0:0:
160,96,27317,5,0,0:0:0:0:
352,96,27475,5,8,0:0:0:0:
352,96,27791,5,8,0:0:0:0:
352,96,28107,5,8,0:0:0:0:
352,96,28265,5,8,0:0:0:0:
160,96,28423,5,0,0:0:0:0:
160,96,28738,5,0,0:0:0:0:
160,96,28896,5,0,0:0:0:0:
352,96,29054,5,8,0:0:0:0:
160,96,29212,5,0,0:0:0:0:
352,96,29370,5,8,0:0:0:0:
352,96,29686,5,8,0:0:0:0:
160,288,30317,5,4,0:0:0:0:
160,96,30949,5,0,0:0:0:0:
160,96,31107,5,0,0:0:0:0:
352,96,31265,5,8,0:0:0:0:
160,96,31580,5,0,0:0:0:0:
352,96,31896,5,8,0:0:0:0:
160,96,32212,5,0,0:0:0:0:
160,96,32370,5,0,0:0:0:0:
352,96,32528,5,8,0:0:0:0:
160,96,32844,5,0,0:0:0:0:
352,96,33159,5,8,0:0:0:0:
352,96,33791,5,8,0:0:0:0:
160,96,34107,5,0,0:0:0:0:
352,96,34423,5,8,0:0:0:0:
160,96,34738,5,0,0:0:0:0:
352,96,35054,5,8,0:0:0:0:
160,288,35370,5,4,0:0:0:0:
160,96,36002,5,0,0:0:0:0:
160,96,36159,5,0,0:0:0:0:
352,96,36317,5,8,0:0:0:0:
160,96,36633,5,0,0:0:0:0:
352,96,36949,5,8,0:0:0:0:
160,96,37265,5,0,0:0:0:0:
160,96,37423,5,0,0:0:0:0:
352,96,37580,5,8,0:0:0:0:
160,96,37896,5,0,0:0:0:0:
352,96,38212,5,8,0:0:0:0:
352,96,38844,5,8,0:0:0:0:
160,96,39159,5,0,0:0:0:0:
160,96,39475,5,0,0:0:0:0:
352,96,39791,5,8,0:0:0:0:
160,96,40107,5,0,0:0:0:0:
160,288,40423,5,4,0:0:0:0:
160,96,41054,5,0,0:0:0:0:
160,96,41212,5,0,0:0:0:0:
352,96,41370,5,8,0:0:0:0:
160,96,41686,5,0,0:0:0:0:
352,96,42002,5,8,0:0:0:0:
160,96,42317,5,0,0:0:0:0:
160,96,42475,5,0,0:0:0:0:
352,96,42633,5,8,0:0:0:0:
352,96,42791,5,8,0:0:0:0:
160,96,42949,5,0,0:0:0:0:
352,96,43265,5,8,0:0:0:0:
352,96,43896,5,8,0:0:0:0:
160,96,44212,5,0,0:0:0:0:
352,96,44528,5,8,0:0:0:0:
160,96,44844,5,0,0:0:0:0:
352,96,45159,5,8,0:0:0:0:
160,288,45475,5,4,0:0:0:0:
160,96,46107,5,0,0:0:0:0:
160,96,46265,5,0,0:0:0:0:
352,96,46423,5,8,0:0:0:0:
160,96,46738,5,0,0:0:0:0:
352,96,47054,5,8,0:0:0:0:
160,96,47370,5,0,0:0:0:0:
160,96,47528,5,0,0:0:0:0:
352,96,47686,5,8,0:0:0:0:
160,96,47844,5,0,0:0:0:0:
160,96,48002,5,0,0:0:0:0:
352,96,48317,5,8,0:0:0:0:
352,96,48633,5,8,0:0:0:0:
160,96,48791,5,0,0:0:0:0:
160,96,49107,5,0,0:0:0:0:
352,96,49265,5,8,0:0:0:0:
352,96,49580,5,8,0:0:0:0:
160,96,49738,5,0,0:0:0:0:
160,288,50528,5,4,0:0:0:0:
160,96,51159,5,0,0:0:0:0:
160,96,51791,5,0,0:0:0:0:
160,96,52107,5,0,0:0:0:0:
160,96,52423,5,0,0:0:0:0:
352,96,53054,5,8,0:0:0:0:
352,96,53686,5,8,0:0:0:0:
352,96,54317,5,8,0:0:0:0:
352,96,54633,5,8,0:0:0:0:
352,96,54791,5,8,0:0:0:0:
352,96,54949,5,8,0:0:0:0:
160,96,55580,5,0,0:0:0:0:
160,96,56212,5,0,0:0:0:0:
160,96,56844,5,0,0:0:0:0:
160,96,57159,5,0,0:0:0:0:
160,96,57475,5,0,0:0:0:0:
352,96,58107,5,8,0:0:0:0:
352,96,58738,5,8,0:0:0:0:
352,96,59370,5,8,0:0:0:0:
352,96,59686,5,8,0:0:0:0:
352,96,60002,5,8,0:0:0:0:
160,288,60633,5,4,0:0:0:0:
352,96,61265,5,8,0:0:0:0:
352,96,61580,5,8,0:0:0:0:
352,96,61896,5,8,0:0:0:0:
352,96,62528,5,8,0:0:0:0:
160,96,62686,5,0,0:0:0:0:
352,96,62844,5,8,0:0:0:0:
352,96,63159,5,8,0:0:0:0:
352,96,63791,5,8,0:0:0:0:
352,96,64107,5,8,0:0:0:0:
352,96,64423,5,8,0:0:0:0:
160,96,64580,5,0,0:0:0:0:
352,96,64738,5,8,0:0:0:0:
352,96,65054,5,8,0:0:0:0:
352,96,65686,5,0,0:0:0:0:
352,96,66002,5,8,0:0:0:0:
352,96,66317,5,8,0:0:0:0:
152,92,66791,5,0,0:0:0:0:
352,96,66949,5,8,0:0:0:0:
352,96,67265,5,8,0:0:0:0:
352,96,67580,5,8,0:0:0:0:
160,96,67738,5,0,0:0:0:0:
352,96,67896,5,8,0:0:0:0:
352,96,68212,5,8,0:0:0:0:
160,96,68528,5,0,0:0:0:0:
352,96,68844,5,8,0:0:0:0:
352,96,69002,5,8,0:0:0:0:
352,96,69159,5,8,0:0:0:0:
160,96,69317,5,8,0:0:0:0:
160,96,69475,5,0,0:0:0:0:
160,96,70265,5,0,0:0:0:0:
352,96,70423,5,8,0:0:0:0:
160,288,70738,5,4,0:0:0:0:
352,96,71054,5,8,0:0:0:0:
352,96,71212,5,8,0:0:0:0:
160,96,71370,5,0,0:0:0:0:
352,96,71686,5,8,0:0:0:0:
160,96,72002,5,0,0:0:0:0:
352,96,72159,5,8,0:0:0:0:
352,96,72317,5,8,0:0:0:0:
160,96,72633,5,0,0:0:0:0:
352,96,72949,5,8,0:0:0:0:
160,96,73265,5,0,0:0:0:0:
160,96,73423,5,0,0:0:0:0:
352,96,73580,5,8,0:0:0:0:
352,96,73896,5,8,0:0:0:0:
352,96,74054,5,8,0:0:0:0:
160,96,74212,5,0,0:0:0:0:
352,96,74528,5,8,0:0:0:0:
352,96,74686,5,8,0:0:0:0:
352,96,74844,5,8,0:0:0:0:
352,288,75159,5,12,0:0:0:0:
160,288,75475,5,4,0:0:0:0:
352,288,75791,5,12,0:0:0:0:
160,96,76423,5,0,0:0:0:0:
352,96,76580,5,8,0:0:0:0:
352,96,76896,5,8,0:0:0:0:
160,96,77054,5,0,0:0:0:0:
352,96,77212,5,8,0:0:0:0:
352,96,77370,5,8,0:0:0:0:
160,96,77686,5,0,0:0:0:0:
352,96,78002,5,8,0:0:0:0:
160,96,78159,5,0,0:0:0:0:
352,96,78317,5,8,0:0:0:0:
160,96,78475,5,0,0:0:0:0:
352,96,78633,5,8,0:0:0:0:
160,288,78949,5,4,0:0:0:0:
352,96,79265,5,8,0:0:0:0:
160,96,79423,5,0,0:0:0:0:
352,288,79580,5,12,0:0:0:0:
352,288,79896,5,12,0:0:0:0:
352,288,80212,5,12,0:0:0:0:
352,288,80844,5,12,0:0:0:0:
160,96,81159,5,0,0:0:0:0:
160,96,81317,5,0,0:0:0:0:
352,96,81475,5,8,0:0:0:0:
352,96,81791,5,8,0:0:0:0:
160,96,82107,5,0,0:0:0:0:
352,96,82265,5,8,0:0:0:0:
352,96,82580,5,8,0:0:0:0:
160,96,82738,5,0,0:0:0:0:
352,96,82896,5,8,0:0:0:0:
160,96,83054,5,0,0:0:0:0:
352,96,83370,5,8,0:0:0:0:
352,96,83528,5,8,0:0:0:0:
352,96,83686,5,8,0:0:0:0:
160,96,84002,5,0,0:0:0:0:
160,96,84159,5,0,0:0:0:0:
160,96,84317,5,0,0:0:0:0:
160,96,84633,5,0,0:0:0:0:
352,96,84791,5,8,0:0:0:0:
160,96,84949,5,0,0:0:0:0:
352,288,85265,5,12,0:0:0:0:
352,288,85580,5,12,0:0:0:0:
160,288,85896,5,4,0:0:0:0:
352,96,86528,5,8,0:0:0:0:
352,96,86686,5,8,0:0:0:0:
160,96,86844,5,0,0:0:0:0:
352,288,87159,5,12,0:0:0:0:
352,96,87475,5,8,0:0:0:0:
160,96,87633,5,0,0:0:0:0:
352,96,87791,5,8,0:0:0:0:
160,96,88107,5,0,0:0:0:0:
352,96,88265,5,8,0:0:0:0:
160,96,88423,5,0,0:0:0:0:
160,96,88580,5,0,0:0:0:0:
160,96,88738,5,0,0:0:0:0:
352,288,89054,5,12,0:0:0:0:
160,96,89370,5,0,0:0:0:0:
160,96,89528,5,0,0:0:0:0:
352,288,89686,5,12,0:0:0:0:
160,288,90002,5,4,0:0:0:0:
160,288,90317,5,4,0:0:0:0:
352,96,90633,5,8,0:0:0:0:
160,288,90949,5,4,0:0:0:0:
160,96,91580,5,0,0:0:0:0:
160,96,91738,5,0,0:0:0:0:
352,96,91896,5,8,0:0:0:0:
160,96,92212,5,0,0:0:0:0:
352,96,92528,5,8,0:0:0:0:
160,96,92844,5,0,0:0:0:0:
160,96,93002,5,0,0:0:0:0:
352,96,93159,5,8,0:0:0:0:
160,96,93475,5,0,0:0:0:0:
352,96,93791,5,8,0:0:0:0:
352,96,94423,5,8,0:0:0:0:
160,96,94738,5,0,0:0:0:0:
352,96,95054,5,8,0:0:0:0:
160,96,95370,5,0,0:0:0:0:
352,96,95686,5,8,0:0:0:0:
160,288,96002,5,4,0:0:0:0:
160,96,96633,5,0,0:0:0:0:
160,96,96791,5,0,0:0:0:0:
352,96,96949,5,8,0:0:0:0:
160,96,97265,5,0,0:0:0:0:
352,96,97580,5,8,0:0:0:0:
160,96,97896,5,0,0:0:0:0:
160,96,98054,5,0,0:0:0:0:
352,96,98212,5,8,0:0:0:0:
160,96,98528,5,0,0:0:0:0:
352,96,98844,5,8,0:0:0:0:
352,96,99475,5,8,0:0:0:0:
160,96,99791,5,0,0:0:0:0:
160,96,100107,5,0,0:0:0:0:
352,96,100423,5,8,0:0:0:0:
160,96,100738,5,0,0:0:0:0:
160,288,101054,5,4,0:0:0:0:
160,96,101686,5,0,0:0:0:0:
160,96,101844,5,0,0:0:0:0:
352,96,102002,5,8,0:0:0:0:
160,96,102317,5,0,0:0:0:0:
352,96,102633,5,8,0:0:0:0:
160,96,102949,5,0,0:0:0:0:
160,96,103107,5,0,0:0:0:0:
352,96,103265,5,8,0:0:0:0:
352,96,103423,5,8,0:0:0:0:
160,96,103580,5,0,0:0:0:0:
352,96,103896,5,8,0:0:0:0:
352,96,104528,5,8,0:0:0:0:
160,96,104844,5,0,0:0:0:0:
352,96,105159,5,8,0:0:0:0:
160,96,105475,5,0,0:0:0:0:
352,96,105791,5,8,0:0:0:0:
160,288,106107,5,4,0:0:0:0:
160,96,106738,5,0,0:0:0:0:
160,96,106896,5,0,0:0:0:0:
352,96,107054,5,8,0:0:0:0:
160,96,107370,5,0,0:0:0:0:
352,96,107686,5,8,0:0:0:0:
160,96,108002,5,0,0:0:0:0:
160,96,108159,5,0,0:0:0:0:
352,96,108317,5,8,0:0:0:0:
160,96,108475,5,0,0:0:0:0:
160,96,108633,5,0,0:0:0:0:
352,96,108949,5,8,0:0:0:0:
352,96,109265,5,8,0:0:0:0:
160,96,109423,5,0,0:0:0:0:
160,96,109738,5,0,0:0:0:0:
352,96,109896,5,8,0:0:0:0:
352,96,110212,5,8,0:0:0:0:
160,96,110370,5,0,0:0:0:0:
160,288,111159,5,4,0:0:0:0:
352,96,111475,5,8,0:0:0:0:
352,96,111791,5,8,0:0:0:0:
352,96,112107,5,8,0:0:0:0:
352,96,112423,5,8,0:0:0:0:
352,96,112738,5,8,0:0:0:0:
352,96,112896,5,8,0:0:0:0:
