osu file format v14

[General]
AudioFilename: audio.mp3
AudioLeadIn: 0
PreviewTime: 34895
Countdown: 0
SampleSet: Normal
StackLeniency: 0.7
Mode: 1
LetterboxInBreaks: 0
WidescreenStoryboard: 0

[Editor]
Bookmarks: 2980,13646,24313,34980,56313,66980,77646,98980
DistanceSpacing: 1.2
BeatDivisor: 4
GridSize: 16
TimelineZoom: 1.6

[Metadata]
Title:Unwelcome School
TitleUnicode:Unwelcome School
Artist:Mitsukiyo
ArtistUnicode:ミツキヨ
Creator:komasy
Version:Muzukashii
Source:ブルーアーカイブ -Blue Archive-
Tags:Instrumental Electronic Video Game ブルアカ BuruAka NET Games NEXON Yostar Soundtrack
BeatmapID:3455632
BeatmapSetID:1691024

[Difficulty]
HPDrainRate:6
CircleSize:7
OverallDifficulty:4.6
ApproachRate:10
SliderMultiplier:1.4
SliderTickRate:1

[Events]
//Background and Video events
0,0,"90302596_p0.jpg",0,30
//Break Periods
//Storyboard Layer 0 (Background)
//Storyboard Layer 1 (Fail)
//Storyboard Layer 2 (Pass)
//Storyboard Layer 3 (Foreground)
//Storyboard Layer 4 (Overlay)
//Storyboard Sound Samples

[TimingPoints]
2979,333.333333333333,4,1,0,30,1,0
2979,-111.111111111111,4,1,0,30,0,0
10958,-111.111111111111,4,1,0,60,0,0
11291,-109.586226732958,4,1,0,60,0,0
11458,-108.843815043056,4,1,0,60,0,0
11624,-108.107012565869,4,1,0,60,0,0
11958,-106.667199936008,4,1,0,60,0,0
12291,-105.261080633066,4,1,0,60,0,0
12458,-104.575932243265,4,1,0,60,0,0
12624,-103.895597974289,4,1,0,60,0,0
12791,-103.224058520726,4,1,0,60,0,0
12958,-102.565088643618,4,1,0,60,0,0
13291,-101.264380908987,4,1,0,60,0,0
13624,-100,4,1,0,90,0,0
13645,-100,4,1,0,90,0,1
34645,-100,4,1,0,90,0,0
34978,-100,4,1,0,90,0,1
53645,-100,4,1,0,90,0,0
53728,-100,4,1,0,60,0,0
56228,-105.263157894737,4,1,0,60,0,0
66895,-100,4,1,0,80,0,0
77562,-95.2380952380952,4,1,0,90,0,0
77645,-95.2380952380952,4,1,0,90,0,1
98645,-95.2380952380952,4,1,0,90,0,0
98978,-100,4,1,0,90,0,1
117645,-100,4,1,0,90,0,0
117728,-100,4,1,0,60,0,0
120228,-105.263157894737,4,1,0,50,0,0

[HitObjects]
352,96,10978,5,8,0:0:0:0:
160,96,11312,5,0,0:0:0:0:
352,96,11478,5,8,0:0:0:0:
160,96,11645,5,0,0:0:0:0:
352,96,11978,5,8,0:0:0:0:
160,96,12312,5,0,0:0:0:0:
352,96,12478,5,8,0:0:0:0:
160,96,12645,5,0,0:0:0:0:
160,96,12812,5,0,0:0:0:0:
352,96,12978,5,8,0:0:0:0:
160,96,13312,5,0,0:0:0:0:
160,288,13645,5,4,0:0:0:0:
352,96,13978,5,8,0:0:0:0:
160,96,14145,5,0,0:0:0:0:
352,96,14312,5,8,0:0:0:0:
352,96,14562,5,8,0:0:0:0:
352,96,14812,5,8,0:0:0:0:
160,96,14978,5,0,0:0:0:0:
352,96,15312,5,8,0:0:0:0:
160,96,15478,5,0,0:0:0:0:
352,96,15645,5,8,0:0:0:0:
160,96,15812,5,0,0:0:0:0:
160,96,15895,5,0,0:0:0:0:
352,96,16312,5,8,0:0:0:0:
160,96,16478,5,0,0:0:0:0:
352,96,16645,5,8,0:0:0:0:
160,96,16978,5,0,0:0:0:0:
352,96,17312,5,8,0:0:0:0:
160,96,17478,5,0,0:0:0:0:
352,96,17645,5,8,0:0:0:0:
160,96,17812,5,0,0:0:0:0:
160,96,17978,5,0,0:0:0:0:
160,96,18145,5,0,0:0:0:0:
352,96,18312,5,8,0:0:0:0:
160,96,18645,5,0,0:0:0:0:
160,96,18978,5,0,0:0:0:0:
352,96,19312,5,8,0:0:0:0:
160,96,19478,5,0,0:0:0:0:
352,96,19645,5,8,0:0:0:0:
352,96,19895,5,8,0:0:0:0:
352,96,20145,5,8,0:0:0:0:
160,96,20312,5,0,0:0:0:0:
352,96,20645,5,8,0:0:0:0:
160,96,20812,5,0,0:0:0:0:
352,96,20978,5,8,0:0:0:0:
160,96,21145,5,0,0:0:0:0:
160,96,21228,5,0,0:0:0:0:
352,96,21645,5,8,0:0:0:0:
160,96,21812,5,0,0:0:0:0:
352,96,21978,5,8,0:0:0:0:
160,96,22312,5,0,0:0:0:0:
352,96,22645,5,8,0:0:0:0:
160,96,22812,5,0,0:0:0:0:
352,96,22978,5,8,0:0:0:0:
352,96,23145,5,8,0:0:0:0:
160,96,23312,5,0,0:0:0:0:
352,96,23645,5,8,0:0:0:0:
160,96,23812,5,0,0:0:0:0:
160,96,23895,5,0,0:0:0:0:
160,96,23978,5,0,0:0:0:0:
352,96,24145,5,8,0:0:0:0:
160,288,24312,5,4,0:0:0:0:
352,96,24645,5,8,0:0:0:0:
160,96,24812,5,0,0:0:0:0:
352,96,24978,5,8,0:0:0:0:
352,96,25228,5,8,0:0:0:0:
352,96,25312,5,8,0:0:0:0:
352,96,25478,5,8,0:0:0:0:
160,96,25645,5,0,0:0:0:0:
352,96,25978,5,8,0:0:0:0:
160,96,26145,5,0,0:0:0:0:
352,96,26312,5,8,0:0:0:0:
160,96,26478,5,0,0:0:0:0:
160,96,26562,5,0,0:0:0:0:
352,96,26978,5,8,0:0:0:0:
160,96,27145,5,0,0:0:0:0:
352,96,27312,5,8,0:0:0:0:
160,96,27645,5,0,0:0:0:0:
352,96,27978,5,8,0:0:0:0:
160,96,28145,5,0,0:0:0:0:
352,96,28312,5,8,0:0:0:0:
352,96,28478,5,0,0:0:0:0:
160,96,28645,5,0,0:0:0:0:
160,96,28812,5,0,0:0:0:0:
352,96,28978,5,8,0:0:0:0:
160,96,29312,5,0,0:0:0:0:
160,96,29645,5,0,0:0:0:0:
352,96,29978,5,8,0:0:0:0:
160,96,30145,5,0,0:0:0:0:
352,96,30312,5,8,0:0:0:0:
352,96,30562,5,8,0:0:0:0:
352,96,30645,5,8,0:0:0:0:
352,96,30812,5,8,0:0:0:0:
160,96,30978,5,0,0:0:0:0:
352,96,31312,5,8,0:0:0:0:
160,96,31478,5,0,0:0:0:0:
352,96,31645,5,8,0:0:0:0:
160,96,31812,5,0,0:0:0:0:
160,96,31895,5,0,0:0:0:0:
352,96,32312,5,8,0:0:0:0:
160,96,32478,5,0,0:0:0:0:
352,96,32645,5,8,0:0:0:0:
160,96,32978,5,0,0:0:0:0:
352,96,33312,5,8,0:0:0:0:
160,96,33478,5,0,0:0:0:0:
352,96,33645,5,8,0:0:0:0:
352,96,33812,5,8,0:0:0:0:
160,96,33978,5,0,0:0:0:0:
160,96,34145,5,0,0:0:0:0:
352,96,34312,5,8,0:0:0:0:
352,96,34645,5,8,0:0:0:0:
160,288,34978,5,4,0:0:0:0:
160,96,35645,5,0,0:0:0:0:
160,96,35812,5,0,0:0:0:0:
352,96,35978,5,8,0:0:0:0:
352,96,36145,5,8,0:0:0:0:
160,96,36312,5,0,0:0:0:0:
352,96,36645,5,8,0:0:0:0:
160,96,36978,5,0,0:0:0:0:
160,96,37145,5,0,0:0:0:0:
160,96,37228,5,0,0:0:0:0:
160,96,37312,5,0,0:0:0:0:
352,96,37478,5,8,0:0:0:0:
160,96,37645,5,0,0:0:0:0:
352,96,37978,5,8,0:0:0:0:
160,96,38312,5,0,0:0:0:0:
352,96,38478,5,8,0:0:0:0:
160,96,38645,5,0,0:0:0:0:
352,96,38978,5,8,0:0:0:0:
160,96,39312,5,0,0:0:0:0:
352,96,39478,5,8,0:0:0:0:
160,96,39645,5,0,0:0:0:0:
160,96,39812,5,0,0:0:0:0:
352,96,39978,5,8,0:0:0:0:
160,96,40312,5,0,0:0:0:0:
160,96,40978,5,0,0:0:0:0:
160,96,41145,5,0,0:0:0:0:
352,96,41312,5,8,0:0:0:0:
352,96,41478,5,8,0:0:0:0:
160,96,41645,5,0,0:0:0:0:
352,96,41978,5,8,0:0:0:0:
160,96,42312,5,0,0:0:0:0:
160,96,42478,5,0,0:0:0:0:
160,96,42562,5,0,0:0:0:0:
160,96,42645,5,0,0:0:0:0:
352,96,42812,5,8,0:0:0:0:
160,96,42978,5,0,0:0:0:0:
352,96,43312,5,8,0:0:0:0:
160,96,43645,5,0,0:0:0:0:
352,96,43812,5,8,0:0:0:0:
160,96,43978,5,0,0:0:0:0:
352,96,44312,5,8,0:0:0:0:
160,96,44645,5,0,0:0:0:0:
352,96,44812,5,8,0:0:0:0:
352,96,44895,5,8,0:0:0:0:
352,96,44978,5,8,0:0:0:0:
160,96,45145,5,0,0:0:0:0:
352,96,45312,5,12,0:0:0:0:
160,288,45645,5,4,0:0:0:0:
160,96,46312,5,0,0:0:0:0:
160,96,46478,5,0,0:0:0:0:
352,96,46645,5,8,0:0:0:0:
352,96,46812,5,8,0:0:0:0:
160,96,46978,5,0,0:0:0:0:
352,96,47312,5,8,0:0:0:0:
160,96,47645,5,0,0:0:0:0:
352,96,47812,5,8,0:0:0:0:
352,96,47895,5,8,0:0:0:0:
352,96,47978,5,8,0:0:0:0:
352,96,48145,5,8,0:0:0:0:
160,96,48312,5,0,0:0:0:0:
352,96,48645,5,8,0:0:0:0:
160,96,48978,5,0,0:0:0:0:
352,96,49145,5,8,0:0:0:0:
160,96,49312,5,0,0:0:0:0:
352,96,49645,5,8,0:0:0:0:
160,96,49978,5,0,0:0:0:0:
352,96,50145,5,8,0:0:0:0:
160,96,50312,5,0,0:0:0:0:
160,96,50395,5,0,0:0:0:0:
160,96,50478,5,0,0:0:0:0:
352,96,50645,5,8,0:0:0:0:
160,96,50978,5,0,0:0:0:0:
160,96,51645,5,0,0:0:0:0:
160,96,51812,5,0,0:0:0:0:
352,96,51978,5,8,0:0:0:0:
352,96,52145,5,8,0:0:0:0:
160,96,52312,5,0,0:0:0:0:
352,96,52645,5,8,0:0:0:0:
160,96,52978,5,0,0:0:0:0:
352,96,53145,5,8,0:0:0:0:
352,96,53228,5,8,0:0:0:0:
352,96,53312,5,8,0:0:0:0:
352,96,53478,5,8,0:0:0:0:
160,288,53645,5,4,0:0:0:0:
352,96,53978,5,8,0:0:0:0:
352,96,54312,5,8,0:0:0:0:
160,96,54478,5,0,0:0:0:0:
352,96,54645,5,8,0:0:0:0:
352,96,54812,5,8,0:0:0:0:
352,96,54895,5,8,0:0:0:0:
352,96,54978,5,8,0:0:0:0:
160,96,55145,5,0,0:0:0:0:
352,96,55312,5,8,0:0:0:0:
160,96,55478,5,0,0:0:0:0:
352,288,55978,5,12,0:0:0:0:
160,288,56312,5,4,0:0:0:0:
160,96,56645,5,0,0:0:0:0:
352,96,56978,5,8,0:0:0:0:
352,96,57228,5,8,0:0:0:0:
352,96,57478,5,8,0:0:0:0:
160,96,57645,5,0,0:0:0:0:
160,96,57978,5,0,0:0:0:0:
352,96,58312,5,8,0:0:0:0:
352,96,58478,5,8,0:0:0:0:
352,96,58562,5,8,0:0:0:0:
352,96,58978,5,8,0:0:0:0:
352,96,59312,5,8,0:0:0:0:
352,96,59478,5,8,0:0:0:0:
160,96,59645,5,0,0:0:0:0:
352,96,59978,5,0,0:0:0:0:
352,96,60312,5,8,0:0:0:0:
160,96,60478,5,0,0:0:0:0:
160,96,60645,5,0,0:0:0:0:
160,96,60812,5,0,0:0:0:0:
352,96,60978,5,8,0:0:0:0:
160,96,61645,5,0,0:0:0:0:
160,96,61978,5,0,0:0:0:0:
352,96,62312,5,8,0:0:0:0:
352,96,62562,5,8,0:0:0:0:
352,96,62812,5,8,0:0:0:0:
160,96,62978,5,0,0:0:0:0:
160,96,63312,5,0,0:0:0:0:
352,96,63645,5,8,0:0:0:0:
352,96,63812,5,8,0:0:0:0:
352,96,63895,5,8,0:0:0:0:
352,96,64312,5,8,0:0:0:0:
352,96,64645,5,8,0:0:0:0:
352,96,64812,5,8,0:0:0:0:
160,96,64978,5,0,0:0:0:0:
160,96,65312,5,0,0:0:0:0:
352,96,65645,5,8,0:0:0:0:
352,96,65812,5,8,0:0:0:0:
160,96,65978,5,0,0:0:0:0:
160,96,66145,5,0,0:0:0:0:
352,96,66312,5,8,0:0:0:0:
160,288,66978,5,4,0:0:0:0:
352,96,67312,5,8,0:0:0:0:
160,96,67645,5,0,0:0:0:0:
352,96,67895,5,8,0:0:0:0:
160,96,68145,5,0,0:0:0:0:
160,96,68312,5,0,0:0:0:0:
352,96,68645,5,8,0:0:0:0:
160,96,68978,5,0,0:0:0:0:
352,96,69145,5,8,0:0:0:0:
352,96,69228,5,8,0:0:0:0:
352,96,69645,5,8,0:0:0:0:
160,96,69812,5,0,0:0:0:0:
352,96,69978,5,8,0:0:0:0:
352,96,70145,5,8,0:0:0:0:
160,96,70312,5,0,0:0:0:0:
352,96,70645,5,8,0:0:0:0:
160,96,70978,5,0,0:0:0:0:
352,96,71145,5,8,0:0:0:0:
352,96,71312,5,8,0:0:0:0:
160,96,71478,5,0,0:0:0:0:
352,96,71645,5,8,0:0:0:0:
160,96,72312,5,0,0:0:0:0:
352,96,72645,5,8,0:0:0:0:
160,96,72978,5,0,0:0:0:0:
352,96,73228,5,8,0:0:0:0:
160,96,73478,5,0,0:0:0:0:
160,96,73645,5,0,0:0:0:0:
352,96,73978,5,8,0:0:0:0:
160,96,74312,5,0,0:0:0:0:
352,96,74478,5,8,0:0:0:0:
352,96,74562,5,8,0:0:0:0:
352,96,74978,5,8,0:0:0:0:
160,96,75145,5,0,0:0:0:0:
352,96,75312,5,8,0:0:0:0:
352,96,75478,5,8,0:0:0:0:
160,96,75645,5,0,0:0:0:0:
160,96,75728,5,0,0:0:0:0:
160,96,75812,5,0,0:0:0:0:
352,96,75978,5,8,0:0:0:0:
160,96,76312,5,0,0:0:0:0:
352,96,76478,5,8,0:0:0:0:
352,96,76645,5,8,0:0:0:0:
160,96,76812,5,0,0:0:0:0:
352,96,76978,5,8,0:0:0:0:
160,288,77645,5,4,0:0:0:0:
352,96,77812,5,8,0:0:0:0:
352,96,77895,5,8,0:0:0:0:
352,96,77978,5,8,0:0:0:0:
160,96,78312,5,0,0:0:0:0:
352,96,78478,5,8,0:0:0:0:
352,96,78562,5,8,0:0:0:0:
352,96,78645,5,8,0:0:0:0:
160,96,78978,5,0,0:0:0:0:
352,96,79145,5,8,0:0:0:0:
352,96,79228,5,8,0:0:0:0:
352,96,79312,5,8,0:0:0:0:
352,96,79478,5,8,0:0:0:0:
160,96,79645,5,0,0:0:0:0:
352,96,79978,5,8,0:0:0:0:
160,96,80312,5,0,0:0:0:0:
160,96,80395,5,0,0:0:0:0:
160,96,80478,5,0,0:0:0:0:
352,96,80645,5,8,0:0:0:0:
352,96,80978,5,8,0:0:0:0:
352,96,81062,5,8,0:0:0:0:
352,96,81145,5,8,0:0:0:0:
160,96,81312,5,0,0:0:0:0:
352,96,81645,5,8,0:0:0:0:
352,96,81895,5,0,0:0:0:0:
160,96,81978,5,0,0:0:0:0:
352,96,82145,5,0,0:0:0:0:
160,96,82312,5,8,0:0:0:0:
352,96,82812,5,8,0:0:0:0:
160,96,82978,5,0,0:0:0:0:
352,96,83228,5,8,0:0:0:0:
352,96,83478,5,8,0:0:0:0:
352,96,83728,5,8,0:0:0:0:
352,96,83812,5,8,0:0:0:0:
352,96,83978,5,8,0:0:0:0:
160,96,84312,5,0,0:0:0:0:
352,96,84478,5,8,0:0:0:0:
352,96,84562,5,8,0:0:0:0:
352,96,84645,5,8,0:0:0:0:
160,96,84978,5,0,0:0:0:0:
160,96,85145,5,0,0:0:0:0:
160,96,85228,5,0,0:0:0:0:
160,96,85312,5,0,0:0:0:0:
160,96,85645,5,0,0:0:0:0:
160,96,85978,5,0,0:0:0:0:
352,96,86145,5,8,0:0:0:0:
160,96,86312,5,0,0:0:0:0:
352,96,86645,5,8,0:0:0:0:
160,96,86978,5,0,0:0:0:0:
352,96,87145,5,8,0:0:0:0:
160,96,87312,5,0,0:0:0:0:
352,96,87478,5,8,0:0:0:0:
160,96,87645,5,0,0:0:0:0:
352,96,88312,5,8,0:0:0:0:
352,96,88395,5,8,0:0:0:0:
352,96,88478,5,8,0:0:0:0:
160,96,88645,5,0,0:0:0:0:
352,96,88978,5,8,0:0:0:0:
352,96,89312,5,8,0:0:0:0:
352,96,89478,5,8,0:0:0:0:
160,96,89645,5,0,0:0:0:0:
352,96,89812,5,8,0:0:0:0:
352,96,90062,5,8,0:0:0:0:
352,96,90145,5,8,0:0:0:0:
352,96,90312,5,8,0:0:0:0:
352,96,90645,5,8,0:0:0:0:
352,96,90812,5,0,0:0:0:0:
160,96,90978,5,8,0:0:0:0:
160,96,91062,5,8,0:0:0:0:
160,96,91145,5,8,0:0:0:0:
352,96,91312,5,0,0:0:0:0:
352,96,91645,5,0,0:0:0:0:
352,96,91728,5,0,0:0:0:0:
352,96,91812,5,0,0:0:0:0:
160,96,91978,5,8,0:0:0:0:
160,96,92312,5,0,0:0:0:0:
160,96,92645,5,0,0:0:0:0:
352,96,92812,5,8,0:0:0:0:
160,96,92978,5,0,0:0:0:0:
160,96,93062,5,0,0:0:0:0:
160,96,93145,5,0,0:0:0:0:
352,96,93312,5,8,0:0:0:0:
160,96,93645,5,0,0:0:0:0:
160,96,94145,5,0,0:0:0:0:
352,96,94312,5,8,0:0:0:0:
352,96,94645,5,8,0:0:0:0:
160,96,94978,5,0,0:0:0:0:
352,96,95145,5,8,0:0:0:0:
352,96,95228,5,8,0:0:0:0:
352,96,95312,5,8,0:0:0:0:
352,96,95478,5,8,0:0:0:0:
160,96,95645,5,0,0:0:0:0:
352,96,95978,5,8,0:0:0:0:
160,96,96312,5,0,0:0:0:0:
160,96,96478,5,0,0:0:0:0:
352,96,96645,5,8,0:0:0:0:
160,96,96978,5,0,0:0:0:0:
352,96,97145,5,8,0:0:0:0:
352,96,97312,5,8,0:0:0:0:
352,96,97645,5,8,0:0:0:0:
352,96,97812,5,8,0:0:0:0:
160,96,97978,5,0,0:0:0:0:
160,96,98145,5,0,0:0:0:0:
160,96,98312,5,0,0:0:0:0:
352,96,98645,5,8,0:0:0:0:
160,288,98978,5,4,0:0:0:0:
160,96,99645,5,0,0:0:0:0:
160,96,99812,5,0,0:0:0:0:
352,96,99978,5,8,0:0:0:0:
352,96,100145,5,8,0:0:0:0:
160,96,100312,5,0,0:0:0:0:
352,96,100645,5,8,0:0:0:0:
160,96,100978,5,0,0:0:0:0:
160,96,101145,5,0,0:0:0:0:
160,96,101228,5,0,0:0:0:0:
160,96,101312,5,0,0:0:0:0:
352,96,101478,5,8,0:0:0:0:
160,96,101645,5,0,0:0:0:0:
352,96,101978,5,8,0:0:0:0:
160,96,102312,5,0,0:0:0:0:
352,96,102478,5,8,0:0:0:0:
160,96,102645,5,0,0:0:0:0:
352,96,102978,5,8,0:0:0:0:
160,96,103312,5,0,0:0:0:0:
352,96,103478,5,8,0:0:0:0:
160,96,103645,5,0,0:0:0:0:
160,96,103812,5,0,0:0:0:0:
352,96,103978,5,8,0:0:0:0:
160,96,104312,5,0,0:0:0:0:
160,96,104978,5,0,0:0:0:0:
160,96,105145,5,0,0:0:0:0:
352,96,105312,5,8,0:0:0:0:
352,96,105478,5,8,0:0:0:0:
160,96,105645,5,0,0:0:0:0:
352,96,105978,5,8,0:0:0:0:
160,96,106312,5,0,0:0:0:0:
160,96,106478,5,0,0:0:0:0:
160,96,106562,5,0,0:0:0:0:
160,96,106645,5,0,0:0:0:0:
352,96,106812,5,8,0:0:0:0:
160,96,106978,5,0,0:0:0:0:
352,96,107312,5,8,0:0:0:0:
160,96,107645,5,0,0:0:0:0:
352,96,107812,5,8,0:0:0:0:
160,96,107978,5,0,0:0:0:0:
352,96,108312,5,8,0:0:0:0:
160,96,108645,5,0,0:0:0:0:
352,96,108812,5,8,0:0:0:0:
352,96,108895,5,8,0:0:0:0:
352,96,108978,5,8,0:0:0:0:
160,96,109145,5,0,0:0:0:0:
352,96,109312,5,12,0:0:0:0:
160,288,109645,5,4,0:0:0:0:
160,96,110312,5,0,0:0:0:0:
160,96,110478,5,0,0:0:0:0:
352,96,110645,5,8,0:0:0:0:
352,96,110812,5,8,0:0:0:0:
160,96,110978,5,0,0:0:0:0:
352,96,111312,5,8,0:0:0:0:
160,96,111645,5,0,0:0:0:0:
352,96,111812,5,8,0:0:0:0:
352,96,111895,5,8,0:0:0:0:
352,96,111978,5,8,0:0:0:0:
352,96,112145,5,8,0:0:0:0:
160,96,112312,5,0,0:0:0:0:
352,96,112645,5,8,0:0:0:0:
160,96,112978,5,0,0:0:0:0:
352,96,113145,5,8,0:0:0:0:
160,96,113312,5,0,0:0:0:0:
352,96,113645,5,8,0:0:0:0:
160,96,113978,5,0,0:0:0:0:
352,96,114145,5,8,0:0:0:0:
160,96,114312,5,0,0:0:0:0:
160,96,114395,5,0,0:0:0:0:
160,96,114478,5,0,0:0:0:0:
352,96,114645,5,8,0:0:0:0:
160,96,114978,5,0,0:0:0:0:
160,96,115645,5,0,0:0:0:0:
160,96,115812,5,0,0:0:0:0:
352,96,115978,5,8,0:0:0:0:
352,96,116145,5,8,0:0:0:0:
160,96,116312,5,0,0:0:0:0:
352,96,116645,5,8,0:0:0:0:
160,96,116978,5,0,0:0:0:0:
352,96,117145,5,8,0:0:0:0:
352,96,117228,5,8,0:0:0:0:
352,96,117312,5,8,0:0:0:0:
352,96,117478,5,8,0:0:0:0:
160,288,117645,5,4,0:0:0:0:
352,96,117978,5,8,0:0:0:0:
352,96,118312,5,8,0:0:0:0:
160,96,118478,5,0,0:0:0:0:
352,96,118645,5,8,0:0:0:0:
352,96,118812,5,8,0:0:0:0:
352,96,118895,5,8,0:0:0:0:
352,96,118978,5,8,0:0:0:0:
160,96,119145,5,0,0:0:0:0:
352,96,119312,5,8,0:0:0:0:
160,96,119478,5,0,0:0:0:0:
352,288,119978,5,12,0:0:0:0:
160,288,120312,5,4,0:0:0:0:
352,96,120645,5,8,0:0:0:0:
352,96,120978,5,8,0:0:0:0:
352,96,121062,5,8,0:0:0:0:
352,96,121145,5,8,0:0:0:0:
352,96,121312,5,8,0:0:0:0:
352,96,121645,5,8,0:0:0:0:
352,96,121978,5,8,0:0:0:0:
352,96,122145,5,8,0:0:0:0:
