osu file format v14

[General]
AudioFilename: audio.mp3
AudioLeadIn: 0
PreviewTime: 34895
Countdown: 0
SampleSet: Normal
StackLeniency: 0.7
Mode: 1
LetterboxInBreaks: 0
WidescreenStoryboard: 0

[Editor]
Bookmarks: 2980,13646,24313,34980,56313,66980,77646,98980
DistanceSpacing: 1.2
BeatDivisor: 2
GridSize: 16
TimelineZoom: 0.6999997

[Metadata]
Title:Unwelcome School
TitleUnicode:Unwelcome School
Artist:Mitsukiyo
ArtistUnicode:ミツキヨ
Creator:komasy
Version:Kantan
Source:ブルーアーカイブ -Blue Archive-
Tags:Instrumental Electronic Video Game ブルアカ BuruAka NET Games NEXON Yostar Soundtrack
BeatmapID:3455631
BeatmapSetID:1691024

[Difficulty]
HPDrainRate:8
CircleSize:7
OverallDifficulty:3
ApproachRate:10
SliderMultiplier:1.4
SliderTickRate:1

[Events]
//Background and Video events
0,0,"90302596_p0.jpg",0,30
//Break Periods
//Storyboard Layer 0 (Background)
//Storyboard Layer 1 (Fail)
//Storyboard Layer 2 (Pass)
//Storyboard Layer 3 (Foreground)
//Storyboard Layer 4 (Overlay)
//Storyboard Sound Samples

[TimingPoints]
2979,333.333333333333,4,1,0,30,1,0
10958,-100,4,1,0,60,0,0
13624,-100,4,1,0,90,0,0
13645,-100,4,1,0,90,0,1
34645,-100,4,1,0,90,0,0
34978,-100,4,1,0,90,0,1
53645,-100,4,1,0,90,0,0
53728,-100,4,1,0,60,0,0
66895,-100,4,1,0,80,0,0
77562,-100,4,1,0,90,0,0
77645,-100,4,1,0,90,0,1
98645,-100,4,1,0,90,0,0
98978,-100,4,1,0,90,0,1
117645,-100,4,1,0,90,0,0
117728,-100,4,1,0,60,0,0
120228,-100,4,1,0,50,0,0

[HitObjects]
352,96,10978,5,8,0:0:0:0:
352,96,11645,5,8,0:0:0:0:
160,96,12312,5,0,0:0:0:0:
160,96,12645,5,0,0:0:0:0:
352,96,12978,5,8,0:0:0:0:
160,288,13645,5,4,0:0:0:0:
352,96,14312,5,8,0:0:0:0:
160,96,14978,5,0,0:0:0:0:
352,96,15312,5,8,0:0:0:0:
160,96,15645,5,0,0:0:0:0:
352,96,16312,5,8,0:0:0:0:
352,96,17312,5,8,0:0:0:0:
160,96,17645,5,0,0:0:0:0:
160,96,17978,5,0,0:0:0:0:
352,96,18312,5,8,0:0:0:0:
160,96,18978,5,0,0:0:0:0:
352,96,19645,5,8,0:0:0:0:
160,96,20312,5,0,0:0:0:0:
352,96,20645,5,8,0:0:0:0:
160,96,20978,5,0,0:0:0:0:
352,96,21645,5,8,0:0:0:0:
160,96,22312,5,0,0:0:0:0:
352,96,22978,5,8,0:0:0:0:
352,96,23312,5,8,0:0:0:0:
352,96,23645,5,8,0:0:0:0:
160,96,24312,5,4,0:0:0:0:
352,96,24978,5,8,0:0:0:0:
160,96,25645,5,0,0:0:0:0:
352,96,25978,5,8,0:0:0:0:
160,96,26312,5,0,0:0:0:0:
352,96,26978,5,8,0:0:0:0:
352,96,27978,5,8,0:0:0:0:
160,96,28312,5,0,0:0:0:0:
160,96,28645,5,0,0:0:0:0:
352,96,28978,5,8,0:0:0:0:
160,96,29645,5,0,0:0:0:0:
352,96,30312,5,8,0:0:0:0:
160,96,30978,5,0,0:0:0:0:
352,96,31312,5,8,0:0:0:0:
160,96,31645,5,0,0:0:0:0:
352,96,32312,5,8,0:0:0:0:
160,96,32978,5,0,0:0:0:0:
160,96,33312,5,0,0:0:0:0:
352,96,33645,5,8,0:0:0:0:
352,96,33978,5,8,0:0:0:0:
352,96,34312,5,8,0:0:0:0:
160,288,34978,5,4,0:0:0:0:
352,96,35978,5,8,0:0:0:0:
160,96,36312,5,0,0:0:0:0:
352,96,36978,5,8,0:0:0:0:
160,96,37645,5,0,0:0:0:0:
352,96,37978,5,8,0:0:0:0:
352,96,38312,5,8,0:0:0:0:
160,96,38978,5,0,0:0:0:0:
160,96,39312,5,0,0:0:0:0:
352,96,39645,5,8,0:0:0:0:
352,96,39978,5,8,0:0:0:0:
160,96,40312,5,0,0:0:0:0:
352,96,41312,5,8,0:0:0:0:
160,96,41645,5,0,0:0:0:0:
352,96,42312,5,8,0:0:0:0:
160,96,42978,5,0,0:0:0:0:
352,96,43312,5,8,0:0:0:0:
160,96,43645,5,0,0:0:0:0:
352,96,44312,5,8,0:0:0:0:
160,96,44645,5,0,0:0:0:0:
352,96,44978,5,8,0:0:0:0:
352,96,45312,5,8,0:0:0:0:
160,288,45645,5,4,0:0:0:0:
352,96,46645,5,8,0:0:0:0:
160,96,46978,5,0,0:0:0:0:
352,96,47645,5,8,0:0:0:0:
160,96,48312,5,0,0:0:0:0:
352,96,48645,5,8,0:0:0:0:
352,96,48978,5,8,0:0:0:0:
160,96,49645,5,0,0:0:0:0:
160,96,49978,5,0,0:0:0:0:
352,96,50312,5,8,0:0:0:0:
352,96,50645,5,8,0:0:0:0:
160,96,50978,5,0,0:0:0:0:
352,96,51978,5,8,0:0:0:0:
160,96,52312,5,0,0:0:0:0:
352,96,52978,5,8,0:0:0:0:
352,96,53312,5,8,0:0:0:0:
160,288,53645,5,4,0:0:0:0:
352,96,54312,5,8,0:0:0:0:
352,96,54978,5,8,0:0:0:0:
352,96,55478,5,8,0:0:0:0:
352,288,55978,5,12,0:0:0:0:
160,288,56312,5,4,0:0:0:0:
351,94,56978,5,8,0:0:0:0:
160,96,57645,5,0,0:0:0:0:
160,96,58312,5,0,0:0:0:0:
352,96,58978,5,8,0:0:0:0:
160,96,59978,5,8,0:0:0:0:
160,96,60312,5,0,0:0:0:0:
352,96,60978,5,8,0:0:0:0:
160,96,61645,5,0,0:0:0:0:
351,97,62312,5,8,0:0:0:0:
160,96,62978,5,0,0:0:0:0:
160,96,63645,5,0,0:0:0:0:
352,96,64312,5,8,0:0:0:0:
352,96,65312,5,0,0:0:0:0:
352,96,65645,5,8,0:0:0:0:
352,96,66312,5,8,0:0:0:0:
160,288,66978,5,4,0:0:0:0:
352,96,67978,5,8,0:0:0:0:
160,96,68312,5,0,0:0:0:0:
352,96,68978,5,8,0:0:0:0:
160,96,69312,5,0,0:0:0:0:
352,96,69645,5,8,0:0:0:0:
160,96,70312,5,0,0:0:0:0:
352,96,70978,5,8,0:0:0:0:
352,96,71312,5,8,0:0:0:0:
352,96,71645,5,8,0:0:0:0:
160,96,72312,5,0,0:0:0:0:
352,96,73312,5,8,0:0:0:0:
160,96,73645,5,0,0:0:0:0:
352,96,74312,5,8,0:0:0:0:
160,96,74645,5,0,0:0:0:0:
352,96,74978,5,8,0:0:0:0:
160,96,75645,5,0,0:0:0:0:
352,96,76312,5,8,0:0:0:0:
352,96,76645,5,8,0:0:0:0:
352,96,76978,5,8,0:0:0:0:
160,288,77645,5,4,0:0:0:0:
352,96,77978,5,8,0:0:0:0:
352,96,78645,5,8,0:0:0:0:
160,96,78978,5,0,0:0:0:0:
352,96,79312,5,8,0:0:0:0:
160,96,79645,5,0,0:0:0:0:
160,96,80312,5,0,0:0:0:0:
352,96,80978,5,8,0:0:0:0:
160,96,81312,5,0,0:0:0:0:
352,96,81645,5,8,0:0:0:0:
352,96,81978,5,8,0:0:0:0:
160,96,82312,5,0,0:0:0:0:
352,96,82978,5,8,0:0:0:0:
352,96,83978,5,8,0:0:0:0:
160,96,84312,5,0,0:0:0:0:
160,96,84645,5,0,0:0:0:0:
352,96,84978,5,8,0:0:0:0:
160,96,85645,5,0,0:0:0:0:
352,96,85978,5,8,0:0:0:0:
160,96,86312,5,0,0:0:0:0:
352,96,86978,5,8,0:0:0:0:
160,96,87312,5,0,0:0:0:0:
352,96,87645,5,8,0:0:0:0:
352,96,87978,5,8,0:0:0:0:
160,288,88312,5,4,0:0:0:0:
352,96,89312,5,8,0:0:0:0:
160,96,89645,5,0,0:0:0:0:
352,96,89978,5,8,0:0:0:0:
160,96,90312,5,0,0:0:0:0:
352,96,90978,5,8,0:0:0:0:
352,96,91312,5,8,0:0:0:0:
160,96,91645,5,0,0:0:0:0:
160,96,92312,5,0,0:0:0:0:
352,96,92645,5,8,0:0:0:0:
352,96,92978,5,8,0:0:0:0:
352,96,93312,5,8,0:0:0:0:
160,96,93645,5,0,0:0:0:0:
352,96,94645,5,8,0:0:0:0:
160,96,94978,5,0,0:0:0:0:
160,96,95312,5,0,0:0:0:0:
352,96,95645,5,8,0:0:0:0:
160,96,96312,5,0,0:0:0:0:
160,96,96645,5,8,0:0:0:0:
160,96,96978,5,0,0:0:0:0:
352,96,97645,5,8,0:0:0:0:
160,96,97978,5,0,0:0:0:0:
160,96,98312,5,0,0:0:0:0:
160,288,98978,5,4,0:0:0:0:
352,96,99978,5,8,0:0:0:0:
160,96,100312,5,0,0:0:0:0:
352,96,100978,5,8,0:0:0:0:
160,96,101645,5,0,0:0:0:0:
352,96,101978,5,8,0:0:0:0:
352,96,102312,5,8,0:0:0:0:
160,96,102978,5,0,0:0:0:0:
160,96,103312,5,0,0:0:0:0:
352,96,103645,5,8,0:0:0:0:
352,96,103978,5,8,0:0:0:0:
160,96,104312,5,0,0:0:0:0:
352,96,105312,5,8,0:0:0:0:
160,96,105645,5,0,0:0:0:0:
352,96,106312,5,8,0:0:0:0:
160,96,106978,5,0,0:0:0:0:
352,96,107312,5,8,0:0:0:0:
160,96,107645,5,0,0:0:0:0:
352,96,108312,5,8,0:0:0:0:
160,96,108645,5,0,0:0:0:0:
352,96,108978,5,8,0:0:0:0:
352,96,109312,5,8,0:0:0:0:
160,288,109645,5,4,0:0:0:0:
352,96,110645,5,8,0:0:0:0:
160,96,110978,5,0,0:0:0:0:
352,96,111645,5,8,0:0:0:0:
160,96,112312,5,0,0:0:0:0:
352,96,112645,5,8,0:0:0:0:
352,96,112978,5,8,0:0:0:0:
160,96,113645,5,0,0:0:0:0:
160,96,113978,5,0,0:0:0:0:
352,96,114312,5,8,0:0:0:0:
352,96,114645,5,8,0:0:0:0:
160,96,114978,5,0,0:0:0:0:
352,96,115978,5,8,0:0:0:0:
160,96,116312,5,0,0:0:0:0:
352,96,116978,5,8,0:0:0:0:
352,96,117312,5,8,0:0:0:0:
160,288,117645,5,4,0:0:0:0:
352,96,118312,5,8,0:0:0:0:
352,96,118978,5,8,0:0:0:0:
352,96,119478,5,8,0:0:0:0:
352,288,119978,5,12,0:0:0:0:
160,288,120312,5,4,0:0:0:0:
352,96,120978,5,8,0:0:0:0:
352,96,121645,5,8,0:0:0:0:
352,96,122145,5,8,0:0:0:0:
