osu file format v14

[General]
AudioFilename: audio.mp3
AudioLeadIn: 0
PreviewTime:115835
Countdown: 0
SampleSet: Soft
StackLeniency: 0.4
Mode: 0
LetterboxInBreaks: 0
WidescreenStoryboard: 1

[Editor]
Bookmarks: 2894,14188,25482,36776,48070,59364,70658,81952,93246,104541,115835,118658,127129,138423,149717
DistanceSpacing: 0.8
BeatDivisor: 4
GridSize: 16
TimelineZoom: 1.799999

[Metadata]
Title:Rolling Beat
TitleUnicode:Rolling Beat
Artist:Mitsukiyo
ArtistUnicode:ミツキヨ
Creator:too
Version:L1gHT's Light Insane
Source:ブルーアーカイブ -Blue Archive-
Tags:ブルアカ future bass instrumental electronic video game yostar nat games simple tech BaAR_Vendel light_u l1ght_u -hitomi amateurre tsukinyuni lecandy onegai shizuku- shikibe mayu kazato asa flame haze newton- ifinixe kyuuchie nagaraia midorijeon
BeatmapID:3217710
BeatmapSetID:1367155

[Difficulty]
HPDrainRate:4.5
CircleSize:3.8
OverallDifficulty:8
ApproachRate:8.4
SliderMultiplier:1.4
SliderTickRate:1

[Events]
//Background and Video events
0,0,"bg.jpg",0,0
//Break Periods
2,70858,80541
//Storyboard Layer 0 (Background)
//Storyboard Layer 1 (Fail)
//Storyboard Layer 2 (Pass)
//Storyboard Layer 3 (Foreground)
//Storyboard Layer 4 (Overlay)
//Storyboard Sound Samples

[TimingPoints]
70,352.941176470588,4,2,1,40,1,0
2894,-166.666666666667,4,2,1,52,0,0
4305,-166.666666666667,4,2,2,52,0,0
14188,-125,4,2,1,64,0,0
14541,-125,4,2,2,64,0,0
15776,-125,4,2,1,64,0,0
15952,-125,4,2,2,64,0,0
18599,-125,4,2,1,64,0,0
18776,-125,4,2,2,64,0,0
19526,-125,4,2,3,64,0,0
19658,-125,4,2,2,64,0,0
19702,-125,4,2,3,64,0,0
19835,-125,4,2,2,64,0,0
21423,-125,4,2,1,64,0,0
21599,-125,4,2,2,64,0,0
24070,-125,4,2,3,64,0,0
24246,-125,4,2,4,64,0,0
24776,-125,4,2,5,64,0,0
24864,-125,4,2,4,64,0,0
25129,-125,4,2,6,64,0,0
25173,-125,4,2,3,64,0,0
25305,-125,4,2,2,64,0,0
25349,-125,4,2,3,64,0,0
25482,-90.9090909090909,4,2,3,70,0,0
25658,-90.9090909090909,4,2,2,70,0,0
25746,-90.9090909090909,4,2,7,70,0,0
25835,-90.9090909090909,4,2,2,70,0,0
26011,-90.9090909090909,4,2,1,70,0,0
26188,-90.9090909090909,4,2,2,70,0,0
26364,-90.9090909090909,4,2,7,70,0,0
26541,-90.9090909090909,4,2,1,70,0,0
26629,-90.9090909090909,4,2,7,70,0,0
26717,-90.9090909090909,4,2,1,70,0,0
26805,-90.9090909090909,4,2,7,70,0,0
26893,-90.9090909090909,4,2,2,70,0,0
27070,-90.9090909090909,4,2,1,70,0,0
27158,-90.9090909090909,4,2,7,70,0,0
27246,-90.9090909090909,4,2,1,70,0,0
27423,-90.9090909090909,4,2,7,70,0,0
27599,-90.9090909090909,4,2,1,70,0,0
27776,-90.9090909090909,4,2,2,70,0,0
27996,-90.9090909090909,4,2,3,70,0,0
28129,-90.9090909090909,4,2,2,70,0,0
28173,-90.9090909090909,4,2,3,70,0,0
28305,-90.9090909090909,4,2,2,70,0,0
28570,-90.9090909090909,4,2,7,70,0,0
28658,-90.9090909090909,4,2,2,70,0,0
28835,-90.9090909090909,4,2,1,70,0,0
29011,-90.9090909090909,4,2,2,70,0,0
29188,-90.9090909090909,4,2,7,70,0,0
29364,-90.9090909090909,4,2,1,70,0,0
29452,-90.9090909090909,4,2,7,70,0,0
29541,-90.9090909090909,4,2,1,70,0,0
29629,-90.9090909090909,4,2,7,70,0,0
29717,-90.9090909090909,4,2,2,70,0,0
29982,-90.9090909090909,4,2,7,70,0,0
30070,-90.9090909090909,4,2,2,70,0,0
30246,-90.9090909090909,4,2,7,70,0,0
30423,-90.9090909090909,4,2,1,70,0,0
30511,-90.9090909090909,4,2,2,70,0,0
30820,-90.9090909090909,4,2,3,70,0,0
30864,-90.9090909090909,4,2,2,70,0,0
30996,-90.9090909090909,4,2,3,70,0,0
31041,-90.9090909090909,4,2,2,70,0,0
31129,-90.9090909090909,4,2,3,70,0,0
31305,-90.9090909090909,4,2,2,70,0,0
31393,-90.9090909090909,4,2,7,70,0,0
31482,-90.9090909090909,4,2,2,70,0,0
31658,-90.9090909090909,4,2,1,70,0,0
31835,-90.9090909090909,4,2,2,70,0,0
32011,-90.9090909090909,4,2,7,70,0,0
32188,-90.9090909090909,4,2,1,70,0,0
32276,-90.9090909090909,4,2,7,70,0,0
32364,-90.9090909090909,4,2,1,70,0,0
32452,-90.9090909090909,4,2,7,70,0,0
32541,-90.9090909090909,4,2,2,70,0,0
32717,-90.9090909090909,4,2,1,70,0,0
32805,-90.9090909090909,4,2,7,70,0,0
32893,-90.9090909090909,4,2,1,70,0,0
33070,-90.9090909090909,4,2,7,70,0,0
33246,-90.9090909090909,4,2,1,70,0,0
33423,-90.9090909090909,4,2,2,70,0,0
33643,-90.9090909090909,4,2,3,70,0,0
33776,-90.9090909090909,4,2,2,70,0,0
33820,-90.9090909090909,4,2,3,70,0,0
33952,-90.9090909090909,4,2,2,70,0,0
34217,-90.9090909090909,4,2,7,70,0,0
34305,-90.9090909090909,4,2,2,70,0,0
34482,-90.9090909090909,4,2,1,70,0,0
34658,-90.9090909090909,4,2,2,70,0,0
34835,-90.9090909090909,4,2,7,70,0,0
35011,-90.9090909090909,4,2,1,70,0,0
35099,-90.9090909090909,4,2,7,70,0,0
35188,-90.9090909090909,4,2,1,70,0,0
35276,-90.9090909090909,4,2,7,70,0,0
35364,-90.9090909090909,4,2,2,70,0,0
35408,-90.9090909090909,4,2,3,70,0,0
35541,-90.9090909090909,4,2,5,70,0,0
35629,-90.9090909090909,4,2,4,70,0,0
35717,-90.9090909090909,4,2,5,70,0,0
35805,-90.9090909090909,4,2,4,70,0,0
36070,-90.9090909090909,4,2,5,70,0,0
36423,-90.9090909090909,4,2,8,70,0,0
36511,-90.9090909090909,4,2,2,70,0,0
36776,-76.9230769230769,4,2,3,70,0,0
36952,-76.9230769230769,4,2,2,70,0,0
39291,-76.9230769230769,4,2,3,70,0,0
39423,-76.9230769230769,4,2,2,70,0,0
39467,-76.9230769230769,4,2,3,70,0,0
39599,-76.9230769230769,4,2,2,70,0,0
40658,-76.9230769230769,4,2,1,70,0,0
40746,-76.9230769230769,4,2,7,70,0,0
40835,-76.9230769230769,4,2,1,70,0,0
40923,-76.9230769230769,4,2,7,70,0,0
41011,-76.9230769230769,4,2,2,70,0,0
42114,-76.9230769230769,4,2,3,70,0,0
42158,-76.9230769230769,4,2,2,70,0,0
42291,-76.9230769230769,4,2,3,70,0,0
42688,-76.9230769230769,4,2,2,70,0,0
43658,-76.9230769230769,4,2,1,70,0,0
43835,-76.9230769230769,4,2,2,70,0,0
44982,-76.9230769230769,4,2,1,70,0,0
45070,-76.9230769230769,4,2,7,70,0,0
45246,-76.9230769230769,4,2,5,70,0,0
45952,-76.9230769230769,4,2,4,70,0,0
46041,-76.9230769230769,4,2,5,70,0,0
46217,-76.9230769230769,4,2,4,70,0,0
46482,-76.9230769230769,4,2,5,70,0,0
46658,-76.9230769230769,4,2,4,70,0,0
47364,-76.9230769230769,4,2,9,70,0,0
47408,-76.9230769230769,4,2,3,70,0,0
47452,-76.9230769230769,4,2,9,70,0,0
47585,-76.9230769230769,4,2,3,70,0,0
47629,-76.9230769230769,4,2,9,70,0,0
47717,-76.9230769230769,4,2,10,70,0,0
47805,-76.9230769230769,4,2,4,70,0,0
48070,-62.5,4,2,5,80,0,0
48246,-62.5,4,2,6,80,0,0
48423,-62.5,4,2,6,80,0,0
48511,-62.5,4,2,6,80,0,0
48776,-62.5,4,2,7,80,0,0
49129,-62.5,4,2,7,80,0,0
49217,-62.5,4,2,7,80,0,0
49835,-62.5,4,2,7,80,0,0
49923,-62.5,4,2,7,80,0,0
50541,-62.5,4,2,7,80,0,0
50629,-62.5,4,2,7,80,0,0
50893,-62.5,4,2,5,80,0,0
51070,-62.5,4,2,6,80,0,0
51246,-62.5,4,2,6,80,0,0
51335,-62.5,4,2,6,80,0,0
51599,-62.5,4,2,7,80,0,0
51952,-62.5,4,2,7,80,0,0
52041,-62.5,4,2,7,80,0,0
52658,-62.5,4,2,7,80,0,0
52746,-62.5,4,2,7,80,0,0
53364,-62.5,4,2,11,80,0,0
53408,-62.5,4,2,3,80,0,0
53717,-62.5,4,2,5,80,0,0
53893,-62.5,4,2,6,80,0,0
54070,-62.5,4,2,6,80,0,0
54158,-62.5,4,2,6,80,0,0
54423,-62.5,4,2,7,80,0,0
54776,-62.5,4,2,7,80,0,0
54864,-62.5,4,2,7,80,0,0
55482,-62.5,4,2,7,80,0,0
55570,-62.5,4,2,7,80,0,0
56188,-62.5,4,2,7,80,0,0
56276,-62.5,4,2,7,80,0,0
56541,-62.5,4,2,5,80,0,0
56717,-62.5,4,2,6,80,0,0
56893,-62.5,4,2,6,80,0,0
56982,-62.5,4,2,6,80,0,0
57246,-62.5,4,2,7,80,0,0
57599,-62.5,4,2,7,80,0,0
57688,-62.5,4,2,7,80,0,0
57952,-62.5,4,2,12,80,0,0
58041,-62.5,4,2,4,80,0,0
58305,-62.5,4,2,12,80,0,0
58393,-62.5,4,2,4,80,0,0
58658,-62.5,4,2,12,80,0,0
58746,-62.5,4,2,4,80,0,0
59011,-62.5,4,2,13,80,0,0
59055,-62.5,4,2,3,80,0,0
59364,-62.5,4,2,8,80,0,0
59541,-62.5,4,2,2,80,0,0
59717,-62.5,4,2,9,80,0,0
59805,-62.5,4,2,9,80,0,0
59893,-62.5,4,2,2,80,0,0
60070,-62.5,4,2,10,80,0,0
60335,-62.5,4,2,7,80,0,0
60423,-62.5,4,2,11,80,0,0
60511,-62.5,4,2,11,80,0,0
60599,-62.5,4,2,7,80,0,0
60776,-62.5,4,2,10,80,0,0
61041,-62.5,4,2,7,80,0,0
61129,-62.5,4,2,11,80,0,0
61217,-62.5,4,2,11,80,0,0
61305,-62.5,4,2,7,80,0,0
61482,-62.5,4,2,10,80,0,0
61835,-62.5,4,2,10,80,0,0
61923,-62.5,4,2,10,80,0,0
62188,-62.5,4,2,8,80,0,0
62364,-62.5,4,2,2,80,0,0
62541,-62.5,4,2,9,80,0,0
62629,-62.5,4,2,9,80,0,0
62717,-62.5,4,2,2,80,0,0
62893,-62.5,4,2,10,80,0,0
63158,-62.5,4,2,7,80,0,0
63246,-62.5,4,2,11,80,0,0
63335,-62.5,4,2,11,80,0,0
63423,-62.5,4,2,7,80,0,0
63599,-62.5,4,2,10,80,0,0
63864,-62.5,4,2,7,80,0,0
63952,-62.5,4,2,11,80,0,0
64041,-62.5,4,2,11,80,0,0
64129,-62.5,4,2,7,80,0,0
64305,-62.5,4,2,10,80,0,0
64658,-62.5,4,2,14,80,0,0
64702,-62.5,4,2,3,80,0,0
65011,-62.5,4,2,8,80,0,0
65188,-62.5,4,2,2,80,0,0
65364,-62.5,4,2,9,80,0,0
65452,-62.5,4,2,9,80,0,0
65541,-62.5,4,2,2,80,0,0
65717,-62.5,4,2,10,80,0,0
65982,-62.5,4,2,7,80,0,0
66070,-62.5,4,2,11,80,0,0
66158,-62.5,4,2,11,80,0,0
66246,-62.5,4,2,7,80,0,0
66423,-62.5,4,2,10,80,0,0
66688,-62.5,4,2,7,80,0,0
66776,-62.5,4,2,11,80,0,0
66864,-62.5,4,2,11,80,0,0
66952,-62.5,4,2,7,80,0,0
67129,-62.5,4,2,10,80,0,0
67482,-62.5,4,2,10,80,0,0
67570,-62.5,4,2,10,80,0,0
67835,-62.5,4,2,8,80,0,0
68011,-62.5,4,2,2,80,0,0
68188,-62.5,4,2,9,80,0,0
68276,-62.5,4,2,9,80,0,0
68364,-62.5,4,2,2,80,0,0
68541,-62.5,4,2,10,80,0,0
68805,-62.5,4,2,7,80,0,0
68893,-62.5,4,2,11,80,0,0
68982,-62.5,4,2,11,80,0,0
69070,-62.5,4,2,7,80,0,0
69246,-62.5,4,2,15,80,0,0
69335,-62.5,4,2,4,80,0,0
69599,-62.5,4,2,15,80,0,0
69688,-62.5,4,2,4,80,0,0
69952,-62.5,4,2,15,80,0,0
70041,-62.5,4,2,4,80,0,0
70305,-62.5,4,2,16,80,0,0
70349,-62.5,4,2,3,80,0,0
70658,-62.5,4,2,12,52,0,0
70923,-62.5,4,2,12,5,0,0
71011,-62.5,4,2,9,52,0,0
71188,-62.5,4,2,2,52,0,0
71364,-62.5,4,2,11,52,0,0
71541,-62.5,4,2,2,52,0,0
71717,-62.5,4,2,9,52,0,0
71893,-62.5,4,2,2,52,0,0
72070,-62.5,4,2,11,52,0,0
72246,-62.5,4,2,2,52,0,0
72423,-62.5,4,2,9,52,0,0
72511,-62.5,4,2,2,52,0,0
72776,-62.5,4,2,9,52,0,0
72952,-62.5,4,2,2,52,0,0
73129,-62.5,4,2,9,52,0,0
73305,-62.5,4,2,2,52,0,0
73482,-62.5,4,2,9,52,0,0
73746,-62.5,4,2,9,5,0,0
73835,-62.5,4,2,9,52,0,0
74011,-62.5,4,2,2,52,0,0
74188,-62.5,4,2,11,52,0,0
74364,-62.5,4,2,2,52,0,0
74541,-62.5,4,2,9,52,0,0
74717,-62.5,4,2,2,52,0,0
74893,-62.5,4,2,9,52,0,0
75158,-62.5,4,2,9,5,0,0
75246,-62.5,4,2,9,52,0,0
75511,-62.5,4,2,9,5,0,0
75599,-62.5,4,2,9,52,0,0
75864,-62.5,4,2,2,52,0,0
75952,-62.5,4,2,11,52,0,0
76129,-62.5,4,2,2,52,0,0
76305,-62.5,4,2,9,52,0,0
76570,-62.5,4,2,9,5,0,0
76658,-62.5,4,2,9,52,0,0
76835,-62.5,4,2,2,52,0,0
77011,-62.5,4,2,11,52,0,0
77188,-62.5,4,2,2,52,0,0
77364,-62.5,4,2,9,52,0,0
77541,-62.5,4,2,2,52,0,0
77717,-62.5,4,2,11,52,0,0
77893,-62.5,4,2,2,52,0,0
78070,-62.5,4,2,9,52,0,0
78158,-62.5,4,2,2,52,0,0
78423,-62.5,4,2,9,52,0,0
78599,-62.5,4,2,2,52,0,0
78776,-62.5,4,2,9,52,0,0
78952,-62.5,4,2,2,52,0,0
79129,-62.5,4,2,9,52,0,0
79393,-62.5,4,2,9,5,0,0
79482,-62.5,4,2,9,52,0,0
79658,-62.5,4,2,2,52,0,0
79835,-62.5,4,2,11,52,0,0
80011,-62.5,4,2,2,52,0,0
80188,-62.5,4,2,9,52,0,0
80364,-62.5,4,2,2,52,0,0
80541,-62.5,4,2,9,52,0,0
81511,-62.5,4,2,2,52,0,0
81599,-62.5,4,2,11,52,0,0
81776,-62.5,4,2,2,52,0,0
81952,-90.9090909090909,4,2,12,64,0,0
82305,-90.9090909090909,4,2,9,64,0,0
82482,-90.9090909090909,4,2,2,64,0,0
82658,-90.9090909090909,4,2,11,64,0,0
82835,-90.9090909090909,4,2,2,64,0,0
83011,-90.9090909090909,4,2,9,64,0,0
83188,-90.9090909090909,4,2,2,64,0,0
83364,-90.9090909090909,4,2,11,64,0,0
83541,-90.9090909090909,4,2,2,64,0,0
83717,-90.9090909090909,4,2,9,64,0,0
83805,-90.9090909090909,4,2,2,64,0,0
84070,-90.9090909090909,4,2,9,64,0,0
84246,-90.9090909090909,4,2,2,64,0,0
84423,-90.9090909090909,4,2,9,64,0,0
84599,-90.9090909090909,4,2,2,64,0,0
84776,-90.9090909090909,4,2,9,64,0,0
84952,-90.9090909090909,4,2,2,64,0,0
85129,-90.9090909090909,4,2,9,64,0,0
85305,-90.9090909090909,4,2,2,64,0,0
85482,-90.9090909090909,4,2,11,64,0,0
85658,-90.9090909090909,4,2,2,64,0,0
85835,-90.9090909090909,4,2,9,64,0,0
86011,-90.9090909090909,4,2,2,64,0,0
86188,-90.9090909090909,4,2,9,64,0,0
86364,-90.9090909090909,4,2,2,64,0,0
86541,-90.9090909090909,4,2,9,64,0,0
86629,-90.9090909090909,4,2,2,64,0,0
86893,-90.9090909090909,4,2,9,64,0,0
87070,-90.9090909090909,4,2,2,64,0,0
87246,-90.9090909090909,4,2,9,64,0,0
87423,-90.9090909090909,4,2,2,64,0,0
87599,-90.9090909090909,4,2,9,64,0,0
87776,-90.9090909090909,4,2,2,64,0,0
87952,-90.9090909090909,4,2,9,64,0,0
88129,-90.9090909090909,4,2,2,64,0,0
88305,-90.9090909090909,4,2,11,64,0,0
88482,-90.9090909090909,4,2,2,64,0,0
88658,-90.9090909090909,4,2,9,64,0,0
88835,-90.9090909090909,4,2,2,64,0,0
89011,-90.9090909090909,4,2,11,64,0,0
89188,-90.9090909090909,4,2,2,64,0,0
89364,-90.9090909090909,4,2,9,64,0,0
89452,-90.9090909090909,4,2,2,64,0,0
89717,-90.9090909090909,4,2,9,64,0,0
89893,-90.9090909090909,4,2,2,64,0,0
90070,-90.9090909090909,4,2,9,64,0,0
90246,-90.9090909090909,4,2,2,64,0,0
90423,-90.9090909090909,4,2,9,64,0,0
90952,-90.9090909090909,4,2,2,64,0,0
91129,-90.9090909090909,4,2,11,64,0,0
91305,-90.9090909090909,4,2,2,64,0,0
91482,-90.9090909090909,4,2,9,64,0,0
91658,-90.9090909090909,4,2,2,64,0,0
91835,-90.9090909090909,4,2,17,64,0,0
91879,-90.9090909090909,4,2,3,64,0,0
92011,-90.9090909090909,4,2,4,64,0,0
92188,-90.9090909090909,4,2,18,64,0,0
92276,-90.9090909090909,4,2,4,64,0,0
92541,-90.9090909090909,4,2,18,64,0,0
92629,-90.9090909090909,4,2,4,64,0,0
92805,-90.9090909090909,4,2,5,64,0,0
92893,-90.9090909090909,4,2,19,64,0,0
92982,-90.9090909090909,4,2,4,64,0,0
93070,-90.9090909090909,4,2,5,64,0,0
93158,-90.9090909090909,4,2,4,64,0,0
93246,-90.9090909090909,4,2,3,70,0,0
93423,-90.9090909090909,4,2,2,70,0,0
93511,-90.9090909090909,4,2,7,70,0,0
93599,-90.9090909090909,4,2,2,70,0,0
93776,-90.9090909090909,4,2,1,70,0,0
93952,-90.9090909090909,4,2,2,70,0,0
94129,-90.9090909090909,4,2,1,70,0,0
94393,-90.9090909090909,4,2,7,70,0,0
94482,-90.9090909090909,4,2,1,70,0,0
94570,-90.9090909090909,4,2,7,70,0,0
94658,-90.9090909090909,4,2,1,70,0,0
94923,-90.9090909090909,4,2,7,70,0,0
95011,-90.9090909090909,4,2,1,70,0,0
95099,-90.9090909090909,4,2,2,70,0,0
95188,-90.9090909090909,4,2,1,70,0,0
95276,-90.9090909090909,4,2,2,70,0,0
95364,-90.9090909090909,4,2,1,70,0,0
95541,-90.9090909090909,4,2,2,70,0,0
95761,-90.9090909090909,4,2,3,70,0,0
95893,-90.9090909090909,4,2,2,70,0,0
95938,-90.9090909090909,4,2,3,70,0,0
96070,-90.9090909090909,4,2,2,70,0,0
96335,-90.9090909090909,4,2,7,70,0,0
96423,-90.9090909090909,4,2,2,70,0,0
96599,-90.9090909090909,4,2,1,70,0,0
97217,-90.9090909090909,4,2,7,70,0,0
97305,-90.9090909090909,4,2,1,70,0,0
97393,-90.9090909090909,4,2,7,70,0,0
97482,-90.9090909090909,4,2,2,70,0,0
97746,-90.9090909090909,4,2,7,70,0,0
97835,-90.9090909090909,4,2,2,70,0,0
98011,-90.9090909090909,4,2,1,70,0,0
98099,-90.9090909090909,4,2,2,70,0,0
98188,-90.9090909090909,4,2,1,70,0,0
98276,-90.9090909090909,4,2,2,70,0,0
98585,-90.9090909090909,4,2,3,70,0,0
98629,-90.9090909090909,4,2,2,70,0,0
98761,-90.9090909090909,4,2,3,70,0,0
98805,-90.9090909090909,4,2,2,70,0,0
98893,-90.9090909090909,4,2,3,70,0,0
99070,-90.9090909090909,4,2,2,70,0,0
99158,-90.9090909090909,4,2,7,70,0,0
99246,-90.9090909090909,4,2,2,70,0,0
99423,-90.9090909090909,4,2,1,70,0,0
100041,-90.9090909090909,4,2,7,70,0,0
100129,-90.9090909090909,4,2,1,70,0,0
100217,-90.9090909090909,4,2,7,70,0,0
100305,-90.9090909090909,4,2,1,70,0,0
100570,-90.9090909090909,4,2,7,70,0,0
100658,-90.9090909090909,4,2,1,70,0,0
100746,-90.9090909090909,4,2,2,70,0,0
100835,-90.9090909090909,4,2,1,70,0,0
100923,-90.9090909090909,4,2,2,70,0,0
101011,-90.9090909090909,4,2,1,70,0,0
101188,-90.9090909090909,4,2,2,70,0,0
101408,-90.9090909090909,4,2,3,70,0,0
101541,-90.9090909090909,4,2,2,70,0,0
101585,-90.9090909090909,4,2,3,70,0,0
101717,-90.9090909090909,4,2,2,70,0,0
101982,-90.9090909090909,4,2,7,70,0,0
102070,-90.9090909090909,4,2,2,70,0,0
102246,-90.9090909090909,4,2,1,70,0,0
102864,-90.9090909090909,4,2,7,70,0,0
102952,-90.9090909090909,4,2,1,70,0,0
103041,-90.9090909090909,4,2,7,70,0,0
103129,-90.9090909090909,4,2,3,70,0,0
103305,-90.9090909090909,4,2,5,70,0,0
103393,-90.9090909090909,4,2,4,70,0,0
103482,-90.9090909090909,4,2,5,70,0,0
104188,-90.9090909090909,4,2,8,70,0,0
104276,-90.9090909090909,4,2,2,70,0,0
104541,-76.9230769230769,4,2,3,70,0,0
104717,-76.9230769230769,4,2,2,70,0,0
107055,-76.9230769230769,4,2,3,70,0,0
107188,-76.9230769230769,4,2,2,70,0,0
107232,-76.9230769230769,4,2,3,70,0,0
107364,-76.9230769230769,4,2,2,70,0,0
108423,-76.9230769230769,4,2,1,70,0,0
108511,-76.9230769230769,4,2,7,70,0,0
108599,-76.9230769230769,4,2,1,70,0,0
108688,-76.9230769230769,4,2,7,70,0,0
108776,-76.9230769230769,4,2,2,70,0,0
109879,-76.9230769230769,4,2,3,70,0,0
109923,-76.9230769230769,4,2,2,70,0,0
110055,-76.9230769230769,4,2,3,70,0,0
110452,-76.9230769230769,4,2,2,70,0,0
111423,-76.9230769230769,4,2,1,70,0,0
111599,-76.9230769230769,4,2,2,70,0,0
112746,-76.9230769230769,4,2,1,70,0,0
112835,-76.9230769230769,4,2,7,70,0,0
113011,-76.9230769230769,4,2,5,70,0,0
113717,-76.9230769230769,4,2,4,70,0,0
113805,-76.9230769230769,4,2,5,70,0,0
113982,-76.9230769230769,4,2,4,70,0,0
114246,-76.9230769230769,4,2,5,70,0,0
114423,-76.9230769230769,4,2,4,70,0,0
114776,-76.9230769230769,4,2,5,70,0,0
115129,-76.9230769230769,4,2,2,70,0,0
115173,-76.9230769230769,4,2,3,70,0,0
115217,-76.9230769230769,4,2,2,70,0,0
115349,-76.9230769230769,4,2,3,70,0,0
115393,-76.9230769230769,4,2,2,70,0,0
115835,-76.9230769230769,4,2,4,60,0,0
116541,-76.9230769230769,4,2,7,70,0,0
116717,-76.9230769230769,4,2,7,75,0,0
116893,-76.9230769230769,4,2,20,80,0,0
116982,-76.9230769230769,4,2,7,80,0,0
117246,-62.5,4,2,5,80,0,0
117511,-62.5,4,2,7,80,0,0
118658,-62.5,4,2,5,80,0,0
118835,-62.5,4,2,6,80,0,0
119011,-62.5,4,2,6,80,0,0
119099,-62.5,4,2,6,80,0,0
119364,-62.5,4,2,7,80,0,0
119717,-62.5,4,2,7,80,0,0
119805,-62.5,4,2,7,80,0,0
120423,-62.5,4,2,7,80,0,0
120511,-62.5,4,2,7,80,0,0
121129,-62.5,4,2,11,80,0,0
121173,-62.5,4,2,3,80,0,0
121482,-62.5,4,2,5,80,0,0
121658,-62.5,4,2,6,80,0,0
121835,-62.5,4,2,6,80,0,0
121923,-62.5,4,2,6,80,0,0
122188,-62.5,4,2,7,80,0,0
122541,-62.5,4,2,7,80,0,0
122629,-62.5,4,2,7,80,0,0
123246,-62.5,4,2,7,80,0,0
123335,-62.5,4,2,7,80,0,0
123952,-62.5,4,2,7,80,0,0
124041,-62.5,4,2,7,80,0,0
124305,-62.5,4,2,5,80,0,0
124482,-62.5,4,2,6,80,0,0
124658,-62.5,4,2,6,80,0,0
124746,-62.5,4,2,6,80,0,0
125011,-62.5,4,2,7,80,0,0
125364,-62.5,4,2,7,80,0,0
125452,-62.5,4,2,7,80,0,0
125717,-62.5,4,2,12,80,0,0
125805,-62.5,4,2,4,80,0,0
126070,-62.5,4,2,12,80,0,0
126158,-62.5,4,2,4,80,0,0
126423,-62.5,4,2,12,80,0,0
126511,-62.5,4,2,4,80,0,0
126776,-62.5,4,2,13,80,0,0
126820,-62.5,4,2,3,80,0,0
127129,-62.5,4,2,8,80,0,0
127305,-62.5,4,2,2,80,0,0
127482,-62.5,4,2,9,80,0,0
127570,-62.5,4,2,9,80,0,0
127658,-62.5,4,2,2,80,0,0
127835,-62.5,4,2,10,80,0,0
128099,-62.5,4,2,7,80,0,0
128188,-62.5,4,2,11,80,0,0
128276,-62.5,4,2,11,80,0,0
128364,-62.5,4,2,7,80,0,0
128496,-62.5,4,2,7,5,0,0
128541,-62.5,4,2,10,80,0,0
128805,-62.5,4,2,7,80,0,0
128893,-62.5,4,2,11,80,0,0
128982,-62.5,4,2,11,80,0,0
129070,-62.5,4,2,7,80,0,0
129246,-62.5,4,2,10,80,0,0
129599,-62.5,4,2,10,80,0,0
129688,-62.5,4,2,10,80,0,0
129952,-62.5,4,2,8,80,0,0
130129,-62.5,4,2,2,80,0,0
130305,-62.5,4,2,9,80,0,0
130393,-62.5,4,2,9,80,0,0
130482,-62.5,4,2,2,80,0,0
130658,-62.5,4,2,10,80,0,0
130923,-62.5,4,2,7,80,0,0
131011,-62.5,4,2,11,80,0,0
131099,-62.5,4,2,11,80,0,0
131188,-62.5,4,2,7,80,0,0
131364,-62.5,4,2,10,80,0,0
131629,-62.5,4,2,7,80,0,0
131717,-62.5,4,2,11,80,0,0
131805,-62.5,4,2,11,80,0,0
131893,-62.5,4,2,7,80,0,0
132070,-62.5,4,2,10,80,0,0
132423,-62.5,4,2,14,80,0,0
132445,-62.5,4,2,14,80,0,0
132467,-62.5,4,2,3,80,0,0
132776,-62.5,4,2,8,80,0,0
132952,-62.5,4,2,2,80,0,0
133129,-62.5,4,2,9,80,0,0
133217,-62.5,4,2,9,80,0,0
133305,-62.5,4,2,2,80,0,0
133482,-62.5,4,2,10,80,0,0
133746,-62.5,4,2,7,80,0,0
133835,-62.5,4,2,11,80,0,0
133923,-62.5,4,2,11,80,0,0
134011,-62.5,4,2,7,80,0,0
134143,-62.5,4,2,7,5,0,0
134188,-62.5,4,2,10,80,0,0
134452,-62.5,4,2,7,80,0,0
134541,-62.5,4,2,11,80,0,0
134629,-62.5,4,2,11,80,0,0
134717,-62.5,4,2,7,80,0,0
134893,-62.5,4,2,10,80,0,0
135246,-62.5,4,2,10,80,0,0
135335,-62.5,4,2,10,80,0,0
135599,-62.5,4,2,8,80,0,0
135776,-62.5,4,2,2,80,0,0
135952,-62.5,4,2,9,80,0,0
136041,-62.5,4,2,9,80,0,0
136129,-62.5,4,2,2,80,0,0
136305,-62.5,4,2,10,80,0,0
136570,-62.5,4,2,7,80,0,0
136658,-62.5,4,2,11,80,0,0
136746,-62.5,4,2,11,80,0,0
136835,-62.5,4,2,7,80,0,0
137011,-62.5,4,2,15,80,0,0
137099,-62.5,4,2,4,80,0,0
137364,-62.5,4,2,15,80,0,0
137452,-62.5,4,2,4,80,0,0
137717,-62.5,4,2,15,80,0,0
137805,-62.5,4,2,4,80,0,0
138070,-62.5,4,2,16,80,0,0
138114,-62.5,4,2,3,80,0,0
138423,-62.5,4,2,12,60,0,0
138776,-62.5,4,2,2,60,0,0
139129,-62.5,4,2,7,60,0,0
139305,-62.5,4,2,2,60,0,0
140011,-62.5,4,2,1,60,0,0
140188,-62.5,4,2,2,60,0,0
140541,-62.5,4,2,1,60,0,0
140717,-62.5,4,2,2,60,0,0
141952,-62.5,4,2,7,60,0,0
142129,-62.5,4,2,2,60,0,0
142835,-62.5,4,2,7,60,0,0
143717,-62.5,4,2,3,60,0,0
144423,-62.5,4,2,2,60,0,0
144776,-62.5,4,2,7,60,0,0
144952,-62.5,4,2,2,60,0,0
145658,-62.5,4,2,1,60,0,0
145835,-62.5,4,2,2,60,0,0
146188,-62.5,4,2,1,60,0,0
146364,-62.5,4,2,2,60,0,0
147599,-62.5,4,2,7,60,0,0
147776,-62.5,4,2,2,60,0,0
148129,-62.5,4,2,1,60,0,0

[Colours]
Combo1 : 0,128,255
Combo2 : 0,64,128
Combo3 : 0,255,255

[HitObjects]
81,88,2894,6,0,P|135:61|299:196,1,293.999991027832,6|0,1:2|0:0,0:0:0:0:
251,288,4305,2,0,P|197:315|33:180,1,293.999991027832,2|0,2:2|0:0,0:0:0:0:
166,188,5716,1,2,2:2:0:0:
96,334,7835,2,0,P|109:304|192:268,1,125.999996154785,2|0,2:2|0:0,0:0:0:0:
284,349,8541,6,0,B|383:372|391:284|484:316|484:316|420:325|398:364,1,293.999991027832,2|0,2:2|0:0,0:0:0:0:
344,159,9952,2,0,B|245:136|237:224|143:191|143:191|208:183|230:144,1,293.999991027832,2|0,2:2|0:0,0:0:0:0:
314,254,11364,1,2,2:2:0:0:
141,38,13129,6,0,L|131:66,3,20.9999993591309,2|2|2|2,2:2|2:2|2:2|2:2,0:0:0:0:
174,141,13482,1,2,2:2:0:0:
110,205,13658,1,2,2:2:0:0:
184,264,13835,1,2,2:2:0:0:
122,339,14011,1,2,2:2:0:0:
250,192,14188,6,0,P|305:173|366:184,1,112,6|2,1:2|2:2,0:0:0:0:
425,248,14717,2,0,P|420:277|421:313,1,56,2|8,2:2|2:2,0:0:0:0:
337,349,15070,1,2,2:2:0:0:
242,359,15246,2,0,P|212:360|172:366,1,56,2|2,2:2|2:2,0:0:0:0:
91,358,15599,6,0,P|73:325|62:285,1,56,0|2,0:0|2:3,0:0:0:0:
92,183,15952,2,0,L|82:147,3,28,2|2|2|2,1:2|2:2|2:2|2:2,0:0:0:0:
76,68,16305,5,10,2:2:0:0:
167,30,16482,1,2,2:2:0:0:
250,74,16658,1,2,2:2:0:0:
338,25,16835,1,2,2:2:0:0:
434,129,17011,6,0,P|421:180|421:248,1,112,2|2,1:2|2:2,0:0:0:0:
484,352,17541,2,0,P|453:332|421:325,1,56,2|8,2:2|2:2,0:0:0:0:
337,354,17893,1,2,2:2:0:0:
247,315,18070,1,2,2:2:0:0:
209,220,18246,2,0,P|208:166|241:113,1,112,2|2,2:2|2:3,0:0:0:0:
376,163,18776,6,0,L|352:167,6,14,2|0|2|0|2|0|2,1:2|0:0|2:2|0:0|2:2|0:0|2:2,0:0:0:0:
474,141,19129,1,10,2:2:0:0:
348,41,19305,1,2,2:2:0:0:
496,52,19482,1,2,2:3:0:0:
474,141,19658,1,2,2:3:0:0:
503,281,19835,6,0,P|457:261|387:276,1,112,2|2,1:2|2:2,0:0:0:0:
295,353,20364,2,0,P|260:342|232:335,1,56,2|8,2:2|2:2,0:0:0:0:
144,324,20717,1,2,2:2:0:0:
212,255,20893,1,2,2:2:0:0:
148,182,21070,1,2,2:2:0:0:
218,113,21246,6,0,P|193:92|152:71,1,56,0|2,0:0|2:3,0:0:0:0:
49,137,21599,2,0,L|59:173,3,28,2|2|2|2,1:2|2:2|2:2|2:2,0:0:0:0:
49,256,21952,5,10,2:2:0:0:
150,275,22129,1,2,2:2:0:0:
234,223,22305,1,2,2:2:0:0:
327,245,22482,1,2,2:2:0:0:
448,174,22658,6,0,B|434:235|470:225|446:300,1,112,2|2,1:2|2:2,0:0:0:0:
347,351,23188,2,0,P|318:358|278:337,1,56,2|8,2:2|2:2,0:0:0:0:
215,298,23541,1,2,2:2:0:0:
124,297,23717,1,2,2:2:0:0:
52,359,23893,1,2,2:2:0:0:
124,297,24070,5,2,2:3:0:0:
58,235,24246,1,2,2:3:0:0:
58,235,24335,1,2,2:3:0:0:
58,235,24423,2,0,L|61:198,3,28,2|2|2|2,1:3|2:3|2:3|2:3,0:0:0:0:
158,153,24776,5,10,2:3:0:0:
265,231,24952,1,2,2:3:0:0:
325,113,25129,5,2,2:3:0:0:
416,77,25305,1,2,2:3:0:0:
496,212,25482,6,0,P|478:249|476:293,1,77.0000023498536,14|2,1:2|2:2,0:0:0:0:
399,249,25835,2,0,P|375:214|338:191,1,77.0000023498536,10|2,2:2|2:3,0:0:0:0:
415,146,26188,2,0,P|456:143|495:122,1,77.0000023498536,10|2,2:2|2:3,0:0:0:0:
487,127,26541,6,0,P|453:143|415:146,1,77.0000023498536,10|2,2:3|2:3,0:0:0:0:
474,284,26893,2,0,P|478:246|496:212,1,77.0000023498536,10|2,2:2|2:3,0:0:0:0:
346,194,27246,2,0,P|377:216|399:249,1,77.0000023498536,10|2,2:3|2:3,0:0:0:0:
330,358,27599,6,0,P|290:347|251:347,1,77.0000023498536,10|2,2:3|2:2,0:0:0:0:
97,320,27952,2,0,P|135:319|172:308,1,77.0000023498536,10|2,2:3|2:3,0:0:0:0:
220,90,28305,6,0,P|203:127|216:175,1,77.0000023498536,10|2,2:2|2:2,0:0:0:0:
278,220,28658,2,0,P|318:216|353:180,1,77.0000023498536,10|2,2:2|2:3,0:0:0:0:
361,104,29011,2,0,P|337:70|289:58,1,77.0000023498536,10|0,2:2|0:0,0:0:0:0:
304,57,29364,6,0,P|339:72|361:104,1,77.0000023498536,10|2,2:3|2:3,0:0:0:0:
208,161,29717,2,0,P|203:124|220:90,1,77.0000023498536,10|2,2:2|2:2,0:0:0:0:
346,194,30070,2,0,P|315:217|278:220,1,77.0000023498536,10|0,2:2|0:0,0:0:0:0:
120,126,30423,6,0,L|79:133,3,38.5000011749268,10|2|2|2,2:3|2:2|2:2|2:2,0:0:0:0:
37,213,30776,2,0,L|-4:206,3,38.5000011749268,10|2|2|2,2:3|2:3|2:3|2:3,0:0:0:0:
118,251,31129,6,0,L|204:236,1,77.0000023498536,14|2,2:2|2:2,0:0:0:0:
294,213,31482,2,0,L|263:294,1,77.0000023498536,10|2,2:2|2:3,0:0:0:0:
238,384,31835,2,0,L|182:317,1,77.0000023498536,10|0,2:2|0:0,0:0:0:0:
188,324,32188,6,0,L|238:384,1,77.0000023498536,10|2,2:3|2:3,0:0:0:0:
193,237,32541,2,0,L|118:251,1,77.0000023498536,10|2,2:2|2:3,0:0:0:0:
267,285,32893,2,0,L|294:213,1,77.0000023498536,10|0,2:3|0:0,0:0:0:0:
396,91,33246,5,10,2:3:0:0:
422,182,33423,1,2,2:2:0:0:
295,119,33599,5,10,2:3:0:0:
321,28,33776,1,2,2:3:0:0:
294,212,33952,6,0,P|255:208|210:209,1,77.0000023498536,10|2,2:2|2:2,0:0:0:0:
108,213,34305,2,0,P|130:181|152:141,1,77.0000023498536,10|2,2:2|2:3,0:0:0:0:
200,51,34658,2,0,P|216:86|239:125,1,77.0000023498536,10|0,2:2|0:0,0:0:0:0:
235,119,35011,6,0,P|215:86|200:51,1,77.0000023498536,10|2,2:3|2:3,0:0:0:0:
217,208,35364,2,0,P|255:208|294:212,1,77.0000023498536,10|2,2:3|2:3,0:0:0:0:
149,148,35717,2,0,P|130:181|108:213,1,77.0000023498536,10|0,2:3|0:0,0:0:0:0:
384,291,36070,5,10,2:3:0:0:
398,259,36158,1,2,2:3:0:0:
403,225,36246,1,2,2:3:0:0:
397,191,36334,1,2,2:3:0:0:
385,163,36423,6,0,L|379:139,6,19.2500005874634,10|0|0|0|2|0|0,1:3|0:0|0:0|0:0|1:2|0:0|0:0,0:0:0:0:
305,219,36776,6,0,P|261:223|190:243,1,90.9999958343508,14|2,1:2|2:2,0:0:0:0:
129,194,37129,2,0,P|85:190|14:170,1,90.9999958343508,10|2,1:2|2:2,0:0:0:0:
129,194,37482,1,10,1:2:0:0:
217,147,37658,1,0,0:0:0:0:
217,147,37746,1,0,1:1:0:0:
217,147,37835,6,0,P|235:106|238:52,1,90.9999958343508,10|2,2:2|1:2,0:0:0:0:
318,36,38188,2,0,P|344:72|389:101,1,90.9999958343508,10|2,1:2|2:2,0:0:0:0:
363,178,38541,2,0,P|318:182|270:207,1,90.9999958343508,10|0,1:2|0:0,0:0:0:0:
211,313,38893,5,10,1:2:0:0:
121,345,39070,1,2,2:2:0:0:
145,198,39246,5,10,2:3:0:0:
55,166,39423,1,2,1:3:0:0:
11,335,39599,6,0,P|22:283|46:253,1,90.9999958343508,10|2,1:2|2:2,0:0:0:0:
55,166,39952,2,0,P|44:114|20:84,1,90.9999958343508,10|2,1:2|2:2,0:0:0:0:
55,166,40305,1,10,1:2:0:0:
182,79,40482,1,0,0:0:0:0:
182,79,40570,1,0,1:1:0:0:
182,79,40658,6,0,P|234:62|286:76,1,90.9999958343508,10|2,2:3|1:3,0:0:0:0:
384,0,41011,2,0,P|372:53|334:91,1,90.9999958343508,10|2,1:2|2:2,0:0:0:0:
351,214,41364,2,0,P|310:177|296:125,1,90.9999958343508,10|0,1:2|0:0,0:0:0:0:
473,79,41717,5,10,1:2:0:0:
480,114,41805,1,2,2:2:0:0:
485,149,41893,1,2,2:2:0:0:
490,185,41982,1,2,1:2:0:0:
496,220,42070,2,0,L|504:273,3,45.4999979171754,10|2|2|2,2:3|2:3|1:3|2:3,0:0:0:0:
429,333,42423,6,0,L|334:323,1,90.9999958343508,14|0,1:2|0:0,0:0:0:0:
271,260,42688,2,0,L|176:270,1,90.9999958343508,10|2,1:2|2:2,0:0:0:0:
118,344,42952,1,8,1:2:0:0:
4,248,43129,6,0,P|4:195|24:136,1,90.9999958343508,10|0,1:2|0:0,0:0:0:0:
103,136,43393,2,0,P|103:83|83:24,1,90.9999958343508,10|2,1:2|2:2,0:0:0:0:
33,6,43658,1,10,1:3:0:0:
59,31,43746,1,10,1:3:0:0:
93,46,43835,6,0,P|153:46|194:30,1,90.9999958343508,10|0,1:2|0:0,0:0:0:0:
270,78,44099,2,0,P|330:78|371:94,1,90.9999958343508,10|2,1:2|2:2,0:0:0:0:
435,155,44364,1,8,1:2:0:0:
396,306,44541,6,0,P|386:257|373:217,1,90.9999958343508,10|0,1:2|0:0,0:0:0:0:
304,159,44805,2,0,P|290:202|281:246,1,90.9999958343508,10|2,1:2|1:3,0:0:0:0:
299,341,45070,1,2,1:3:0:0:
299,341,45158,1,2,1:3:0:0:
299,341,45246,6,0,L|244:332,3,45.4999979171754,2|2|2|2,1:3|1:3|1:3|1:3,0:0:0:0:
192,282,45599,2,0,L|137:291,3,45.4999979171754,2|2|2|2,1:3|1:3|1:3|1:3,0:0:0:0:
83,353,45952,5,2,1:3:0:0:
66,331,46040,1,2,1:3:0:0:
57,305,46128,1,2,1:3:0:0:
59,278,46216,1,2,1:3:0:0:
41,262,46305,5,2,1:3:0:0:
58,240,46393,1,2,1:3:0:0:
67,214,46481,1,2,1:3:0:0:
65,187,46569,1,2,1:3:0:0:
53,186,46658,6,0,P|106:175|234:138,1,181.999991668702,2|2,1:2|2:3,0:0:0:0:
248,132,47099,1,2,2:3:0:0:
248,132,47188,1,2,2:3:0:0:
248,132,47276,1,2,2:3:0:0:
248,132,47364,5,2,1:3:0:0:
320,67,47541,1,2,2:3:0:0:
471,58,47717,5,2,1:3:0:0:
399,123,47894,1,2,2:3:0:0:
475,259,48070,6,0,B|407:234|402:294|323:303|305:220|377:156|411:240,1,224,6|10,1:2|2:2,0:0:0:0:
451,338,48599,1,2,2:2:0:0:
451,338,48687,1,0,0:0:0:0:
451,338,48776,2,0,P|394:358|333:349,1,112,2|0,1:2|0:0,0:0:0:0:
276,312,49040,1,2,1:2:0:0:
270,304,49129,1,8,2:2:0:0:
171,374,49305,1,2,1:2:0:0:
129,241,49482,5,2,1:2:0:0:
7,266,49658,1,0,0:0:0:0:
7,266,49746,1,2,1:2:0:0:
7,266,49835,2,0,P|16:222|8:177,1,56,8|0,2:2|0:0,0:0:0:0:
99,115,50011,2,0,P|90:71|98:26,1,56,2|0,1:2|0:0,0:0:0:0:
104,42,50188,6,0,B|159:42|159:42|158:47|158:47|221:47,1,112,2|0,1:2|0:0,0:0:0:0:
304,19,50541,2,0,B|359:19|359:19|358:14|358:14|421:14,1,112,10|0,1:2|0:0,0:0:0:0:
490,113,50893,6,0,B|456:159|475:221|475:221|417:191|351:228,1,224,2|10,1:2|2:2,0:0:0:0:
231,296,51423,1,2,2:2:0:0:
231,296,51511,1,0,0:0:0:0:
231,296,51599,2,0,P|204:237|209:187,1,112,2|0,1:2|0:0,0:0:0:0:
263,123,51864,1,2,1:2:0:0:
275,120,51952,1,8,2:2:0:0:
368,219,52129,2,0,P|395:160|390:110,1,112,2|2,1:2|1:2,0:0:0:0:
296,31,52482,5,0,0:0:0:0:
296,31,52569,1,2,1:2:0:0:
296,31,52658,2,0,L|191:20,1,56,8|0,2:2|0:0,0:0:0:0:
129,66,52834,2,0,L|24:77,1,56,2|0,1:2|0:0,0:0:0:0:
51,84,53011,6,0,P|66:146|64:197,1,112,2|0,1:2|0:0,0:0:0:0:
152,275,53364,2,0,P|137:337|139:388,1,112,10|2,1:3|2:3,0:0:0:0:
0,271,53717,6,0,B|56:197|150:220|150:220|153:301,1,224,2|10,1:2|2:2,0:0:0:0:
289,372,54246,1,2,2:2:0:0:
289,372,54335,1,0,0:0:0:0:
289,372,54423,2,0,P|358:368|402:341,1,112,2|0,1:2|0:0,0:0:0:0:
429,275,54687,1,2,1:2:0:0:
433,261,54775,1,8,2:2:0:0:
337,180,54952,2,0,P|333:111|306:67,1,112,2|2,1:2|1:2,0:0:0:0:
163,27,55305,5,0,0:0:0:0:
163,27,55393,1,2,1:2:0:0:
163,27,55482,2,0,P|118:31|61:40,1,56,8|0,2:2|0:0,0:0:0:0:
118,127,55658,2,0,P|163:123|220:114,1,56,2|0,1:2|0:0,0:0:0:0:
187,109,55835,6,0,B|189:159|189:159|183:178|183:178|190:245,1,112,2|0,1:2|0:0,0:0:0:0:
95,274,56188,2,0,B|93:324|93:324|99:343|99:343|92:410,1,112,10|0,1:2|0:0,0:0:0:0:
262,284,56541,6,0,B|317:263|367:290|367:290|418:222|373:166,1,224,2|10,1:2|2:2,0:0:0:0:
283,59,57070,1,2,2:2:0:0:
283,59,57158,1,0,0:0:0:0:
283,59,57246,2,0,P|344:23|394:26,1,112,2|0,1:2|0:0,0:0:0:0:
468,55,57511,1,2,1:2:0:0:
477,64,57599,1,8,2:2:0:0:
384,182,57776,1,2,1:2:0:0:
480,146,57952,6,0,L|492:208,3,56,10|2|2|2,1:3|2:3|2:3|2:3,0:0:0:0:
430,258,58305,2,0,L|418:320,3,56,10|2|2|2,1:3|2:3|2:3|2:3,0:0:0:0:
331,353,58658,1,10,1:3:0:0:
247,307,58835,1,2,2:3:0:0:
155,308,59011,1,2,1:3:0:0:
85,373,59188,1,2,2:3:0:0:
202,234,59364,6,0,B|209:78|209:78|156:162,1,224,6|10,1:2|2:2,0:0:0:0:
18,222,59893,1,2,2:2:0:0:
18,222,59982,1,0,0:0:0:0:
18,222,60070,2,0,P|86:197|144:210,1,112,2|0,1:2|0:0,0:0:0:0:
202,234,60334,1,2,1:2:0:0:
218,247,60423,1,10,2:2:0:0:
343,228,60599,1,2,1:2:0:0:
453,357,60776,5,2,1:2:0:0:
501,240,60952,1,0,0:0:0:0:
501,240,61040,1,2,1:2:0:0:
501,240,61129,2,0,P|485:179|491:139,1,56,10|0,2:2|0:0,0:0:0:0:
398,112,61305,2,0,P|414:51|408:11,1,56,2|0,1:2|0:0,0:0:0:0:
407,42,61482,6,0,B|352:59|352:59|290:47,1,112,2|0,1:2|0:0,0:0:0:0:
207,19,61835,2,0,B|154:-2|154:-2|90:14,1,112,10|0,1:2|0:0,0:0:0:0:
21,113,62188,6,0,B|-10:167|36:221|36:221|95:193|160:228,1,224,2|10,1:2|2:2,0:0:0:0:
280,296,62717,1,2,2:2:0:0:
280,296,62805,1,0,0:0:0:0:
280,296,62893,2,0,P|307:237|302:187,1,112,2|0,1:2|0:0,0:0:0:0:
249,123,63158,1,2,1:2:0:0:
236,118,63246,1,10,2:2:0:0:
139,218,63423,2,0,P|112:159|117:109,1,112,2|2,1:2|1:2,0:0:0:0:
240,30,63776,5,0,0:0:0:0:
240,30,63864,1,2,1:2:0:0:
240,30,63952,2,0,L|346:18,1,56,10|0,2:2|0:0,0:0:0:0:
393,69,64128,2,0,L|499:80,1,56,2|0,1:2|0:0,0:0:0:0:
474,76,64305,6,0,P|459:138|461:189,1,112,2|0,1:2|0:0,0:0:0:0:
366,275,64658,2,0,P|381:337|379:388,1,112,10|2,1:3|2:3,0:0:0:0:
503,355,65011,6,0,B|425:332|379:385|379:385|332:346|291:355,1,224,6|10,1:2|2:2,0:0:0:0:
207,331,65540,1,2,2:2:0:0:
207,331,65629,1,0,0:0:0:0:
207,331,65717,2,0,P|138:327|94:300,1,112,2|0,1:2|0:0,0:0:0:0:
38,244,65981,1,2,1:2:0:0:
38,230,66070,1,10,2:2:0:0:
174,180,66246,2,0,P|178:111|205:67,1,112,2|2,1:2|1:2,0:0:0:0:
348,27,66599,5,0,0:0:0:0:
348,27,66687,1,2,1:2:0:0:
348,27,66776,2,0,P|377:31|426:7,1,56,10|0,2:2|0:0,0:0:0:0:
401,117,66952,2,0,P|372:113|323:137,1,56,2|0,1:2|0:0,0:0:0:0:
324,109,67129,6,0,B|334:248,1,112,2|0,1:2|0:0,0:0:0:0:
416,270,67482,2,0,B|406:409,1,112,10|0,1:2|0:0,0:0:0:0:
244,277,67835,6,0,B|185:278|135:308|135:308|186:268|194:192,1,224,2|10,1:2|2:2,0:0:0:0:
228,59,68364,1,2,2:2:0:0:
228,59,68452,1,0,0:0:0:0:
228,59,68540,2,0,P|167:23|117:26,1,112,2|0,1:2|0:0,0:0:0:0:
39,47,68805,1,2,1:2:0:0:
32,58,68893,1,10,2:2:0:0:
125,174,69070,1,2,1:2:0:0:
25,140,69246,6,0,L|13:202,3,56,10|2|2|2,1:3|2:3|2:3|2:3,0:0:0:0:
81,258,69599,2,0,L|93:320,3,56,10|2|2|2,1:3|2:3|2:3|2:3,0:0:0:0:
180,353,69952,1,10,1:3:0:0:
276,336,70129,1,2,2:3:0:0:
336,258,70305,1,2,1:3:0:0:
326,162,70482,1,2,2:3:0:0:
396,336,70658,5,2,2:2:0:0:
91,108,81952,6,0,P|164:97|267:103,1,154.000004699707,2|2,2:2|2:2,0:0:0:0:
308,174,82482,2,0,P|301:220|300:259,2,77.0000023498536,2|2|2,2:2|2:2|2:2,0:0:0:0:
381,111,83011,1,0,0:0:0:0:
318,40,83188,1,2,2:2:0:0:
243,99,83364,6,0,P|187:97|132:105,1,77.0000023498536,2|2,2:2|2:2,0:0:0:0:
127,186,83717,2,0,L|135:229,3,38.5000011749268,2|2|2|2,2:2|2:2|2:2|2:2,0:0:0:0:
196,264,84070,2,0,L|191:358,1,77.0000023498536,2|2,2:2|2:2,0:0:0:0:
316,305,84423,1,2,2:2:0:0:
316,305,84599,1,2,2:2:0:0:
431,377,84776,6,0,P|438:311|456:218,1,154.000004699707,2|2,2:2|2:2,0:0:0:0:
443,122,85305,2,0,P|473:94|507:78,2,77.0000023498536,2|2|2,2:2|2:2|2:2,0:0:0:0:
362,175,85835,1,0,0:0:0:0:
280,121,86011,1,2,2:2:0:0:
368,0,86188,6,0,P|371:41|358:85,1,77.0000023498536,2|2,2:2|2:2,0:0:0:0:
280,121,86541,2,0,L|233:114,3,38.5000011749268,2|2|2|2,2:2|2:2|2:2|2:2,0:0:0:0:
193,55,86893,2,0,L|117:71,1,77.0000023498536,2|2,2:2|2:2,0:0:0:0:
31,37,87246,2,0,L|6:110,1,77.0000023498536,2|2,2:2|2:2,0:0:0:0:
51,230,87599,6,0,B|137:212|120:259|221:224,1,154.000004699707,2|2,2:2|2:2,0:0:0:0:
283,170,88129,2,0,P|274:132|261:90,2,77.0000023498536,2|2|2,2:2|2:2|2:2,0:0:0:0:
361,229,88658,1,0,0:0:0:0:
439,174,88835,1,2,2:2:0:0:
497,303,89011,6,0,P|468:269|435:254,1,77.0000023498536,2|2,2:2|2:2,0:0:0:0:
361,229,89364,2,0,L|311:242,3,38.5000011749268,2|2|2|2,2:2|2:2|2:2|2:2,0:0:0:0:
282,303,89717,2,0,L|187:293,1,77.0000023498536,2|2,2:2|2:2,0:0:0:0:
113,215,90070,1,2,2:2:0:0:
113,215,90246,1,2,2:2:0:0:
18,309,90423,6,0,L|34:388,2,77.0000023498536,2|0|2,2:2|0:0|2:2,0:0:0:0:
112,214,90952,2,0,L|128:139,2,77.0000023498536,2|2|2,2:2|2:2|2:2,0:0:0:0:
192,319,91482,1,0,0:0:0:0:
192,319,91658,1,2,2:2:0:0:
260,209,91835,6,0,P|298:192|349:196,1,77.0000023498536,2|2,2:3|2:3,0:0:0:0:
441,268,92188,2,0,P|458:257|470:236,3,38.5000011749268,2|2|2|2,2:3|2:3|2:3|2:3,0:0:0:0:
450,168,92541,2,0,P|460:150|459:125,3,38.5000011749268,2|2|2|2,2:3|2:3|2:3|2:3,0:0:0:0:
407,76,92893,2,0,P|406:55|393:34,3,38.5000011749268,2|2|2|2,2:3|2:3|2:3|2:3,0:0:0:0:
316,84,93246,6,0,P|298:47|296:3,1,77.0000023498536,14|2,1:2|2:2,0:0:0:0:
219,47,93599,2,0,P|195:82|158:105,1,77.0000023498536,10|2,2:2|2:3,0:0:0:0:
235,150,93952,2,0,P|276:153|315:174,1,77.0000023498536,10|0,2:2|0:0,0:0:0:0:
307,169,94305,6,0,P|273:153|235:150,1,77.0000023498536,10|2,2:3|2:3,0:0:0:0:
294,12,94658,2,0,P|298:50|316:84,1,77.0000023498536,8|2,2:2|2:3,0:0:0:0:
166,102,95011,2,0,P|197:80|219:47,1,77.0000023498536,10|0,2:3|0:0,0:0:0:0:
15,55,95364,6,0,P|30:93|54:124,1,77.0000023498536,10|2,2:3|2:2,0:0:0:0:
128,262,95717,2,0,P|103:232|72:210,1,77.0000023498536,10|2,2:3|2:3,0:0:0:0:
188,333,96070,6,0,P|213:303|244:281,1,77.0000023498536,10|2,2:2|2:2,0:0:0:0:
305,203,96423,2,0,P|318:239|322:277,1,77.0000023498536,10|2,2:2|2:3,0:0:0:0:
359,369,96776,2,0,P|320:362|285:346,1,77.0000023498536,8|2,2:2|2:3,0:0:0:0:
286,346,97129,6,0,P|321:362|359:369,1,77.0000023498536,10|2,2:3|2:3,0:0:0:0:
243,281,97482,2,0,P|212:303|188:333,1,77.0000023498536,8|2,2:2|2:2,0:0:0:0:
322,277,97835,2,0,P|318:239|305:203,1,77.0000023498536,10|0,2:2|0:0,0:0:0:0:
129,147,98187,6,0,L|88:154,3,38.5000011749268,10|2|2|2,2:3|2:2|2:2|2:2,0:0:0:0:
38,234,98540,2,0,L|-3:227,3,38.5000011749268,10|2|2|2,2:3|2:3|2:3|2:3,0:0:0:0:
110,308,98893,6,0,L|196:323,1,77.0000023498536,14|2,2:2|2:2,0:0:0:0:
286,346,99246,2,0,L|255:265,1,77.0000023498536,10|2,2:2|2:3,0:0:0:0:
230,175,99599,2,0,L|174:242,1,77.0000023498536,8|0,2:2|0:0,0:0:0:0:
180,235,99952,6,0,L|230:175,1,77.0000023498536,10|2,2:3|2:3,0:0:0:0:
185,322,100305,2,0,L|110:308,1,77.0000023498536,8|2,2:2|2:3,0:0:0:0:
259,274,100658,2,0,L|286:346,1,77.0000023498536,10|0,2:3|0:0,0:0:0:0:
128,117,101010,5,10,2:3:0:0:
102,208,101187,1,2,2:2:0:0:
229,145,101363,5,10,2:3:0:0:
203,54,101540,1,2,2:3:0:0:
326,201,101716,6,0,P|365:197|410:198,1,77.0000023498536,10|2,2:2|2:2,0:0:0:0:
512,202,102069,2,0,P|490:170|468:130,1,77.0000023498536,10|2,2:2|2:3,0:0:0:0:
420,40,102422,2,0,P|404:75|381:114,1,77.0000023498536,8|0,2:2|0:0,0:0:0:0:
385,108,102775,6,0,P|405:75|420:40,1,77.0000023498536,10|2,2:3|2:3,0:0:0:0:
403,197,103128,2,0,P|365:197|326:201,1,77.0000023498536,10|2,2:3|2:3,0:0:0:0:
471,137,103482,2,0,P|490:170|512:202,1,77.0000023498536,10|0,2:3|0:0,0:0:0:0:
390,295,103835,1,10,2:3:0:0:
380,311,103923,1,2,2:3:0:0:
370,328,104011,1,2,2:3:0:0:
360,344,104099,1,2,2:3:0:0:
348,360,104188,2,0,L|315:351,6,19.2500005874634,10|0|2|0|2|0|0,1:3|0:0|1:2|0:0|1:2|0:0|0:0,0:0:0:0:
260,294,104541,6,0,P|215:279|169:284,1,90.9999958343508,14|2,1:2|2:2,0:0:0:0:
92,232,104893,2,0,P|47:247|1:242,1,90.9999958343508,10|2,1:2|2:2,0:0:0:0:
92,232,105246,1,10,1:2:0:0:
179,134,105423,1,0,0:0:0:0:
179,134,105511,1,0,1:1:0:0:
179,134,105599,6,0,P|222:96|265:89,1,90.9999958343508,10|2,2:2|1:2,0:0:0:0:
321,43,105952,2,0,P|332:99|316:139,1,90.9999958343508,10|2,1:2|2:2,0:0:0:0:
328,211,106305,2,0,P|273:192|246:159,1,90.9999958343508,10|0,1:2|0:0,0:0:0:0:
328,211,106658,5,10,1:2:0:0:
366,310,106835,1,2,2:2:0:0:
222,375,107011,5,10,2:3:0:0:
260,276,107188,1,2,1:3:0:0:
456,362,107364,6,0,P|463:318|475:270,1,90.9999958343508,10|2,1:2|2:2,0:0:0:0:
428,189,107717,2,0,P|421:145|409:97,1,90.9999958343508,10|2,1:2|2:2,0:0:0:0:
428,189,108070,1,10,1:2:0:0:
314,73,108246,1,0,0:0:0:0:
314,73,108335,1,0,1:1:0:0:
314,73,108423,6,0,P|258:52|216:63,1,90.9999958343508,10|2,2:3|1:3,0:0:0:0:
258,136,108776,2,0,P|239:176|202:202,1,90.9999958343508,10|2,1:2|2:2,0:0:0:0:
174,121,109129,2,0,P|149:84|146:40,1,90.9999958343508,10|0,1:2|0:0,0:0:0:0:
21,7,109482,5,10,1:2:0:0:
36,23,109570,1,2,2:2:0:0:
46,43,109658,1,2,2:2:0:0:
51,66,109746,1,2,1:2:0:0:
49,88,109835,2,0,P|39:115|41:145,3,45.4999979171754,10|2|2|2,2:3|2:3|1:3|2:3,0:0:0:0:
29,237,110188,6,0,L|124:227,1,90.9999958343508,14|0,1:2|0:0,0:0:0:0:
187,164,110453,2,0,L|282:174,1,90.9999958343508,10|2,1:2|2:2,0:0:0:0:
340,248,110717,1,8,1:2:0:0:
506,244,110894,6,0,P|506:191|486:132,1,90.9999958343508,10|0,1:2|0:0,0:0:0:0:
407,132,111158,2,0,P|407:79|427:20,1,90.9999958343508,10|2,1:2|2:2,0:0:0:0:
477,2,111423,1,10,1:3:0:0:
451,27,111511,1,10,1:3:0:0:
417,42,111600,6,0,P|357:42|316:26,1,90.9999958343508,10|0,1:2|0:0,0:0:0:0:
240,74,111864,2,0,P|180:74|139:90,1,90.9999958343508,10|2,1:2|2:2,0:0:0:0:
75,151,112129,1,8,1:2:0:0:
114,302,112306,6,0,P|124:253|137:213,1,90.9999958343508,10|0,1:2|0:0,0:0:0:0:
206,155,112570,2,0,P|220:198|229:242,1,90.9999958343508,10|2,1:2|1:3,0:0:0:0:
211,337,112835,1,2,1:3:0:0:
211,337,112923,1,2,1:3:0:0:
211,337,113011,6,0,L|266:328,3,45.4999979171754,2|2|2|2,1:3|1:3|1:3|1:3,0:0:0:0:
318,278,113364,2,0,L|373:287,3,45.4999979171754,2|2|2|2,1:3|1:3|1:3|1:3,0:0:0:0:
427,349,113717,5,2,1:3:0:0:
444,327,113805,1,2,1:3:0:0:
453,301,113893,1,2,1:3:0:0:
451,274,113981,1,2,1:3:0:0:
469,258,114070,5,2,1:3:0:0:
452,236,114158,1,2,1:3:0:0:
443,210,114246,1,2,1:3:0:0:
445,183,114334,1,2,1:3:0:0:
457,182,114423,6,0,P|387:149|276:134,1,181.999991668702,2|2,1:2|2:3,0:0:0:0:
267,144,114864,1,2,2:3:0:0:
267,144,114953,1,2,2:3:0:0:
267,144,115041,1,2,2:3:0:0:
267,144,115129,5,2,1:3:0:0:
190,63,115306,1,2,2:3:0:0:
53,65,115482,5,2,1:2:0:0:
125,0,115659,1,2,2:2:0:0:
154,156,115835,6,0,L|150:191,14,22.7499989585877,2|0|2|0|2|0|2|0|2|0|2|0|2|0|2,2:3|0:0|2:3|0:0|2:3|0:0|2:3|0:0|2:3|0:0|2:3|0:0|2:3|0:0|2:3,0:0:0:0:
80,238,116541,6,0,L|84:273,14,22.7499989585877,2|0|2|0|2|0|2|0|2|0|2|0|2|0|2,2:3|0:0|2:3|0:0|2:3|0:0|2:3|0:0|2:3|0:0|2:3|0:0|2:3|0:0|2:3,0:0:0:0:
155,325,117246,6,0,B|215:310|215:310|243:340|243:340|346:356,1,168,6|2,1:2|1:2,0:0:0:0:
323,346,117599,1,8,2:2:0:0:
286,255,117776,1,2,1:2:0:0:
386,177,117952,6,0,P|386:120|401:61,1,112,2|0,1:2|0:0,0:0:0:0:
279,0,118305,2,0,P|291:54|291:110,1,112,10|0,1:2|0:0,0:0:0:0:
145,170,118658,6,0,B|81:146|133:43|229:87|231:180,1,224,2|10,1:2|2:2,0:0:0:0:
156,308,119188,1,2,2:2:0:0:
156,308,119276,1,0,0:0:0:0:
156,308,119364,2,0,P|83:284|62:243,1,112,2|0,1:2|0:0,0:0:0:0:
130,178,119628,1,2,1:2:0:0:
145,170,119717,1,8,2:2:0:0:
267,267,119893,2,0,P|302:225|356:216,1,112,2|2,1:2|1:2,0:0:0:0:
453,324,120246,5,0,0:0:0:0:
453,324,120334,1,2,1:2:0:0:
453,324,120423,2,0,L|437:233,1,56,8|0,2:2|0:0,0:0:0:0:
489,179,120599,2,0,L|505:88,1,56,2|0,1:2|0:0,0:0:0:0:
485,111,120776,6,0,B|435:118|435:118|426:128|426:128|369:137,1,112,2|0,1:2|0:0,0:0:0:0:
278,64,121129,2,0,B|228:57|228:57|219:47|219:47|162:38,1,112,10|2,1:3|2:3,0:0:0:0:
42,19,121482,6,0,B|11:68|11:68|48:177|48:177|56:115,1,224,2|10,1:2|2:2,0:0:0:0:
142,262,122011,1,2,2:2:0:0:
142,262,122099,1,0,0:0:0:0:
142,262,122188,2,0,P|136:328|98:359,1,112,2|0,1:2|0:0,0:0:0:0:
43,299,122452,1,2,1:2:0:0:
39,285,122541,1,8,2:2:0:0:
152,155,122717,2,0,P|206:166|268:162,1,112,2|2,1:2|1:2,0:0:0:0:
453,120,123070,5,0,0:0:0:0:
453,120,123158,1,2,1:2:0:0:
453,120,123246,2,0,P|471:84|463:27,1,56,8|0,2:2|0:0,0:0:0:0:
364,135,123422,2,0,P|346:171|354:228,1,56,2|0,1:2|0:0,0:0:0:0:
422,204,123599,6,0,P|450:254|500:279,1,112,2|0,1:2|0:0,0:0:0:0:
364,135,123952,2,0,P|305:134|259:165,1,112,10|0,1:2|0:0,0:0:0:0:
143,332,124305,6,0,P|198:298|131:176,1,224,2|10,1:2|2:2,0:0:0:0:
38,304,124835,1,2,2:2:0:0:
38,304,124923,1,0,0:0:0:0:
38,304,125011,2,0,P|109:311|154:342,1,112,2|0,1:2|0:0,0:0:0:0:
217,384,125275,1,2,1:2:0:0:
232,384,125364,1,8,2:2:0:0:
313,275,125541,1,2,1:2:0:0:
446,271,125717,6,0,L|458:209,3,56,10|2|2|2,1:3|2:3|2:3|2:3,0:0:0:0:
396,159,126070,2,0,L|384:97,3,56,10|2|2|2,1:3|2:3|2:3|2:3,0:0:0:0:
297,64,126423,1,10,1:3:0:0:
213,110,126600,1,2,2:3:0:0:
121,109,126776,1,2,1:3:0:0:
51,44,126953,1,2,2:3:0:0:
168,183,127129,6,1,B|175:339|175:339|122:255,1,224,6|10,1:2|2:2,0:0:0:0:
62,203,127658,1,2,2:2:0:0:
62,203,127747,1,0,0:0:0:0:
62,203,127835,2,0,P|130:178|188:191,1,112,2|0,1:2|0:0,0:0:0:0:
253,242,128099,1,2,1:2:0:0:
258,254,128188,1,10,2:2:0:0:
384,237,128364,1,2,1:2:0:0:
448,346,128541,5,2,1:2:0:0:
496,229,128717,1,0,0:0:0:0:
496,229,128805,1,2,1:2:0:0:
496,229,128894,2,0,P|480:168|483:129,1,56,10|0,2:2|0:0,0:0:0:0:
416,99,129069,2,0,P|432:38|429:-1,1,56,2|0,1:2|0:0,0:0:0:0:
426,29,129247,6,0,B|371:46|371:46|309:34,1,112,2|0,1:2|0:0,0:0:0:0:
198,7,129600,2,0,B|145:-14|145:-14|81:2,1,112,10|0,1:2|0:0,0:0:0:0:
16,102,129953,6,0,B|-15:156|31:210|31:210|90:182|155:217,1,224,2|10,1:2|2:2,0:0:0:0:
271,311,130482,1,2,2:2:0:0:
271,311,130570,1,0,0:0:0:0:
271,311,130658,2,0,P|298:252|293:202,1,112,2|0,1:2|0:0,0:0:0:0:
243,131,130922,1,2,1:2:0:0:
234,121,131011,1,10,2:2:0:0:
134,207,131188,2,0,P|107:148|112:98,1,112,2|2,1:2|1:2,0:0:0:0:
239,20,131541,5,0,0:0:0:0:
239,20,131628,1,2,1:2:0:0:
239,20,131717,2,0,L|346:7,1,56,10|0,2:2|0:0,0:0:0:0:
374,77,131893,2,0,L|481:89,1,56,2|0,1:2|0:0,0:0:0:0:
448,87,132070,6,0,P|433:149|435:200,1,112,2|0,1:2|0:0,0:0:0:0:
361,264,132423,2,0,P|376:326|374:377,1,112,10|2,1:3|2:3,0:0:0:0:
258,245,132776,6,0,B|143:251|164:334|45:312,1,224,6|10,1:2|2:2,0:0:0:0:
107,193,133305,1,2,2:2:0:0:
107,193,133393,1,0,0:0:0:0:
107,193,133482,2,0,P|80:140|36:78,1,112,2|0,1:2|0:0,0:0:0:0:
137,25,133746,1,2,1:2:0:0:
152,18,133835,1,10,2:2:0:0:
268,80,134011,2,0,P|236:126|211:176,1,112,2|2,1:2|1:2,0:0:0:0:
267,305,134364,5,0,0:0:0:0:
267,305,134452,1,2,1:2:0:0:
267,305,134541,2,0,P|338:312|371:308,1,56,8|0,0:0|0:0,0:0:0:0:
423,265,134717,2,0,P|494:257|527:261,1,56,2|0,1:2|0:0,0:0:0:0:
493,246,134894,6,0,B|354:236,1,112,2|0,1:2|0:0,0:0:0:0:
315,121,135247,2,0,B|176:131,1,112,10|0,1:2|0:0,0:0:0:0:
40,178,135600,6,0,B|82:207|91:271|91:271|90:213|119:161,1,224,2|10,1:2|2:2,0:0:0:0:
223,48,136129,1,2,2:2:0:0:
223,48,136217,1,0,0:0:0:0:
223,48,136305,2,0,P|162:12|112:15,1,112,2|0,1:2|0:0,0:0:0:0:
37,22,136569,1,2,1:2:0:0:
25,42,136658,1,10,2:2:0:0:
118,161,136835,1,2,1:2:0:0:
20,129,137011,6,0,L|8:191,3,56,10|2|2|2,1:3|2:3|2:3|2:3,0:0:0:0:
76,247,137364,2,0,L|88:309,3,56,10|2|2|2,1:3|2:3|2:3|2:3,0:0:0:0:
175,342,137717,1,10,1:3:0:0:
271,325,137894,1,2,2:3:0:0:
331,247,138070,1,2,1:3:0:0:
432,247,138247,1,2,2:3:0:0:
271,169,138423,5,6,1:2:0:0:
